  0
SECTION
  2
HEADER
  9
$ACADVER
  1
AC1018
  9
$ACADMAINTVER
 70
     0
  9
$DWGCODEPAGE
  3
ANSI_1252
  9
$INSBASE
 10
0.0
 20
0.0
 30
0.0
  9
$EXTMIN
 10
1.000000000000000E+20
 20
1.000000000000000E+20
 30
1.000000000000000E+20
  9
$EXTMAX
 10
-1.000000000000000E+20
 20
-1.000000000000000E+20
 30
-1.000000000000000E+20
  9
$LIMMIN
 10
0.0
 20
0.0
  9
$LIMMAX
 10
12.0
 20
9.0
  9
$ORTHOMODE
 70
     0
  9
$REGENMODE
 70
     1
  9
$FILLMODE
 70
     1
  9
$QTEXTMODE
 70
     0
  9
$MIRRTEXT
 70
     1
  9
$LTSCALE
 40
1.0
  9
$ATTMODE
 70
     1
  9
$TEXTSIZE
 40
0.2
  9
$TRACEWID
 40
0.05
  9
$TEXTSTYLE
  7
Standard
  9
$CLAYER
  8
0
  9
$CELTYPE
  6
ByLayer
  9
$CECOLOR
 62
   256
  9
$CELTSCALE
 40
1.0
  9
$DISPSILH
 70
     0
  9
$DIMSCALE
 40
1.0
  9
$DIMASZ
 40
0.18
  9
$DIMEXO
 40
0.0625
  9
$DIMDLI
 40
0.38
  9
$DIMRND
 40
0.0
  9
$DIMDLE
 40
0.0
  9
$DIMEXE
 40
0.18
  9
$DIMTP
 40
0.0
  9
$DIMTM
 40
0.0
  9
$DIMTXT
 40
0.18
  9
$DIMCEN
 40
0.09
  9
$DIMTSZ
 40
0.0
  9
$DIMTOL
 70
     0
  9
$DIMLIM
 70
     0
  9
$DIMTIH
 70
     1
  9
$DIMTOH
 70
     1
  9
$DIMSE1
 70
     0
  9
$DIMSE2
 70
     0
  9
$DIMTAD
 70
     0
  9
$DIMZIN
 70
     0
  9
$DIMBLK
  1

  9
$DIMASO
 70
     1
  9
$DIMSHO
 70
     1
  9
$DIMPOST
  1

  9
$DIMAPOST
  1

  9
$DIMALT
 70
     0
  9
$DIMALTD
 70
     2
  9
$DIMALTF
 40
25.4
  9
$DIMLFAC
 40
1.0
  9
$DIMTOFL
 70
     0
  9
$DIMTVP
 40
0.0
  9
$DIMTIX
 70
     0
  9
$DIMSOXD
 70
     0
  9
$DIMSAH
 70
     0
  9
$DIMBLK1
  1

  9
$DIMBLK2
  1

  9
$DIMSTYLE
  2
Standard
  9
$DIMCLRD
 70
     0
  9
$DIMCLRE
 70
     0
  9
$DIMCLRT
 70
     0
  9
$DIMTFAC
 40
1.0
  9
$DIMGAP
 40
0.09
  9
$DIMJUST
 70
     0
  9
$DIMSD1
 70
     0
  9
$DIMSD2
 70
     0
  9
$DIMTOLJ
 70
     1
  9
$DIMTZIN
 70
     0
  9
$DIMALTZ
 70
     0
  9
$DIMALTTZ
 70
     0
  9
$DIMUPT
 70
     0
  9
$DIMDEC
 70
     4
  9
$DIMTDEC
 70
     4
  9
$DIMALTU
 70
     2
  9
$DIMALTTD
 70
     2
  9
$DIMTXSTY
  7
Standard
  9
$DIMAUNIT
 70
     0
  9
$DIMADEC
 70
     0
  9
$DIMALTRND
 40
0.0
  9
$DIMAZIN
 70
     0
  9
$DIMDSEP
 70
    46
  9
$DIMATFIT
 70
     3
  9
$DIMFRAC
 70
     0
  9
$DIMLDRBLK
  1

  9
$DIMLUNIT
 70
     2
  9
$DIMLWD
 70
    -2
  9
$DIMLWE
 70
    -2
  9
$DIMTMOVE
 70
     0
  9
$LUNITS
 70
     2
  9
$LUPREC
 70
     4
  9
$SKETCHINC
 40
0.1
  9
$FILLETRAD
 40
0.5
  9
$AUNITS
 70
     0
  9
$AUPREC
 70
     0
  9
$MENU
  1
.
  9
$ELEVATION
 40
0.0
  9
$PELEVATION
 40
0.0
  9
$THICKNESS
 40
0.0
  9
$LIMCHECK
 70
     0
  9
$CHAMFERA
 40
0.5
  9
$CHAMFERB
 40
0.5
  9
$CHAMFERC
 40
1.0
  9
$CHAMFERD
 40
0.0
  9
$SKPOLY
 70
     0
  9
$TDCREATE
 40
2455966.600353461
  9
$TDUCREATE
 40
2455966.058686794
  9
$TDUPDATE
 40
2455966.600353472
  9
$TDUUPDATE
 40
2455966.058686805
  9
$TDINDWG
 40
0.0000000116
  9
$TDUSRTIMER
 40
0.0000000116
  9
$USRTIMER
 70
     1
  9
$ANGBASE
 50
0.0
  9
$ANGDIR
 70
     0
  9
$PDMODE
 70
     0
  9
$PDSIZE
 40
0.0
  9
$PLINEWID
 40
0.0
  9
$SPLFRAME
 70
     0
  9
$SPLINETYPE
 70
     6
  9
$SPLINESEGS
 70
     8
  9
$HANDSEED
  5
109
  9
$SURFTAB1
 70
     6
  9
$SURFTAB2
 70
     6
  9
$SURFTYPE
 70
     6
  9
$SURFU
 70
     6
  9
$SURFV
 70
     6
  9
$UCSBASE
  2

  9
$UCSNAME
  2

  9
$UCSORG
 10
0.0
 20
0.0
 30
0.0
  9
$UCSXDIR
 10
1.0
 20
0.0
 30
0.0
  9
$UCSYDIR
 10
0.0
 20
1.0
 30
0.0
  9
$UCSORTHOREF
  2

  9
$UCSORTHOVIEW
 70
     0
  9
$UCSORGTOP
 10
0.0
 20
0.0
 30
0.0
  9
$UCSORGBOTTOM
 10
0.0
 20
0.0
 30
0.0
  9
$UCSORGLEFT
 10
0.0
 20
0.0
 30
0.0
  9
$UCSORGRIGHT
 10
0.0
 20
0.0
 30
0.0
  9
$UCSORGFRONT
 10
0.0
 20
0.0
 30
0.0
  9
$UCSORGBACK
 10
0.0
 20
0.0
 30
0.0
  9
$PUCSBASE
  2

  9
$PUCSNAME
  2

  9
$PUCSORG
 10
0.0
 20
0.0
 30
0.0
  9
$PUCSXDIR
 10
1.0
 20
0.0
 30
0.0
  9
$PUCSYDIR
 10
0.0
 20
1.0
 30
0.0
  9
$PUCSORTHOREF
  2

  9
$PUCSORTHOVIEW
 70
     0
  9
$PUCSORGTOP
 10
0.0
 20
0.0
 30
0.0
  9
$PUCSORGBOTTOM
 10
0.0
 20
0.0
 30
0.0
  9
$PUCSORGLEFT
 10
0.0
 20
0.0
 30
0.0
  9
$PUCSORGRIGHT
 10
0.0
 20
0.0
 30
0.0
  9
$PUCSORGFRONT
 10
0.0
 20
0.0
 30
0.0
  9
$PUCSORGBACK
 10
0.0
 20
0.0
 30
0.0
  9
$USERI1
 70
     0
  9
$USERI2
 70
     0
  9
$USERI3
 70
     0
  9
$USERI4
 70
     0
  9
$USERI5
 70
     0
  9
$USERR1
 40
0.0
  9
$USERR2
 40
0.0
  9
$USERR3
 40
0.0
  9
$USERR4
 40
0.0
  9
$USERR5
 40
0.0
  9
$WORLDVIEW
 70
     1
  9
$SHADEDGE
 70
     3
  9
$SHADEDIF
 70
    70
  9
$TILEMODE
 70
     1
  9
$MAXACTVP
 70
    64
  9
$PINSBASE
 10
0.0
 20
0.0
 30
0.0
  9
$PLIMCHECK
 70
     0
  9
$PEXTMIN
 10
1.000000000000000E+20
 20
1.000000000000000E+20
 30
1.000000000000000E+20
  9
$PEXTMAX
 10
-1.000000000000000E+20
 20
-1.000000000000000E+20
 30
-1.000000000000000E+20
  9
$PLIMMIN
 10
0.0
 20
0.0
  9
$PLIMMAX
 10
12.0
 20
9.0
  9
$UNITMODE
 70
     0
  9
$VISRETAIN
 70
     1
  9
$PLINEGEN
 70
     0
  9
$PSLTSCALE
 70
     1
  9
$TREEDEPTH
 70
  3020
  9
$CMLSTYLE
  2
Standard
  9
$CMLJUST
 70
     0
  9
$CMLSCALE
 40
1.0
  9
$PROXYGRAPHICS
 70
     1
  9
$MEASUREMENT
 70
     0
  9
$CELWEIGHT
370
    -1
  9
$ENDCAPS
280
     0
  9
$JOINSTYLE
280
     0
  9
$LWDISPLAY
290
     1
  9
$INSUNITS
 70
     0
  9
$HYPERLINKBASE
  1

  9
$STYLESHEET
  1

  9
$XEDIT
290
     1
  9
$CEPSNTYPE
380
     0
  9
$PSTYLEMODE
290
     1
  9
$FINGERPRINTGUID
  2
{EA113622-F67A-4E4F-8042-A2AACCEF3AB4}
  9
$VERSIONGUID
  2
{FAEB1C32-E019-11D5-929B-00C0DF256EC4}
  9
$EXTNAMES
290
     1
  9
$PSVPSCALE
 40
0.0
  9
$OLESTARTUP
290
     0
  9
$SORTENTS
280
   127
  9
$INDEXCTL
280
     0
  9
$HIDETEXT
280
     1
  9
$XCLIPFRAME
290
     0
  9
$HALOGAP
280
     0
  9
$OBSCOLOR
 70
   257
  9
$OBSLTYPE
280
     0
  9
$INTERSECTIONDISPLAY
280
     0
  9
$INTERSECTIONCOLOR
 70
   257
  9
$DIMASSOC
280
     2
  9
$PROJECTNAME
  1

  0
ENDSEC
  0
SECTION
  2
CLASSES
  0
CLASS
  1
ACDBDICTIONARYWDFLT
  2
AcDbDictionaryWithDefault
  3
ObjectDBX Classes
 90
        0
 91
        4
280
     0
281
     0
  0
CLASS
  1
VISUALSTYLE
  2
AcDbVisualStyle
  3
ObjectDBX Classes
 90
     4095
 91
        4
280
     0
281
     0
  0
CLASS
  1
SCALE
  2
AcDbScale
  3
ObjectDBX Classes
 90
     1153
 91
        4
280
     0
281
     0
  0
CLASS
  1
DICTIONARYVAR
  2
AcDbDictionaryVar
  3
ObjectDBX Classes
 90
        0
 91
        4
280
     0
281
     0
  0
ENDSEC
  0
SECTION
  2
TABLES
  0
TABLE
  2
VPORT
  5
8
330
0
100
AcDbSymbolTable
 70
     1
  0
VPORT
  5
29
330
8
100
AcDbSymbolTableRecord
100
AcDbViewportTableRecord
  2
*Active
 70
     0
 10
0.0
 20
0.0
 11
1.0
 21
1.0
 12
22.63782385579711
 22
-5.556320373656007
 13
0.0
 23
0.0
 14
0.5
 24
0.5
 15
0.5
 25
0.5
 16
0.0
 26
0.0
 36
1.0
 17
0.0
 27
0.0
 37
0.0
 40
197.7841514088312
 41
1.405689895597617
 42
50.0
 43
0.0
 44
0.0
 50
0.0
 51
0.0
 71
     0
 72
   100
 73
     1
 74
     3
 75
     0
 76
     0
 77
     0
 78
     0
281
     0
 65
     1
110
0.0
120
0.0
130
0.0
111
1.0
121
0.0
131
0.0
112
0.0
122
1.0
132
0.0
 79
     0
146
0.0
  0
ENDTAB
  0
TABLE
  2
LTYPE
  5
5
330
0
100
AcDbSymbolTable
 70
     1
  0
LTYPE
  5
14
330
5
100
AcDbSymbolTableRecord
100
AcDbLinetypeTableRecord
  2
ByBlock
 70
     0
  3

 72
    65
 73
     0
 40
0.0
  0
LTYPE
  5
15
330
5
100
AcDbSymbolTableRecord
100
AcDbLinetypeTableRecord
  2
ByLayer
 70
     0
  3

 72
    65
 73
     0
 40
0.0
  0
LTYPE
  5
16
330
5
100
AcDbSymbolTableRecord
100
AcDbLinetypeTableRecord
  2
Continuous
 70
     0
  3
Solid line
 72
    65
 73
     0
 40
0.0
  0
ENDTAB
  0
TABLE
  2
LAYER
  5
2
330
0
100
AcDbSymbolTable
 70
     9
  0
LAYER
  5
10
330
2
100
AcDbSymbolTableRecord
100
AcDbLayerTableRecord
  2
0
 70
     0
 62
     7
  6
Continuous
370
    -3
390
F
  0
LAYER
  5
3C
330
2
100
AcDbSymbolTableRecord
100
AcDbLayerTableRecord
  2
chh-08_Pen_No__8_Pen_No__101
 70
     0
 62
     8
  6
Continuous
370
    13
390
F
  0
LAYER
  5
42
330
2
100
AcDbSymbolTableRecord
100
AcDbLayerTableRecord
  2
chh-08_Pen_No__8_Pen_No__2
 70
     0
 62
     8
420
  8355711
  6
Continuous
370
    15
390
F
  0
LAYER
  5
49
330
2
100
AcDbSymbolTableRecord
100
AcDbLayerTableRecord
  2
chh-06_Pen_No__7_Pen_No__7
 70
     0
 62
     7
  6
Continuous
370
    18
390
F
  0
LAYER
  5
53
330
2
100
AcDbSymbolTableRecord
100
AcDbLayerTableRecord
  2
chh-txt_Pen_No__1
 70
     0
 62
     7
  6
Continuous
370
    13
390
F
  0
LAYER
  5
56
330
2
100
AcDbSymbolTableRecord
100
AcDbLayerTableRecord
  2
chh-txt_Pen_No__7
 70
     0
 62
     7
  6
Continuous
370
    18
390
F
  0
LAYER
  5
80
330
2
100
AcDbSymbolTableRecord
100
AcDbLayerTableRecord
  2
chh-txt
 70
     0
 62
     7
  6
Continuous
370
    -3
390
F
  0
LAYER
  5
FB
330
2
100
AcDbSymbolTableRecord
100
AcDbLayerTableRecord
  2
chh-txt_Pen_No__7_Pen_No__7
 70
     0
 62
     7
  6
Continuous
370
    18
390
F
  0
LAYER
  5
FE
330
2
100
AcDbSymbolTableRecord
100
AcDbLayerTableRecord
  2
Defpoints_Pen_No__1_Pen_No__115
 70
     0
 62
   211
420
 16738047
  6
Continuous
370
    13
390
F
  0
ENDTAB
  0
TABLE
  2
STYLE
  5
3
330
0
100
AcDbSymbolTable
 70
     2
  0
STYLE
  5
11
330
3
100
AcDbSymbolTableRecord
100
AcDbTextStyleTableRecord
  2
Standard
 70
     0
 40
0.0
 41
1.0
 50
0.0
 71
     0
 42
0.2
  3
txt
  4
BIGFONT.SHX
  0
STYLE
  5
5B
330
3
100
AcDbSymbolTableRecord
100
AcDbTextStyleTableRecord
  2
GENERATED_STYLE_1
 70
     0
 40
0.0
 41
1.0
 50
0.0
 71
     0
 42
0.2
  3

  4

1001
ACAD
1000
Arial Unicode MS
1071
       34
  0
ENDTAB
  0
TABLE
  2
VIEW
  5
6
330
0
100
AcDbSymbolTable
 70
     0
  0
ENDTAB
  0
TABLE
  2
UCS
  5
7
330
0
100
AcDbSymbolTable
 70
     0
  0
ENDTAB
  0
TABLE
  2
APPID
  5
9
330
0
100
AcDbSymbolTable
 70
     1
  0
APPID
  5
12
330
9
100
AcDbSymbolTableRecord
100
AcDbRegAppTableRecord
  2
ACAD
 70
     0
  0
ENDTAB
  0
TABLE
  2
DIMSTYLE
  5
A
330
0
100
AcDbSymbolTable
 70
     3
100
AcDbDimStyleTable
  0
DIMSTYLE
105
27
330
A
100
AcDbSymbolTableRecord
100
AcDbDimStyleTableRecord
  2
Standard
 70
     0
340
11
  0
DIMSTYLE
105
81
102
{ACAD_REACTORS
330
7F
330
9F
330
C1
330
E3
102
}
330
A
100
AcDbSymbolTableRecord
100
AcDbDimStyleTableRecord
  2
GENERATED_STYLE__1
 70
     0
 41
0.0085895061577885
 42
1.0
 73
     0
 74
     0
 77
     1
140
5.0
172
     1
176
     7
177
     7
178
     7
271
     0
340
5B
342
82
343
82
344
82
  0
DIMSTYLE
105
93
102
{ACAD_REACTORS
330
92
330
AA
330
B5
330
CC
330
D7
330
EE
330
F9
102
}
330
A
100
AcDbSymbolTableRecord
100
AcDbDimStyleTableRecord
  2
GENERATED_STYLE__2
 70
     0
 41
0.0085895061577885
 42
1.0
 77
     1
140
5.0
172
     1
176
     7
177
     7
178
     7
271
     0
340
5B
342
82
343
82
344
82
  0
ENDTAB
  0
TABLE
  2
BLOCK_RECORD
  5
1
330
0
100
AcDbSymbolTable
 70
    14
  0
BLOCK_RECORD
  5
1F
330
1
100
AcDbSymbolTableRecord
100
AcDbBlockTableRecord
  2
*Model_Space
340
22
  0
BLOCK_RECORD
  5
1B
330
1
100
AcDbSymbolTableRecord
100
AcDbBlockTableRecord
  2
*Paper_Space
340
1E
  0
BLOCK_RECORD
  5
23
330
1
100
AcDbSymbolTableRecord
100
AcDbBlockTableRecord
  2
*Paper_Space0
340
26
  0
BLOCK_RECORD
  5
4F
330
1
100
AcDbSymbolTableRecord
100
AcDbBlockTableRecord
  2
*D1
340
0
  0
BLOCK_RECORD
  5
82
330
1
100
AcDbSymbolTableRecord
100
AcDbBlockTableRecord
  2
ARROWHEAD_2
340
0
  0
BLOCK_RECORD
  5
87
330
1
100
AcDbSymbolTableRecord
100
AcDbBlockTableRecord
  2
*D3
340
0
  0
BLOCK_RECORD
  5
94
330
1
100
AcDbSymbolTableRecord
100
AcDbBlockTableRecord
  2
*D4
340
0
  0
BLOCK_RECORD
  5
A0
330
1
100
AcDbSymbolTableRecord
100
AcDbBlockTableRecord
  2
*D5
340
0
  0
BLOCK_RECORD
  5
AB
330
1
100
AcDbSymbolTableRecord
100
AcDbBlockTableRecord
  2
*D6
340
0
  0
BLOCK_RECORD
  5
B6
330
1
100
AcDbSymbolTableRecord
100
AcDbBlockTableRecord
  2
*D7
340
0
  0
BLOCK_RECORD
  5
C2
330
1
100
AcDbSymbolTableRecord
100
AcDbBlockTableRecord
  2
*D8
340
0
  0
BLOCK_RECORD
  5
CD
330
1
100
AcDbSymbolTableRecord
100
AcDbBlockTableRecord
  2
*D9
340
0
  0
BLOCK_RECORD
  5
D8
330
1
100
AcDbSymbolTableRecord
100
AcDbBlockTableRecord
  2
*D10
340
0
  0
BLOCK_RECORD
  5
E4
330
1
100
AcDbSymbolTableRecord
100
AcDbBlockTableRecord
  2
*D11
340
0
  0
BLOCK_RECORD
  5
EF
330
1
100
AcDbSymbolTableRecord
100
AcDbBlockTableRecord
  2
*D12
340
0
  0
BLOCK_RECORD
  5
100
330
1
100
AcDbSymbolTableRecord
100
AcDbBlockTableRecord
  2
Untitled _STORY_MARKER
340
0
  0
ENDTAB
  0
ENDSEC
  0
SECTION
  2
BLOCKS
  0
BLOCK
  5
20
330
1F
100
AcDbEntity
  8
0
100
AcDbBlockBegin
  2
*Model_Space
 70
     0
 10
0.0
 20
0.0
 30
0.0
  3
*Model_Space
  1

  0
ENDBLK
  5
21
330
1F
100
AcDbEntity
  8
0
100
AcDbBlockEnd
  0
BLOCK
  5
1C
330
1B
100
AcDbEntity
 67
     1
  8
0
100
AcDbBlockBegin
  2
*Paper_Space
 70
     0
 10
0.0
 20
0.0
 30
0.0
  3
*Paper_Space
  1

  0
ENDBLK
  5
1D
330
1B
100
AcDbEntity
 67
     1
  8
0
100
AcDbBlockEnd
  0
BLOCK
  5
24
330
23
100
AcDbEntity
  8
0
100
AcDbBlockBegin
  2
*Paper_Space0
 70
     0
 10
0.0
 20
0.0
 30
0.0
  3
*Paper_Space0
  1

  0
ENDBLK
  5
25
330
23
100
AcDbEntity
  8
0
100
AcDbBlockEnd
  0
BLOCK
  5
50
330
4F
100
AcDbEntity
  8
0
100
AcDbBlockBegin
  2
*D1
 70
     1
 10
0.0
 20
0.0
 30
0.0
  3
*D1
  1

  0
POINT
  5
52
330
4F
100
AcDbEntity
  8
chh-txt_Pen_No__1
  6
Continuous
100
AcDbPoint
 10
-107.6480502347632
 20
63.6035767679078
 30
0.0
  0
LINE
  5
54
330
4F
100
AcDbEntity
  8
chh-txt_Pen_No__1
  6
Continuous
100
AcDbLine
 10
-107.6480502347632
 20
63.60910343700144
 30
0.0
 11
-107.6480502347632
 21
75.60910343700145
 31
0.0
  0
LINE
  5
55
330
4F
100
AcDbEntity
  8
chh-txt_Pen_No__7
  6
Continuous
100
AcDbLine
 10
-107.6537012256565
 20
63.61236603659368
 30
0.0
 11
-107.6423992438699
 21
63.6058408374092
 31
0.0
  0
LINE
  5
57
330
4F
100
AcDbEntity
  8
chh-txt_Pen_No__7
  6
Continuous
100
AcDbLine
 10
-107.6423992438699
 20
75.6058408374092
 30
0.0
 11
-107.6537012256565
 21
75.61236603659368
 31
0.0
  0
POINT
  5
58
330
4F
100
AcDbEntity
  8
chh-txt_Pen_No__1
  6
Continuous
100
AcDbPoint
 10
-107.6480502347632
 20
75.60910343700145
 30
0.0
  0
LINE
  5
59
330
4F
100
AcDbEntity
  8
chh-txt_Pen_No__1
  6
Continuous
100
AcDbLine
 10
-88.65721732421372
 20
63.60910343700144
 30
0.0
 11
-107.6565267211031
 21
63.60910343700144
 31
0.0
  0
LINE
  5
5A
330
4F
100
AcDbEntity
  8
chh-txt_Pen_No__1
  6
Continuous
100
AcDbLine
 10
-88.65721732421372
 20
75.60910343700145
 30
0.0
 11
-107.6565267211031
 21
75.60910343700145
 31
0.0
  0
MTEXT
  5
5C
330
4F
100
AcDbEntity
  8
chh-txt_Pen_No__7
100
AcDbMText
 10
-113.6480502347632
 20
65.70320343547556
 30
0.0
 40
5.0
 41
0.0
 71
     1
 72
     1
  1
{12}
  7
GENERATED_STYLE_1
 11
6.123233995736766E-17
 21
1.0
 31
0.0
 73
     1
 44
1.0
  0
ENDBLK
  5
51
330
4F
100
AcDbEntity
  8
0
100
AcDbBlockEnd
  0
BLOCK
  5
83
330
82
100
AcDbEntity
  8
0
100
AcDbBlockBegin
  2
ARROWHEAD_2
 70
     0
 10
0.0
 20
0.0
 30
0.0
  3
ARROWHEAD_2
  1

  0
LINE
  5
85
330
82
100
AcDbEntity
  8
0
  6
Continuous
 62
     0
370
     0
100
AcDbLine
 10
-0.3781315
 20
-0.655
 30
0.0
 11
0.3781315
 21
0.655
 31
0.0
  0
LINE
  5
86
330
82
100
AcDbEntity
  8
0
  6
Continuous
 62
     0
370
     0
100
AcDbLine
 10
0.0
 20
0.0
 30
0.0
 11
-1.0
 21
0.0
 31
0.0
  0
ENDBLK
  5
84
330
82
100
AcDbEntity
  8
0
100
AcDbBlockEnd
  0
BLOCK
  5
88
330
87
100
AcDbEntity
  8
0
100
AcDbBlockBegin
  2
*D3
 70
     1
 10
0.0
 20
0.0
 30
0.0
  3
*D3
  1

  0
POINT
  5
8A
330
87
100
AcDbEntity
  8
chh-txt_Pen_No__1
  6
Continuous
100
AcDbPoint
 10
-86.63835592461143
 20
85.39669502282987
 30
0.0
  0
LINE
  5
8B
330
87
100
AcDbEntity
  8
chh-txt_Pen_No__1
  6
Continuous
100
AcDbLine
 10
-86.63282925551779
 20
85.39669502282987
 30
0.0
 11
-70.6328302064568
 21
85.39669502282987
 31
0.0
  0
LINE
  5
8C
330
87
100
AcDbEntity
  8
chh-txt_Pen_No__7
  6
Continuous
100
AcDbLine
 10
-86.62956665592556
 20
85.40234601372315
 30
0.0
 11
-86.63609185511004
 21
85.39104403193659
 31
0.0
  0
LINE
  5
8D
330
87
100
AcDbEntity
  8
chh-txt_Pen_No__7
  6
Continuous
100
AcDbLine
 10
-70.63609280604905
 20
85.39104403193659
 30
0.0
 11
-70.62956760686457
 21
85.40234601372315
 31
0.0
  0
POINT
  5
8E
330
87
100
AcDbEntity
  8
chh-txt_Pen_No__1
  6
Continuous
100
AcDbPoint
 10
-70.6328302064568
 20
85.39669502282987
 30
0.0
  0
LINE
  5
8F
330
87
100
AcDbEntity
  8
chh-txt_Pen_No__1
  6
Continuous
100
AcDbLine
 10
-86.63282925551779
 20
77.90559893120097
 30
0.0
 11
-86.63282925551779
 21
85.40517150916979
 31
0.0
  0
LINE
  5
90
330
87
100
AcDbEntity
  8
chh-txt_Pen_No__1
  6
Continuous
100
AcDbLine
 10
-70.6328302064568
 20
77.90559893120097
 30
0.0
 11
-70.6328302064568
 21
85.40517150916979
 31
0.0
  0
MTEXT
  5
91
330
87
100
AcDbEntity
  8
chh-txt_Pen_No__7
100
AcDbMText
 10
-82.53872973251318
 20
91.39669502282987
 30
0.0
 40
5.0
 41
0.0
 71
     1
 72
     1
  1
{16}
  7
GENERATED_STYLE_1
 73
     1
 44
1.0
  0
ENDBLK
  5
89
330
87
100
AcDbEntity
  8
0
100
AcDbBlockEnd
  0
BLOCK
  5
95
330
94
100
AcDbEntity
  8
0
100
AcDbBlockBegin
  2
*D4
 70
     1
 10
0.0
 20
0.0
 30
0.0
  3
*D4
  1

  0
POINT
  5
97
330
94
100
AcDbEntity
  8
chh-txt_Pen_No__7
  6
Continuous
100
AcDbPoint
 10
158.9152214600175
 20
70.10357676790775
 30
0.0
  0
LINE
  5
98
330
94
100
AcDbEntity
  8
chh-txt_Pen_No__7
  6
Continuous
100
AcDbLine
 10
158.9152214600175
 20
70.10910343700138
 30
0.0
 11
158.9152214600175
 21
75.60715031200115
 31
0.0
  0
LINE
  5
99
330
94
100
AcDbEntity
  8
chh-txt_Pen_No__7
  6
Continuous
100
AcDbLine
 10
158.9095704691242
 20
70.11236603659363
 30
0.0
 11
158.9208724509108
 21
70.10584083740915
 31
0.0
  0
LINE
  5
9A
330
94
100
AcDbEntity
  8
chh-txt_Pen_No__7
  6
Continuous
100
AcDbLine
 10
158.9208724509108
 20
75.60388771240892
 30
0.0
 11
158.9095704691242
 21
75.6104129115934
 31
0.0
  0
POINT
  5
9B
330
94
100
AcDbEntity
  8
chh-txt_Pen_No__7
  6
Continuous
100
AcDbPoint
 10
158.9152214600175
 20
75.60715031200115
 30
0.0
  0
LINE
  5
9C
330
94
100
AcDbEntity
  8
chh-txt_Pen_No__7
  6
Continuous
100
AcDbLine
 10
158.9236979463574
 20
70.10910343700138
 30
0.0
 11
143.8624090164011
 21
70.10910343700138
 31
0.0
  0
LINE
  5
9D
330
94
100
AcDbEntity
  8
chh-txt_Pen_No__7
  6
Continuous
100
AcDbLine
 10
158.9236979463574
 20
75.60715031200115
 30
0.0
 11
143.8624090164011
 21
75.60715031200115
 31
0.0
  0
MTEXT
  5
9E
330
94
100
AcDbEntity
  8
chh-txt_Pen_No__7
100
AcDbMText
 10
152.9152214600175
 20
60.31758719478265
 30
0.0
 40
5.0
 41
0.0
 71
     1
 72
     1
  1
{5.5}
  7
GENERATED_STYLE_1
 11
6.123233995736766E-17
 21
1.0
 31
0.0
 73
     1
 44
1.0
  0
ENDBLK
  5
96
330
94
100
AcDbEntity
  8
0
100
AcDbBlockEnd
  0
BLOCK
  5
A1
330
A0
100
AcDbEntity
  8
0
100
AcDbBlockBegin
  2
*D5
 70
     1
 10
0.0
 20
0.0
 30
0.0
  3
*D5
  1

  0
POINT
  5
A3
330
A0
100
AcDbEntity
  8
chh-txt_Pen_No__1
  6
Continuous
100
AcDbPoint
 10
-86.63835592461143
 20
11.58954471082829
 30
0.0
  0
LINE
  5
A4
330
A0
100
AcDbEntity
  8
chh-txt_Pen_No__1
  6
Continuous
100
AcDbLine
 10
-86.63282925551779
 20
11.58954471082829
 30
0.0
 11
-70.63282925551778
 21
11.58954471082829
 31
0.0
  0
LINE
  5
A5
330
A0
100
AcDbEntity
  8
chh-txt_Pen_No__7
  6
Continuous
100
AcDbLine
 10
-86.62956665592556
 20
11.59519570172157
 30
0.0
 11
-86.63609185511004
 21
11.58389371993501
 31
0.0
  0
LINE
  5
A6
330
A0
100
AcDbEntity
  8
chh-txt_Pen_No__1
  6
Continuous
100
AcDbLine
 10
-86.63282925551779
 20
1.995914096156071
 30
0.0
 11
-86.63282925551779
 21
11.59802119716822
 31
0.0
  0
LINE
  5
A7
330
A0
100
AcDbEntity
  8
chh-txt_Pen_No__1
  6
Continuous
100
AcDbLine
 10
-70.63282925551778
 20
1.995914096156071
 30
0.0
 11
-70.63282925551778
 21
11.59802119716822
 31
0.0
  0
LINE
  5
A8
330
A0
100
AcDbEntity
  8
chh-txt_Pen_No__7
  6
Continuous
100
AcDbLine
 10
-70.62956665592554
 20
11.59519570172157
 30
0.0
 11
-70.63609185511002
 21
11.58389371993501
 31
0.0
  0
MTEXT
  5
A9
330
A0
100
AcDbEntity
  8
chh-txt_Pen_No__7
100
AcDbMText
 10
-82.53872925704367
 20
17.5895447108283
 30
0.0
 40
5.0
 41
0.0
 71
     1
 72
     1
  1
{16}
  7
GENERATED_STYLE_1
 73
     1
 44
1.0
  0
ENDBLK
  5
A2
330
A0
100
AcDbEntity
  8
0
100
AcDbBlockEnd
  0
BLOCK
  5
AC
330
AB
100
AcDbEntity
  8
0
100
AcDbBlockBegin
  2
*D6
 70
     1
 10
0.0
 20
0.0
 30
0.0
  3
*D6
  1

  0
LINE
  5
AE
330
AB
100
AcDbEntity
  8
chh-txt_Pen_No__1
  6
Continuous
100
AcDbLine
 10
-70.63282925551778
 20
1.995914096156071
 30
0.0
 11
-70.63282925551778
 21
11.59802119716822
 31
0.0
  0
LINE
  5
AF
330
AB
100
AcDbEntity
  8
chh-txt_Pen_No__1
  6
Continuous
100
AcDbLine
 10
-70.63282925551778
 20
11.58954471082829
 30
0.0
 11
-61.63282925551778
 21
11.58954471082829
 31
0.0
  0
LINE
  5
B0
330
AB
100
AcDbEntity
  8
chh-txt_Pen_No__7
  6
Continuous
100
AcDbLine
 10
-70.62956665592554
 20
11.59519570172157
 30
0.0
 11
-70.63609185511002
 21
11.58389371993501
 31
0.0
  0
LINE
  5
B1
330
AB
100
AcDbEntity
  8
chh-txt_Pen_No__7
  6
Continuous
100
AcDbLine
 10
-61.63609185511001
 20
11.58389371993501
 30
0.0
 11
-61.62956665592554
 21
11.59519570172157
 31
0.0
  0
POINT
  5
B2
330
AB
100
AcDbEntity
  8
chh-txt_Pen_No__1
  6
Continuous
100
AcDbPoint
 10
-61.63282925551778
 20
11.58954471082829
 30
0.0
  0
LINE
  5
B3
330
AB
100
AcDbEntity
  8
chh-txt_Pen_No__1
  6
Continuous
100
AcDbLine
 10
-61.63282925551778
 20
1.995914096156071
 30
0.0
 11
-61.63282925551778
 21
11.59802119716822
 31
0.0
  0
MTEXT
  5
B4
330
AB
100
AcDbEntity
  8
chh-txt_Pen_No__7
100
AcDbMText
 10
-68.08577174609547
 20
17.5895447108283
 30
0.0
 40
5.0
 41
0.0
 71
     1
 72
     1
  1
{9}
  7
GENERATED_STYLE_1
 73
     1
 44
1.0
  0
ENDBLK
  5
AD
330
AB
100
AcDbEntity
  8
0
100
AcDbBlockEnd
  0
BLOCK
  5
B7
330
B6
100
AcDbEntity
  8
0
100
AcDbBlockBegin
  2
*D7
 70
     1
 10
0.0
 20
0.0
 30
0.0
  3
*D7
  1

  0
POINT
  5
B9
330
B6
100
AcDbEntity
  8
chh-txt_Pen_No__1
  6
Continuous
100
AcDbPoint
 10
158.9152214600175
 20
-5.50552666909358
 30
0.0
  0
LINE
  5
BA
330
B6
100
AcDbEntity
  8
chh-txt_Pen_No__1
  6
Continuous
100
AcDbLine
 10
158.9152214600175
 20
-5.49999999999995
 30
0.0
 11
158.9152214600175
 21
-0.0000000000001119
 31
0.0
  0
LINE
  5
BB
330
B6
100
AcDbEntity
  8
chh-txt_Pen_No__7
  6
Continuous
100
AcDbLine
 10
158.9095704691242
 20
-5.496737400407714
 30
0.0
 11
158.9208724509108
 21
-5.503262599592187
 31
0.0
  0
LINE
  5
BC
330
B6
100
AcDbEntity
  8
chh-txt_Pen_No__7
  6
Continuous
100
AcDbLine
 10
158.9208724509108
 20
-0.0032625995923482
 30
0.0
 11
158.9095704691242
 21
0.0032625995921244
 31
0.0
  0
POINT
  5
BD
330
B6
100
AcDbEntity
  8
chh-txt_Pen_No__1
  6
Continuous
100
AcDbPoint
 10
158.9152214600175
 20
-0.0000000000001119
 30
0.0
  0
LINE
  5
BE
330
B6
100
AcDbEntity
  8
chh-txt_Pen_No__1
  6
Continuous
100
AcDbLine
 10
158.9236979463574
 20
-5.49999999999995
 30
0.0
 11
143.8624090164011
 21
-5.499999999999949
 31
0.0
  0
LINE
  5
BF
330
B6
100
AcDbEntity
  8
chh-txt_Pen_No__1
  6
Continuous
100
AcDbLine
 10
158.9236979463574
 20
-0.0000000000001119
 30
0.0
 11
143.8624090164011
 21
-0.000000000000111
 31
0.0
  0
MTEXT
  5
C0
330
B6
100
AcDbEntity
  8
chh-txt_Pen_No__7
100
AcDbMText
 10
152.9152214600175
 20
-15.29151624221869
 30
0.0
 40
5.0
 41
0.0
 71
     1
 72
     1
  1
{5.5}
  7
GENERATED_STYLE_1
 11
6.123233995736766E-17
 21
1.0
 31
0.0
 73
     1
 44
1.0
  0
ENDBLK
  5
B8
330
B6
100
AcDbEntity
  8
0
100
AcDbBlockEnd
  0
BLOCK
  5
C3
330
C2
100
AcDbEntity
  8
0
100
AcDbBlockBegin
  2
*D8
 70
     1
 10
0.0
 20
0.0
 30
0.0
  3
*D8
  1

  0
POINT
  5
C5
330
C2
100
AcDbEntity
  8
chh-txt_Pen_No__1
  6
Continuous
100
AcDbPoint
 10
-86.63835592461143
 20
-28.81326890700498
 30
0.0
  0
LINE
  5
C6
330
C2
100
AcDbEntity
  8
chh-txt_Pen_No__1
  6
Continuous
100
AcDbLine
 10
-86.63282925551779
 20
-28.81326890700498
 30
0.0
 11
120.7750316819637
 21
-28.81326890700498
 31
0.0
  0
LINE
  5
C7
330
C2
100
AcDbEntity
  8
chh-txt_Pen_No__7
  6
Continuous
100
AcDbLine
 10
-86.62956665592556
 20
-28.80761791611169
 30
0.0
 11
-86.63609185511004
 21
-28.81891989789826
 31
0.0
  0
LINE
  5
C8
330
C2
100
AcDbEntity
  8
chh-txt_Pen_No__1
  6
Continuous
100
AcDbLine
 10
-86.63282925551779
 20
-28.8217453933449
 30
0.0
 11
-86.63282925551779
 21
-14.05184592786357
 31
0.0
  0
LINE
  5
C9
330
C2
100
AcDbEntity
  8
chh-txt_Pen_No__1
  6
Continuous
100
AcDbLine
 10
120.7750316819637
 20
-28.8217453933449
 30
0.0
 11
120.7750316819637
 21
-14.05184592786357
 31
0.0
  0
LINE
  5
CA
330
C2
100
AcDbEntity
  8
chh-txt_Pen_No__7
  6
Continuous
100
AcDbLine
 10
120.7782942815559
 20
-28.80761791611169
 30
0.0
 11
120.7717690823714
 21
-28.81891989789826
 31
0.0
  0
MTEXT
  5
CB
330
C2
100
AcDbEntity
  8
chh-txt_Pen_No__7
100
AcDbMText
 10
9.259326005703409
 20
-22.81326890700497
 30
0.0
 40
5.0
 41
0.0
 71
     1
 72
     1
  1
{1195}
  7
GENERATED_STYLE_1
 73
     1
 44
1.0
  0
ENDBLK
  5
C4
330
C2
100
AcDbEntity
  8
0
100
AcDbBlockEnd
  0
BLOCK
  5
CE
330
CD
100
AcDbEntity
  8
0
100
AcDbBlockBegin
  2
*D9
 70
     1
 10
0.0
 20
0.0
 30
0.0
  3
*D9
  1

  0
LINE
  5
D0
330
CD
100
AcDbEntity
  8
chh-txt_Pen_No__1
  6
Continuous
100
AcDbLine
 10
120.7750316819637
 20
-28.8217453933449
 30
0.0
 11
120.7750316819637
 21
-14.05184592786357
 31
0.0
  0
LINE
  5
D1
330
CD
100
AcDbEntity
  8
chh-txt_Pen_No__1
  6
Continuous
100
AcDbLine
 10
120.7750316819637
 20
-28.81326890700498
 30
0.0
 11
141.7750316819637
 21
-28.81326890700498
 31
0.0
  0
LINE
  5
D2
330
CD
100
AcDbEntity
  8
chh-txt_Pen_No__7
  6
Continuous
100
AcDbLine
 10
120.7782942815559
 20
-28.80761791611169
 30
0.0
 11
120.7717690823714
 21
-28.81891989789826
 31
0.0
  0
LINE
  5
D3
330
CD
100
AcDbEntity
  8
chh-txt_Pen_No__7
  6
Continuous
100
AcDbLine
 10
141.7717690823714
 20
-28.81891989789826
 30
0.0
 11
141.7782942815559
 21
-28.80761791611169
 31
0.0
  0
POINT
  5
D4
330
CD
100
AcDbEntity
  8
chh-txt_Pen_No__1
  6
Continuous
100
AcDbPoint
 10
141.7750316819637
 20
-28.81326890700498
 30
0.0
  0
LINE
  5
D5
330
CD
100
AcDbEntity
  8
chh-txt_Pen_No__1
  6
Continuous
100
AcDbLine
 10
141.7750316819637
 20
-28.8217453933449
 30
0.0
 11
141.7750316819637
 21
-14.05184592786357
 31
0.0
  0
MTEXT
  5
D6
330
CD
100
AcDbEntity
  8
chh-txt_Pen_No__7
100
AcDbMText
 10
127.3691316804378
 20
-22.81326890700497
 30
0.0
 40
5.0
 41
0.0
 71
     1
 72
     1
  1
{21}
  7
GENERATED_STYLE_1
 73
     1
 44
1.0
  0
ENDBLK
  5
CF
330
CD
100
AcDbEntity
  8
0
100
AcDbBlockEnd
  0
BLOCK
  5
D9
330
D8
100
AcDbEntity
  8
0
100
AcDbBlockBegin
  2
*D10
 70
     1
 10
0.0
 20
0.0
 30
0.0
  3
*D10
  1

  0
POINT
  5
DB
330
D8
100
AcDbEntity
  8
chh-txt_Pen_No__1
  6
Continuous
100
AcDbPoint
 10
-107.6480502347632
 20
-12.00555368453841
 30
0.0
  0
LINE
  5
DC
330
D8
100
AcDbEntity
  8
chh-txt_Pen_No__1
  6
Continuous
100
AcDbLine
 10
-107.6480502347632
 20
-12.00002701544478
 30
0.0
 11
-107.6480502347632
 21
0.0
 31
0.0
  0
LINE
  5
DD
330
D8
100
AcDbEntity
  8
chh-txt_Pen_No__7
  6
Continuous
100
AcDbLine
 10
-107.6537012256565
 20
-11.99676441585255
 30
0.0
 11
-107.6423992438699
 21
-12.00328961503702
 31
0.0
  0
LINE
  5
DE
330
D8
100
AcDbEntity
  8
chh-txt_Pen_No__7
  6
Continuous
100
AcDbLine
 10
-107.6423992438699
 20
-0.0032625995922363
 30
0.0
 11
-107.6537012256565
 21
0.0032625995922363
 31
0.0
  0
POINT
  5
DF
330
D8
100
AcDbEntity
  8
chh-txt_Pen_No__1
  6
Continuous
100
AcDbPoint
 10
-107.6480502347632
 20
0.0
 30
0.0
  0
LINE
  5
E0
330
D8
100
AcDbEntity
  8
chh-txt_Pen_No__1
  6
Continuous
100
AcDbLine
 10
-88.64769660767186
 20
-12.00002701544478
 30
0.0
 11
-107.6565267211031
 21
-12.00002701544478
 31
0.0
  0
LINE
  5
E1
330
D8
100
AcDbEntity
  8
chh-txt_Pen_No__1
  6
Continuous
100
AcDbLine
 10
-88.64769660767186
 20
-0.0000000000000012
 30
0.0
 11
-107.6565267211031
 21
0.0
 31
0.0
  0
MTEXT
  5
E2
330
D8
100
AcDbEntity
  8
chh-txt_Pen_No__7
100
AcDbMText
 10
-113.6480502347632
 20
-9.905913509248268
 30
0.0
 40
5.0
 41
0.0
 71
     1
 72
     1
  1
{12}
  7
GENERATED_STYLE_1
 11
6.123233995736766E-17
 21
1.0
 31
0.0
 73
     1
 44
1.0
  0
ENDBLK
  5
DA
330
D8
100
AcDbEntity
  8
0
100
AcDbBlockEnd
  0
BLOCK
  5
E5
330
E4
100
AcDbEntity
  8
0
100
AcDbBlockBegin
  2
*D11
 70
     1
 10
0.0
 20
0.0
 30
0.0
  3
*D11
  1

  0
POINT
  5
E7
330
E4
100
AcDbEntity
  8
chh-txt_Pen_No__1
  6
Continuous
100
AcDbPoint
 10
-86.63835592461143
 20
46.7938814049963
 30
0.0
  0
LINE
  5
E8
330
E4
100
AcDbEntity
  8
chh-txt_Pen_No__1
  6
Continuous
100
AcDbLine
 10
-86.63282925551779
 20
46.7938814049963
 30
0.0
 11
120.7750316819637
 21
46.7938814049963
 31
0.0
  0
LINE
  5
E9
330
E4
100
AcDbEntity
  8
chh-txt_Pen_No__7
  6
Continuous
100
AcDbLine
 10
-86.62956665592556
 20
46.79953239588958
 30
0.0
 11
-86.63609185511004
 21
46.78823041410302
 31
0.0
  0
LINE
  5
EA
330
E4
100
AcDbEntity
  8
chh-txt_Pen_No__1
  6
Continuous
100
AcDbLine
 10
-86.63282925551779
 20
46.78540491865638
 30
0.0
 11
-86.63282925551779
 21
61.69554974309843
 31
0.0
  0
LINE
  5
EB
330
E4
100
AcDbEntity
  8
chh-txt_Pen_No__1
  6
Continuous
100
AcDbLine
 10
120.7750316819637
 20
46.78540491865638
 30
0.0
 11
120.7750316819637
 21
61.69554974309843
 31
0.0
  0
LINE
  5
EC
330
E4
100
AcDbEntity
  8
chh-txt_Pen_No__7
  6
Continuous
100
AcDbLine
 10
120.7782942815559
 20
46.79953239588958
 30
0.0
 11
120.7717690823714
 21
46.78823041410302
 31
0.0
  0
MTEXT
  5
ED
330
E4
100
AcDbEntity
  8
chh-txt_Pen_No__7
100
AcDbMText
 10
9.259326005703409
 20
52.79388140499629
 30
0.0
 40
5.0
 41
0.0
 71
     1
 72
     1
  1
{1195}
  7
GENERATED_STYLE_1
 73
     1
 44
1.0
  0
ENDBLK
  5
E6
330
E4
100
AcDbEntity
  8
0
100
AcDbBlockEnd
  0
BLOCK
  5
F0
330
EF
100
AcDbEntity
  8
0
100
AcDbBlockBegin
  2
*D12
 70
     1
 10
0.0
 20
0.0
 30
0.0
  3
*D12
  1

  0
LINE
  5
F2
330
EF
100
AcDbEntity
  8
chh-txt_Pen_No__1
  6
Continuous
100
AcDbLine
 10
120.7750316819637
 20
46.78540491865638
 30
0.0
 11
120.7750316819637
 21
61.69554974309843
 31
0.0
  0
LINE
  5
F3
330
EF
100
AcDbEntity
  8
chh-txt_Pen_No__1
  6
Continuous
100
AcDbLine
 10
120.7750316819637
 20
46.7938814049963
 30
0.0
 11
141.7750316819637
 21
46.7938814049963
 31
0.0
  0
LINE
  5
F4
330
EF
100
AcDbEntity
  8
chh-txt_Pen_No__7
  6
Continuous
100
AcDbLine
 10
120.7782942815559
 20
46.79953239588958
 30
0.0
 11
120.7717690823714
 21
46.78823041410302
 31
0.0
  0
LINE
  5
F5
330
EF
100
AcDbEntity
  8
chh-txt_Pen_No__7
  6
Continuous
100
AcDbLine
 10
141.7717690823715
 20
46.78823041410302
 30
0.0
 11
141.778294281556
 21
46.79953239588958
 31
0.0
  0
POINT
  5
F6
330
EF
100
AcDbEntity
  8
chh-txt_Pen_No__1
  6
Continuous
100
AcDbPoint
 10
141.7750316819637
 20
46.7938814049963
 30
0.0
  0
LINE
  5
F7
330
EF
100
AcDbEntity
  8
chh-txt_Pen_No__1
  6
Continuous
100
AcDbLine
 10
141.7750316819637
 20
46.78540491865638
 30
0.0
 11
141.7750316819637
 21
61.69554974309843
 31
0.0
  0
MTEXT
  5
F8
330
EF
100
AcDbEntity
  8
chh-txt_Pen_No__7
100
AcDbMText
 10
127.3691316804378
 20
52.79388140499629
 30
0.0
 40
5.0
 41
0.0
 71
     1
 72
     1
  1
{21}
  7
GENERATED_STYLE_1
 73
     1
 44
1.0
  0
ENDBLK
  5
F1
330
EF
100
AcDbEntity
  8
0
100
AcDbBlockEnd
  0
BLOCK
  5
101
330
100
100
AcDbEntity
  8
0
100
AcDbBlockBegin
  2
Untitled _STORY_MARKER
 70
     0
 10
0.0
 20
0.0
 30
0.0
  3
Untitled _STORY_MARKER
  1

  0
ENDBLK
  5
102
330
100
100
AcDbEntity
  8
0
100
AcDbBlockEnd
  0
ENDSEC
  0
SECTION
  2
ENTITIES
  0
HATCH
  5
3B
330
1F
100
AcDbEntity
  8
chh-08_Pen_No__8_Pen_No__101
  6
Continuous
100
AcDbHatch
 10
0.0
 20
0.0
 30
0.0
210
0.0
220
0.0
230
1.0
  2
Plywood
 70
     0
 71
     0
 91
        1
 92
        2
 72
     0
 73
     1
 93
       14
 10
-70.6328302064568
 20
75.60910343700145
 10
-70.6328302064568
 20
70.10910343700138
 10
-76.63887639652161
 20
70.10910343700138
 10
-76.63282925551779
 20
67.64512292408276
 10
-81.63282925551779
 20
67.64512292408276
 10
-81.63282925551779
 20
70.10910343700138
 10
-86.63282925551779
 20
70.10910343700138
 10
-86.63282925551779
 20
63.60910343700144
 10
-29.04412192392153
 20
63.60910343700144
 10
-26.0409099308407
 20
67.36311842835241
 10
-30.40253366614667
 20
67.36311842835241
 10
-17.31766246022873
 20
71.72474216365843
 10
-21.6792861955347
 20
71.72474216365843
 10
-18.57179717686032
 20
75.60910343700145
 97
        0
 75
     0
 76
     2
 52
0.0
 41
1.0
 77
     0
 78
     1
 53
0.0
 43
0.0
 44
0.0
 45
0.0
 46
2.4
 79
     0
 98
        0
  0
HATCH
  5
3D
330
1F
100
AcDbEntity
  8
chh-08_Pen_No__8_Pen_No__101
  6
Continuous
100
AcDbHatch
 10
0.0
 20
0.0
 30
0.0
210
0.0
220
0.0
230
1.0
  2
Plywood
 70
     0
 71
     0
 91
        1
 92
        2
 72
     0
 73
     1
 93
       10
 10
120.7750316819637
 20
63.60910343700144
 10
120.7750316819637
 20
70.10910343700138
 10
141.7953321935505
 20
70.10910343700138
 10
141.7953321935505
 20
75.60715031200115
 10
-0.0015625000000935
 20
75.60715031200115
 10
-3.107489018674303
 20
71.72474216365843
 10
1.254134716631675
 20
71.72474216365843
 10
-11.83073648928627
 20
67.36311842835241
 10
-7.469112753980295
 20
67.36311842835241
 10
-10.47232474706113
 20
63.60910343700144
 97
        0
 75
     0
 76
     2
 52
0.0
 41
1.0
 77
     0
 78
     1
 53
0.0
 43
0.0
 44
0.0
 45
0.0
 46
2.4
 79
     0
 98
        0
  0
HATCH
  5
3E
330
1F
100
AcDbEntity
  8
chh-08_Pen_No__8_Pen_No__101
  6
Continuous
100
AcDbHatch
 10
0.0
 20
0.0
 30
0.0
210
0.0
220
0.0
230
1.0
  2
Plywood
 70
     0
 71
     0
 91
        1
 92
        2
 72
     1
 73
     1
 93
       23
 10
-29.04289550340676
 20
-11.99846697435658
 42
0.0
 10
-26.0409099308407
 20
-8.245985008648926
 42
0.0
 10
-30.40253366614667
 20
-8.245985008648926
 42
0.0
 10
-17.31766246022873
 20
-3.884361273342796
 42
0.0
 10
-21.6792861955347
 20
-3.884361273342796
 42
0.0
 10
-18.57179717686038
 20
0.0
 42
0.0
 10
-59.7522115527683
 20
0.0
 42
0.0
 10
-61.63282925551778
 20
-1.880617702751275
 42
0.0
 10
-61.63282925551778
 20
-5.188800166803564
 42
-0.32082790447829
 10
-62.63367972468576
 20
-4.36597186189025
 42
0.0
 10
-63.5554375160558
 20
-4.36597186189025
 42
-0.7673269882986307
 10
-65.70664636946447
 20
-4.36597186189025
 42
0.0
 10
-66.55901214157109
 20
-4.36597186189025
 42
-0.7673269882986307
 10
-68.71022099497975
 20
-4.36597186189025
 42
0.0
 10
-69.6319787863498
 20
-4.36597186189025
 42
-0.3208279044782879
 10
-70.63282925551778
 20
-5.188800166803564
 42
0.0
 10
-70.63282925551778
 20
-5.499999999999949
 42
0.0
 10
-76.63282925551779
 20
-5.499999999999949
 42
0.0
 10
-76.63282925551779
 20
-7.963980512918689
 42
0.0
 10
-81.63282925551779
 20
-7.963980512918689
 42
0.0
 10
-81.63282925551779
 20
-5.499999999999949
 42
0.0
 10
-86.63282925551779
 20
-5.499999999999949
 42
0.0
 10
-86.63282925551779
 20
-12.00000000000001
 42
0.0
 97
        0
 75
     0
 76
     2
 52
0.0
 41
1.0
 77
     0
 78
     1
 53
0.0
 43
0.0
 44
0.0
 45
0.0
 46
2.4
 79
     0
 98
        0
  0
HATCH
  5
3F
330
1F
100
AcDbEntity
  8
chh-08_Pen_No__8_Pen_No__101
  6
Continuous
100
AcDbHatch
 10
0.0
 20
0.0
 30
0.0
210
0.0
220
0.0
230
1.0
  2
Plywood
 70
     0
 71
     0
 91
        1
 92
        2
 72
     1
 73
     1
 93
       24
 10
0.0
 20
0.0
 42
0.0
 10
-3.107489018674303
 20
-3.884361273342796
 42
0.0
 10
1.254134716631675
 20
-3.884361273342796
 42
0.0
 10
-11.83073648928627
 20
-8.245985008648926
 42
0.0
 10
-7.469112753980295
 20
-8.245985008648926
 42
0.0
 10
-10.47076224706103
 20
-11.99804687499972
 42
0.0
 10
80.15959803987603
 20
-11.99804687499972
 42
0.0
 10
83.16124753295675
 20
-8.245985008648926
 42
0.0
 10
78.79962379765078
 20
-8.245985008648926
 42
0.0
 10
91.88449500356873
 20
-3.884361273342796
 42
0.0
 10
87.52287126826273
 20
-3.884361273342796
 42
0.0
 10
90.63036028693709
 20
0.0
 42
0.0
 10
43.15327313803015
 20
-0.000000000000111
 42
0.0
 10
42.15327313803015
 20
-1.000000000000112
 42
0.0
 10
42.15327313803015
 20
-5.384110385073804
 42
-0.4736172941525896
 10
40.58303064959807
 20
-4.674659694656524
 42
0.0
 10
39.7306648774919
 20
-4.674659694656524
 42
-0.7673269882986307
 10
37.57945602408324
 20
-4.674659694656524
 42
0.0
 10
36.72709025197707
 20
-4.674659694656302
 42
-0.7673269882986307
 10
34.57588139856841
 20
-4.674659694656524
 42
0.0
 10
33.65412360719835
 20
-4.674659694656302
 42
-0.4528334468246031
 10
32.15327313803015
 20
-5.415604511200933
 42
0.0
 10
32.15327313803015
 20
-1.000000000000112
 42
0.0
 10
31.15327313803015
 20
-0.000000000000111
 42
0.0
 97
        0
 75
     0
 76
     2
 52
0.0
 41
1.0
 77
     0
 78
     1
 53
0.0
 43
0.0
 44
0.0
 45
0.0
 46
2.4
 79
     0
 98
        0
  0
HATCH
  5
40
330
1F
100
AcDbEntity
  8
chh-08_Pen_No__8_Pen_No__101
  6
Continuous
100
AcDbHatch
 10
0.0
 20
0.0
 30
0.0
210
0.0
220
0.0
230
1.0
  2
Plywood
 70
     0
 71
     0
 91
        1
 92
        2
 72
     0
 73
     1
 93
       11
 10
120.7750316819637
 20
-5.499999999999949
 10
141.7750316819637
 20
-5.499999999999949
 10
141.7750316819637
 20
-1.469647204562441
 10
140.6473317190947
 20
-0.000000000000111
 10
109.2021574637974
 20
-0.000000000000111
 10
106.0946684451231
 20
-3.884361273342796
 10
110.4562921804291
 20
-3.884361273342796
 10
97.37142097451118
 20
-8.245985008648926
 10
101.7330447098171
 20
-8.245985008648926
 10
98.7313952167364
 20
-11.99804687499972
 10
120.7750316819637
 20
-11.99804687499972
 97
        0
 75
     0
 76
     2
 52
0.0
 41
1.0
 77
     0
 78
     1
 53
0.0
 43
0.0
 44
0.0
 45
0.0
 46
2.4
 79
     0
 98
        0
  0
LWPOLYLINE
  5
41
330
1F
100
AcDbEntity
  8
chh-08_Pen_No__8_Pen_No__2
  6
Continuous
100
AcDbPolyline
 90
        6
 70
   128
 43
0.0
 10
-12.95603872492276
 20
82.62880150192353
 10
-21.6792861955347
 20
71.72474216365843
 10
-17.31766246022873
 20
71.72474216365843
 10
-30.40253366614667
 20
67.36311842835241
 10
-26.0409099308407
 20
67.36311842835241
 10
-34.76415740145271
 20
56.45905909008753
  0
LWPOLYLINE
  5
43
330
1F
100
AcDbEntity
  8
chh-08_Pen_No__8_Pen_No__2
  6
Continuous
100
AcDbPolyline
 90
        6
 70
   128
 43
0.0
 10
5.615758451937652
 20
82.62880150192353
 10
-3.107489018674303
 20
71.72474216365843
 10
1.254134716631675
 20
71.72474216365843
 10
-11.83073648928627
 20
67.36311842835241
 10
-7.469112753980295
 20
67.36311842835241
 10
-16.19236022459229
 20
56.45905909008753
  0
LWPOLYLINE
  5
44
330
1F
100
AcDbEntity
  8
chh-08_Pen_No__8_Pen_No__2
  6
Continuous
100
AcDbPolyline
 90
        6
 70
   128
 43
0.0
 10
-12.95603872492276
 20
7.019698064921975
 10
-21.6792861955347
 20
-3.884361273342796
 10
-17.31766246022873
 20
-3.884361273342796
 10
-30.40253366614667
 20
-8.245985008648926
 10
-26.0409099308407
 20
-8.245985008648926
 10
-34.76415740145271
 20
-19.15004434691403
  0
LWPOLYLINE
  5
45
330
1F
100
AcDbEntity
  8
chh-08_Pen_No__8_Pen_No__2
  6
Continuous
100
AcDbPolyline
 90
        6
 70
   128
 43
0.0
 10
5.615758451937652
 20
7.019698064921975
 10
-3.107489018674303
 20
-3.884361273342796
 10
1.254134716631675
 20
-3.884361273342796
 10
-11.83073648928627
 20
-8.245985008648926
 10
-7.469112753980295
 20
-8.245985008648926
 10
-16.19236022459229
 20
-19.15004434691403
  0
LWPOLYLINE
  5
46
330
1F
100
AcDbEntity
  8
chh-08_Pen_No__8_Pen_No__2
  6
Continuous
100
AcDbPolyline
 90
        6
 70
   128
 43
0.0
 10
96.2461187388747
 20
7.019698064921975
 10
87.52287126826273
 20
-3.884361273342796
 10
91.88449500356873
 20
-3.884361273342796
 10
78.79962379765078
 20
-8.245985008648926
 10
83.16124753295675
 20
-8.245985008648926
 10
74.43800006234476
 20
-19.15004434691403
  0
LWPOLYLINE
  5
47
330
1F
100
AcDbEntity
  8
chh-08_Pen_No__8_Pen_No__2
  6
Continuous
100
AcDbPolyline
 90
        6
 70
   128
 43
0.0
 10
114.8179159157351
 20
7.019698064921975
 10
106.0946684451231
 20
-3.884361273342796
 10
110.4562921804291
 20
-3.884361273342796
 10
97.37142097451118
 20
-8.245985008648926
 10
101.7330447098172
 20
-8.245985008648926
 10
93.00979723920516
 20
-19.15004434691403
  0
LWPOLYLINE
  5
48
330
1F
100
AcDbEntity
  8
chh-06_Pen_No__7_Pen_No__7
  6
Continuous
100
AcDbPolyline
 90
       10
 70
   128
 43
0.0
 10
-18.57179717686033
 20
75.60910343700145
 10
-70.6328302064568
 20
75.60910343700145
 10
-70.6328302064568
 20
70.10910343700138
 10
-76.63887639652161
 20
70.10910343700138
 10
-76.63282925551779
 20
67.64512292408276
 10
-81.63282925551779
 20
67.64512292408276
 10
-81.63282925551779
 20
70.10910343700138
 10
-86.63282925551779
 20
70.10910343700138
 10
-86.63282925551779
 20
63.60910343700144
 10
-29.04412192392157
 20
63.60910343700144
  0
LWPOLYLINE
  5
4A
330
1F
100
AcDbEntity
  8
chh-06_Pen_No__7_Pen_No__7
  6
Continuous
100
AcDbPolyline
 90
        6
 70
   128
 43
0.0
 10
-10.47232474706113
 20
63.60910343700144
 10
120.7750316819637
 20
63.60910343700144
 10
120.7750316819637
 20
70.10910343700138
 10
141.7953321935505
 20
70.10910343700138
 10
141.7953321935505
 20
75.60715031200115
 10
-0.001562500000149
 20
75.60715031200115
  0
LWPOLYLINE
  5
4B
330
1F
100
AcDbEntity
  8
chh-06_Pen_No__7_Pen_No__7
  6
Continuous
100
AcDbPolyline
 90
       14
 70
   128
 43
0.0
 10
90.63036028693709
 20
0.0
 10
43.15327313803015
 20
-0.000000000000111
 10
42.15327313803015
 20
-1.000000000000112
 10
42.15327313803015
 20
-5.384110385073804
 42
-0.4736172941525899
 10
40.58303064959807
 20
-4.674659694656524
 10
39.7306648774919
 20
-4.674659694656524
 42
-0.7673269882986314
 10
37.57945602408324
 20
-4.674659694656524
 10
36.72709025197707
 20
-4.674659694656302
 42
-0.7673269882986314
 10
34.57588139856841
 20
-4.674659694656524
 10
33.65412360719835
 20
-4.674659694656302
 42
-0.4528334468246033
 10
32.15327313803015
 20
-5.415604511200933
 10
32.15327313803015
 20
-1.000000000000112
 10
31.15327313803015
 20
-0.000000000000111
 10
0.0000000000000278
 20
0.0
  0
LWPOLYLINE
  5
4C
330
1F
100
AcDbEntity
  8
chh-06_Pen_No__7_Pen_No__7
  6
Continuous
100
AcDbPolyline
 90
        2
 70
   128
 43
0.0
 10
-10.47076224706103
 20
-11.99804687499972
 10
80.159598039876
 20
-11.99804687499972
  0
LWPOLYLINE
  5
4D
330
1F
100
AcDbEntity
  8
chh-06_Pen_No__7_Pen_No__7
  6
Continuous
100
AcDbPolyline
 90
       19
 70
   128
 43
0.0
 10
-18.57179717686035
 20
0.0
 10
-59.7522115527683
 20
0.0
 10
-61.63282925551778
 20
-1.880617702751275
 10
-61.63282925551778
 20
-5.188800166803564
 42
-0.32082790447829
 10
-62.63367972468576
 20
-4.36597186189025
 10
-63.5554375160558
 20
-4.36597186189025
 42
-0.7673269882986307
 10
-65.70664636946447
 20
-4.36597186189025
 10
-66.55901214157109
 20
-4.36597186189025
 42
-0.7673269882986307
 10
-68.71022099497975
 20
-4.36597186189025
 10
-69.6319787863498
 20
-4.36597186189025
 42
-0.320827904478288
 10
-70.63282925551778
 20
-5.188800166803564
 10
-70.63282925551778
 20
-5.499999999999949
 10
-76.63282925551779
 20
-5.499999999999949
 10
-76.63282925551779
 20
-7.963980512918689
 10
-81.63282925551779
 20
-7.963980512918689
 10
-81.63282925551779
 20
-5.499999999999949
 10
-86.63282925551779
 20
-5.499999999999949
 10
-86.63282925551779
 20
-12.00000000000001
 10
-29.04289550340675
 20
-11.99846697435658
  0
LWPOLYLINE
  5
4E
330
1F
100
AcDbEntity
  8
chh-06_Pen_No__7_Pen_No__7
  6
Continuous
100
AcDbPolyline
 90
        7
 70
   128
 43
0.0
 10
98.73139521673643
 20
-11.99804687499972
 10
120.7750316819637
 20
-11.99804687499972
 10
120.7750316819637
 20
-5.499999999999949
 10
141.7750316819637
 20
-5.499999999999949
 10
141.7750316819637
 20
-1.469647204562441
 10
140.6473317190947
 20
-0.000000000000111
 10
109.2021574637974
 20
-0.000000000000111
  0
DIMENSION
  5
7F
330
1F
100
AcDbEntity
  8
chh-txt
  6
Continuous
100
AcDbDimension
  2
*D1
 10
-107.6480502347632
 20
63.60910343700144
 30
0.0
 11
-111.1480502347632
 21
69.45177843547556
 31
0.0
 70
    32
 71
     5
 42
-1.0
  3
GENERATED_STYLE__1
100
AcDbAlignedDimension
 13
-87.65721732421372
 23
63.60910343700144
 33
0.0
 14
-87.65721732421372
 24
75.60910343700145
 34
0.0
 50
90.0
100
AcDbRotatedDimension
  0
DIMENSION
  5
92
330
1F
100
AcDbEntity
  8
chh-txt
  6
Continuous
100
AcDbDimension
  2
*D3
 10
-86.63282925551779
 20
85.39669502282987
 30
0.0
 11
-78.79015473251317
 21
88.89669502282987
 31
0.0
 70
    32
 71
     5
 42
-1.0
  3
GENERATED_STYLE__2
100
AcDbAlignedDimension
 13
-86.63282925551779
 23
76.90559893120097
 33
0.0
 14
-70.6328302064568
 24
76.90559893120097
 34
0.0
100
AcDbRotatedDimension
  0
DIMENSION
  5
9F
330
1F
100
AcDbEntity
  8
chh-txt
  6
Continuous
100
AcDbDimension
  2
*D4
 10
158.9152214600175
 20
70.10910343700138
 30
0.0
 11
155.4152214600175
 21
65.09473719478265
 31
0.0
 70
    32
  1
\A1;5.5
 71
     5
 42
-1.0
  3
GENERATED_STYLE__1
100
AcDbAlignedDimension
 13
142.8624090164011
 23
70.10910343700138
 33
0.0
 14
142.8624090164011
 24
75.60715031200115
 34
0.0
 50
90.0
100
AcDbRotatedDimension
  0
DIMENSION
  5
AA
330
1F
100
AcDbEntity
  8
chh-txt
  6
Continuous
100
AcDbDimension
  2
*D5
 10
-86.63282925551779
 20
11.58954471082829
 30
0.0
 11
-78.79015425704367
 21
15.08954471082829
 31
0.0
 70
    32
 71
     5
 42
-1.0
  3
GENERATED_STYLE__2
100
AcDbAlignedDimension
 13
-86.63282925551779
 23
0.9959140961560697
 33
0.0
 14
-70.63282925551778
 24
0.9959140961560697
 34
0.0
100
AcDbRotatedDimension
  0
DIMENSION
  5
B5
330
1F
100
AcDbEntity
  8
chh-txt
  6
Continuous
100
AcDbDimension
  2
*D6
 10
-86.63282925551779
 20
11.58954471082829
 30
0.0
 11
-66.21148424609548
 21
15.08954471082829
 31
0.0
 70
    32
  1
\A1;9
 71
     5
 42
-1.0
  3
GENERATED_STYLE__2
100
AcDbAlignedDimension
 13
-70.63282925551778
 23
0.9959140961560697
 33
0.0
 14
-61.63282925551778
 24
0.9959140961560697
 34
0.0
100
AcDbRotatedDimension
  0
DIMENSION
  5
C1
330
1F
100
AcDbEntity
  8
chh-txt
  6
Continuous
100
AcDbDimension
  2
*D7
 10
158.9152214600175
 20
-5.49999999999995
 30
0.0
 11
155.4152214600175
 21
-10.51436624221869
 31
0.0
 70
    32
  1
\A1;5.5
 71
     5
 42
-1.0
  3
GENERATED_STYLE__1
100
AcDbAlignedDimension
 13
142.8624090164011
 23
-5.499999999999949
 33
0.0
 14
142.8624090164011
 24
-0.000000000000111
 34
0.0
 50
90.0
100
AcDbRotatedDimension
  0
DIMENSION
  5
CC
330
1F
100
AcDbEntity
  8
chh-txt
  6
Continuous
100
AcDbDimension
  2
*D8
 10
-86.63282925551779
 20
-28.81326890700498
 30
0.0
 11
16.75647600570341
 21
-25.31326890700498
 31
0.0
 70
    32
  1
\A1;1195
 71
     5
 42
-1.0
  3
GENERATED_STYLE__2
100
AcDbAlignedDimension
 13
-86.63282925551779
 23
-13.05184592786357
 33
0.0
 14
120.7750316819637
 24
-13.05184592786357
 34
0.0
100
AcDbRotatedDimension
  0
DIMENSION
  5
D7
330
1F
100
AcDbEntity
  8
chh-txt
  6
Continuous
100
AcDbDimension
  2
*D9
 10
-86.63282925551779
 20
-28.81326890700498
 30
0.0
 11
131.1177066804378
 21
-25.31326890700498
 31
0.0
 70
    32
  1
\A1;21
 71
     5
 42
-1.0
  3
GENERATED_STYLE__2
100
AcDbAlignedDimension
 13
120.7750316819637
 23
-13.05184592786357
 33
0.0
 14
141.7750316819637
 24
-13.05184592786357
 34
0.0
100
AcDbRotatedDimension
  0
DIMENSION
  5
E3
330
1F
100
AcDbEntity
  8
chh-txt
  6
Continuous
100
AcDbDimension
  2
*D10
 10
-107.6480502347632
 20
-12.00002701544478
 30
0.0
 11
-111.1480502347632
 21
-6.157338509248269
 31
0.0
 70
    32
 71
     5
 42
-1.0
  3
GENERATED_STYLE__1
100
AcDbAlignedDimension
 13
-87.64769660767186
 23
-12.00002701544478
 33
0.0
 14
-87.64769660767186
 24
0.0
 34
0.0
 50
90.0
100
AcDbRotatedDimension
  0
DIMENSION
  5
EE
330
1F
100
AcDbEntity
  8
chh-txt
  6
Continuous
100
AcDbDimension
  2
*D11
 10
-86.63282925551779
 20
46.7938814049963
 30
0.0
 11
16.75647600570341
 21
50.2938814049963
 31
0.0
 70
    32
  1
\A1;1195
 71
     5
 42
-1.0
  3
GENERATED_STYLE__2
100
AcDbAlignedDimension
 13
-86.63282925551779
 23
62.69554974309843
 33
0.0
 14
120.7750316819637
 24
62.69554974309843
 34
0.0
100
AcDbRotatedDimension
  0
DIMENSION
  5
F9
330
1F
100
AcDbEntity
  8
chh-txt
  6
Continuous
100
AcDbDimension
  2
*D12
 10
-86.63282925551779
 20
46.7938814049963
 30
0.0
 11
131.1177066804378
 21
50.2938814049963
 31
0.0
 70
    32
  1
\A1;21
 71
     5
 42
-1.0
  3
GENERATED_STYLE__2
100
AcDbAlignedDimension
 13
120.7750316819637
 23
62.69554974309843
 33
0.0
 14
141.7750316819637
 24
62.69554974309843
 34
0.0
100
AcDbRotatedDimension
  0
MTEXT
  5
FA
330
1F
100
AcDbEntity
  8
chh-txt_Pen_No__7_Pen_No__7
  6
Continuous
100
AcDbMText
 10
119.9192679241213
 20
32.07057452095325
 30
0.0
 40
5.0
 41
0.0
 71
     8
 72
     1
  1
{Texture Profile}
  7
GENERATED_STYLE_1
 73
     1
 44
1.0
  0
MTEXT
  5
FC
330
1F
100
AcDbEntity
  8
chh-txt_Pen_No__7_Pen_No__7
  6
Continuous
100
AcDbMText
 10
98.74749778547022
 20
-42.2567387636768
 30
0.0
 40
5.0
 41
0.0
 71
     7
 72
     1
  1
{Groove Profile}
  7
GENERATED_STYLE_1
 73
     1
 44
1.0
  0
MTEXT
  5
FD
330
1F
100
AcDbEntity
  8
Defpoints_Pen_No__1_Pen_No__115
  6
Continuous
100
AcDbMText
 10
-105.9343697744315
 20
-83.99291088538874
 30
0.0
 40
10.0
 41
0.0
 71
     7
 72
     1
  1
{SC004 Shadowclad Texture and Groove }
  7
GENERATED_STYLE_1
 73
     1
 44
1.0
  0
MTEXT
  5
FF
330
1F
100
AcDbEntity
  8
Defpoints_Pen_No__1_Pen_No__115
  6
Continuous
100
AcDbMText
 10
-105.9343697744315
 20
-102.5093357701419
 30
0.0
 40
10.0
 41
0.0
 71
     7
 72
     1
  1
{Sheet Dimensions}
  7
GENERATED_STYLE_1
 73
     1
 44
1.0
  0
ENDSEC
  0
SECTION
  2
OBJECTS
  0
DICTIONARY
  5
C
330
0
100
AcDbDictionary
281
     1
  3
ACAD_GROUP
350
D
  3
ACAD_LAYOUT
350
1A
  3
ACAD_MLEADERSTYLE
350
108
  3
ACAD_MLINESTYLE
350
17
  3
ACAD_PLOTSETTINGS
350
19
  3
ACAD_PLOTSTYLENAME
350
E
  3
ACAD_SCALELIST
350
5D
  3
ACAD_TABLESTYLE
350
107
  3
ACAD_VISUALSTYLE
350
2A
  3
AcDbVariableDictionary
350
105
  3
WATERMARKS
350
103
  0
DICTIONARY
  5
D
102
{ACAD_REACTORS
330
C
102
}
330
C
100
AcDbDictionary
281
     1
  0
DICTIONARY
  5
1A
102
{ACAD_REACTORS
330
C
102
}
330
C
100
AcDbDictionary
281
     1
  3
Layout1
350
1E
  3
Layout2
350
26
  3
Model
350
22
  0
DICTIONARY
  5
108
102
{ACAD_REACTORS
330
C
102
}
330
C
100
AcDbDictionary
281
     1
  0
DICTIONARY
  5
17
102
{ACAD_REACTORS
330
C
102
}
330
C
100
AcDbDictionary
281
     1
  3
Standard
350
18
  0
DICTIONARY
  5
19
102
{ACAD_REACTORS
330
C
102
}
330
C
100
AcDbDictionary
281
     1
  0
ACDBDICTIONARYWDFLT
  5
E
102
{ACAD_REACTORS
330
C
102
}
330
C
100
AcDbDictionary
281
     1
  3
Normal
350
F
100
AcDbDictionaryWithDefault
340
F
  0
DICTIONARY
  5
5D
102
{ACAD_REACTORS
330
C
102
}
330
C
100
AcDbDictionary
281
     1
  3
A0
350
5E
  3
A1
350
5F
  3
A2
350
60
  3
A3
350
61
  3
A4
350
62
  3
A5
350
63
  3
A6
350
64
  3
A7
350
65
  3
A8
350
66
  3
A9
350
67
  3
B0
350
68
  3
B1
350
69
  3
B2
350
6A
  3
B3
350
6B
  3
B4
350
6C
  3
B5
350
6D
  3
B6
350
6E
  3
B7
350
6F
  3
B8
350
70
  3
B9
350
71
  3
C0
350
72
  3
C1
350
73
  3
C2
350
74
  3
C3
350
75
  3
C4
350
76
  3
C5
350
77
  3
C6
350
78
  3
C7
350
79
  3
C8
350
7A
  3
C9
350
7B
  3
D0
350
7C
  3
D1
350
7D
  3
D2
350
7E
  0
DICTIONARY
  5
107
102
{ACAD_REACTORS
330
C
102
}
330
C
100
AcDbDictionary
281
     1
  0
DICTIONARY
  5
2A
102
{ACAD_REACTORS
330
C
102
}
330
C
100
AcDbDictionary
281
     1
  3
2dWireframe
350
2F
  3
3D Hidden
350
31
  3
3dWireframe
350
30
  3
Basic
350
32
  3
Brighten
350
36
  3
ColorChange
350
3A
  3
Conceptual
350
34
  3
Dim
350
35
  3
Facepattern
350
39
  3
Flat
350
2B
  3
FlatWithEdges
350
2C
  3
Gouraud
350
2D
  3
GouraudWithEdges
350
2E
  3
Linepattern
350
38
  3
Realistic
350
33
  3
Thicken
350
37
  0
DICTIONARY
  5
105
102
{ACAD_REACTORS
330
C
102
}
330
C
100
AcDbDictionary
281
     1
  3
CANNOSCALE
350
106
  0
DICTIONARY
  5
103
102
{ACAD_REACTORS
330
C
102
}
330
C
100
AcDbDictionary
281
     1
  3
AC_WATERMARK
350
104
  0
LAYOUT
  5
1E
102
{ACAD_REACTORS
330
1A
102
}
330
1A
100
AcDbPlotSettings
  1

  2
none_device
  4

  6

 40
0.0
 41
0.0
 42
0.0
 43
0.0
 44
0.0
 45
0.0
 46
0.0
 47
0.0
 48
0.0
 49
0.0
140
0.0
141
0.0
142
1.0
143
1.0
 70
   688
 72
     0
 73
     0
 74
     5
  7

 75
    16
 76
     0
 77
     2
 78
   300
147
1.0
148
0.0
149
0.0
100
AcDbLayout
  1
Layout1
 70
     1
 71
     1
 10
0.0
 20
0.0
 11
12.0
 21
9.0
 12
0.0
 22
0.0
 32
0.0
 14
1.000000000000000E+20
 24
1.000000000000000E+20
 34
1.000000000000000E+20
 15
-1.000000000000000E+20
 25
-1.000000000000000E+20
 35
-1.000000000000000E+20
146
0.0
 13
0.0
 23
0.0
 33
0.0
 16
1.0
 26
0.0
 36
0.0
 17
0.0
 27
1.0
 37
0.0
 76
     0
330
1B
  0
LAYOUT
  5
26
102
{ACAD_REACTORS
330
1A
102
}
330
1A
100
AcDbPlotSettings
  1

  2
none_device
  4

  6

 40
0.0
 41
0.0
 42
0.0
 43
0.0
 44
0.0
 45
0.0
 46
0.0
 47
0.0
 48
0.0
 49
0.0
140
0.0
141
0.0
142
1.0
143
1.0
 70
   688
 72
     0
 73
     0
 74
     5
  7

 75
    16
 76
     0
 77
     2
 78
   300
147
1.0
148
0.0
149
0.0
100
AcDbLayout
  1
Layout2
 70
     1
 71
     2
 10
0.0
 20
0.0
 11
0.0
 21
0.0
 12
0.0
 22
0.0
 32
0.0
 14
0.0
 24
0.0
 34
0.0
 15
0.0
 25
0.0
 35
0.0
146
0.0
 13
0.0
 23
0.0
 33
0.0
 16
1.0
 26
0.0
 36
0.0
 17
0.0
 27
1.0
 37
0.0
 76
     0
330
23
  0
LAYOUT
  5
22
102
{ACAD_REACTORS
330
1A
102
}
330
1A
100
AcDbPlotSettings
  1

  2
none_device
  4

  6

 40
0.0
 41
0.0
 42
0.0
 43
0.0
 44
0.0
 45
0.0
 46
0.0
 47
0.0
 48
0.0
 49
0.0
140
0.0
141
0.0
142
1.0
143
1.0
 70
  1712
 72
     0
 73
     0
 74
     0
  7

 75
     0
 76
     0
 77
     2
 78
   300
147
1.0
148
0.0
149
0.0
100
AcDbLayout
  1
Model
 70
     1
 71
     0
 10
0.0
 20
0.0
 11
12.0
 21
9.0
 12
0.0
 22
0.0
 32
0.0
 14
1.000000000000000E+20
 24
1.000000000000000E+20
 34
1.000000000000000E+20
 15
-1.000000000000000E+20
 25
-1.000000000000000E+20
 35
-1.000000000000000E+20
146
0.0
 13
0.0
 23
0.0
 33
0.0
 16
1.0
 26
0.0
 36
0.0
 17
0.0
 27
1.0
 37
0.0
 76
     0
330
1F
331
29
  0
MLINESTYLE
  5
18
102
{ACAD_REACTORS
330
17
102
}
330
17
100
AcDbMlineStyle
  2
Standard
 70
     0
  3

 62
   256
 51
90.0
 52
90.0
 71
     2
 49
0.5
 62
   256
  6
BYLAYER
 49
-0.5
 62
   256
  6
BYLAYER
  0
ACDBPLACEHOLDER
  5
F
102
{ACAD_REACTORS
330
E
102
}
330
E
  0
SCALE
  5
5E
102
{ACAD_REACTORS
330
5D
102
}
330
5D
100
AcDbScale
 70
     0
300
1:1
140
1.0
141
1.0
290
     1
  0
SCALE
  5
5F
102
{ACAD_REACTORS
330
5D
102
}
330
5D
100
AcDbScale
 70
     0
300
1:2
140
1.0
141
2.0
290
     0
  0
SCALE
  5
60
102
{ACAD_REACTORS
330
5D
102
}
330
5D
100
AcDbScale
 70
     0
300
1:4
140
1.0
141
4.0
290
     0
  0
SCALE
  5
61
102
{ACAD_REACTORS
330
5D
102
}
330
5D
100
AcDbScale
 70
     0
300
1:5
140
1.0
141
5.0
290
     0
  0
SCALE
  5
62
102
{ACAD_REACTORS
330
5D
102
}
330
5D
100
AcDbScale
 70
     0
300
1:8
140
1.0
141
8.0
290
     0
  0
SCALE
  5
63
102
{ACAD_REACTORS
330
5D
102
}
330
5D
100
AcDbScale
 70
     0
300
1:10
140
1.0
141
10.0
290
     0
  0
SCALE
  5
64
102
{ACAD_REACTORS
330
5D
102
}
330
5D
100
AcDbScale
 70
     0
300
1:16
140
1.0
141
16.0
290
     0
  0
SCALE
  5
65
102
{ACAD_REACTORS
330
5D
102
}
330
5D
100
AcDbScale
 70
     0
300
1:20
140
1.0
141
20.0
290
     0
  0
SCALE
  5
66
102
{ACAD_REACTORS
330
5D
102
}
330
5D
100
AcDbScale
 70
     0
300
1:30
140
1.0
141
30.0
290
     0
  0
SCALE
  5
67
102
{ACAD_REACTORS
330
5D
102
}
330
5D
100
AcDbScale
 70
     0
300
1:40
140
1.0
141
40.0
290
     0
  0
SCALE
  5
68
102
{ACAD_REACTORS
330
5D
102
}
330
5D
100
AcDbScale
 70
     0
300
1:50
140
1.0
141
50.0
290
     0
  0
SCALE
  5
69
102
{ACAD_REACTORS
330
5D
102
}
330
5D
100
AcDbScale
 70
     0
300
1:100
140
1.0
141
100.0
290
     0
  0
SCALE
  5
6A
102
{ACAD_REACTORS
330
5D
102
}
330
5D
100
AcDbScale
 70
     0
300
2:1
140
2.0
141
1.0
290
     0
  0
SCALE
  5
6B
102
{ACAD_REACTORS
330
5D
102
}
330
5D
100
AcDbScale
 70
     0
300
4:1
140
4.0
141
1.0
290
     0
  0
SCALE
  5
6C
102
{ACAD_REACTORS
330
5D
102
}
330
5D
100
AcDbScale
 70
     0
300
8:1
140
8.0
141
1.0
290
     0
  0
SCALE
  5
6D
102
{ACAD_REACTORS
330
5D
102
}
330
5D
100
AcDbScale
 70
     0
300
10:1
140
10.0
141
1.0
290
     0
  0
SCALE
  5
6E
102
{ACAD_REACTORS
330
5D
102
}
330
5D
100
AcDbScale
 70
     0
300
100:1
140
100.0
141
1.0
290
     0
  0
SCALE
  5
6F
102
{ACAD_REACTORS
330
5D
102
}
330
5D
100
AcDbScale
 70
     0
300
1/128" = 1'-0"
140
0.0078125
141
12.0
290
     0
  0
SCALE
  5
70
102
{ACAD_REACTORS
330
5D
102
}
330
5D
100
AcDbScale
 70
     0
300
1/64" = 1'-0"
140
0.015625
141
12.0
290
     0
  0
SCALE
  5
71
102
{ACAD_REACTORS
330
5D
102
}
330
5D
100
AcDbScale
 70
     0
300
1/32" = 1'-0"
140
0.03125
141
12.0
290
     0
  0
SCALE
  5
72
102
{ACAD_REACTORS
330
5D
102
}
330
5D
100
AcDbScale
 70
     0
300
1/16" = 1'-0"
140
0.0625
141
12.0
290
     0
  0
SCALE
  5
73
102
{ACAD_REACTORS
330
5D
102
}
330
5D
100
AcDbScale
 70
     0
300
3/32" = 1'-0"
140
0.09375
141
12.0
290
     0
  0
SCALE
  5
74
102
{ACAD_REACTORS
330
5D
102
}
330
5D
100
AcDbScale
 70
     0
300
1/8" = 1'-0"
140
0.125
141
12.0
290
     0
  0
SCALE
  5
75
102
{ACAD_REACTORS
330
5D
102
}
330
5D
100
AcDbScale
 70
     0
300
3/16" = 1'-0"
140
0.1875
141
12.0
290
     0
  0
SCALE
  5
76
102
{ACAD_REACTORS
330
5D
102
}
330
5D
100
AcDbScale
 70
     0
300
1/4" = 1'-0"
140
0.25
141
12.0
290
     0
  0
SCALE
  5
77
102
{ACAD_REACTORS
330
5D
102
}
330
5D
100
AcDbScale
 70
     0
300
3/8" = 1'-0"
140
0.375
141
12.0
290
     0
  0
SCALE
  5
78
102
{ACAD_REACTORS
330
5D
102
}
330
5D
100
AcDbScale
 70
     0
300
1/2" = 1'-0"
140
0.5
141
12.0
290
     0
  0
SCALE
  5
79
102
{ACAD_REACTORS
330
5D
102
}
330
5D
100
AcDbScale
 70
     0
300
3/4" = 1'-0"
140
0.75
141
12.0
290
     0
  0
SCALE
  5
7A
102
{ACAD_REACTORS
330
5D
102
}
330
5D
100
AcDbScale
 70
     0
300
1" = 1'-0"
140
1.0
141
12.0
290
     0
  0
SCALE
  5
7B
102
{ACAD_REACTORS
330
5D
102
}
330
5D
100
AcDbScale
 70
     0
300
1-1/2" = 1'-0"
140
1.5
141
12.0
290
     0
  0
SCALE
  5
7C
102
{ACAD_REACTORS
330
5D
102
}
330
5D
100
AcDbScale
 70
     0
300
3" = 1'-0"
140
3.0
141
12.0
290
     0
  0
SCALE
  5
7D
102
{ACAD_REACTORS
330
5D
102
}
330
5D
100
AcDbScale
 70
     0
300
6" = 1'-0"
140
6.0
141
12.0
290
     0
  0
SCALE
  5
7E
102
{ACAD_REACTORS
330
5D
102
}
330
5D
100
AcDbScale
 70
     0
300
1'-0" = 1'-0"
140
12.0
141
12.0
290
     0
  0
VISUALSTYLE
  5
2F
102
{ACAD_REACTORS
330
2A
102
}
330
2A
100
AcDbVisualStyle
  2
2dWireframe
 70
     4
 71
     0
 72
     2
 73
     0
 90
        0
 40
-0.6
 41
-30.0
 62
     5
 63
     7
421
 16777215
 74
     1
 91
        4
 64
     7
 65
   257
 75
     1
175
     1
 42
1.0
 92
        0
 66
   257
 43
1.0
 76
     1
 77
     6
 78
     2
 67
     7
 79
     5
170
     0
171
     0
290
     0
174
     0
 93
        1
 44
0.0
173
     0
291
     0
 45
0.0
1001
ACAD
1000
AcDbSavedByObjectVersion
1070
     0
  0
VISUALSTYLE
  5
31
102
{ACAD_REACTORS
330
2A
102
}
330
2A
100
AcDbVisualStyle
  2
3D Hidden
 70
     6
 71
     1
 72
     2
 73
     2
 90
        0
 40
-0.6
 41
-30.0
 62
     5
 63
     7
421
 16777215
 74
     2
 91
        2
 64
     7
 65
   257
 75
     2
175
     1
 42
40.0
 92
        0
 66
   257
 43
1.0
 76
     1
 77
     6
 78
     2
 67
     7
 79
     3
170
     0
171
     0
290
     0
174
     0
 93
        1
 44
0.0
173
     0
291
     0
 45
0.0
1001
ACAD
1000
AcDbSavedByObjectVersion
1070
     0
  0
VISUALSTYLE
  5
30
102
{ACAD_REACTORS
330
2A
102
}
330
2A
100
AcDbVisualStyle
  2
3dWireframe
 70
     5
 71
     0
 72
     2
 73
     0
 90
        0
 40
-0.6
 41
-30.0
 62
     5
 63
     7
421
 16777215
 74
     1
 91
        4
 64
     7
 65
   257
 75
     1
175
     1
 42
1.0
 92
        0
 66
   257
 43
1.0
 76
     1
 77
     6
 78
     2
 67
     7
 79
     5
170
     0
171
     0
290
     0
174
     0
 93
        1
 44
0.0
173
     0
291
     0
 45
0.0
1001
ACAD
1000
AcDbSavedByObjectVersion
1070
     0
  0
VISUALSTYLE
  5
32
102
{ACAD_REACTORS
330
2A
102
}
330
2A
100
AcDbVisualStyle
  2
Basic
 70
     7
 71
     1
 72
     0
 73
     1
 90
        0
 40
-0.6
 41
-30.0
 62
     5
 63
     7
421
 16777215
 74
     0
 91
        4
 64
     7
 65
   257
 75
     1
175
     1
 42
1.0
 92
        8
 66
     7
 43
1.0
 76
     1
 77
     6
 78
     2
 67
     7
 79
     5
170
     0
171
     0
290
     0
174
     0
 93
        1
 44
0.0
173
     0
291
     1
 45
0.0
1001
ACAD
1000
AcDbSavedByObjectVersion
1070
     0
  0
VISUALSTYLE
  5
36
102
{ACAD_REACTORS
330
2A
102
}
330
2A
100
AcDbVisualStyle
  2
Brighten
 70
    12
 71
     2
 72
     2
 73
     0
 90
        0
 40
-0.6
 41
-30.0
 62
     5
 63
     7
421
 16777215
 74
     1
 91
        4
 64
     7
 65
   257
 75
     1
175
     1
 42
1.0
 92
        8
 66
     7
 43
1.0
 76
     1
 77
     6
 78
     2
 67
     7
 79
     5
170
     0
171
     0
290
     0
174
     0
 93
        1
 44
50.0
173
     0
291
     1
 45
0.0
1001
ACAD
1000
AcDbSavedByObjectVersion
1070
     0
  0
VISUALSTYLE
  5
3A
102
{ACAD_REACTORS
330
2A
102
}
330
2A
100
AcDbVisualStyle
  2
ColorChange
 70
    16
 71
     2
 72
     2
 73
     3
 90
        0
 40
-0.6
 41
-30.0
 62
     5
 63
     8
421
  8421504
 74
     1
 91
        4
 64
     7
 65
   257
 75
     1
175
     1
 42
1.0
 92
        8
 66
     8
424
  8421504
 43
1.0
 76
     1
 77
     6
 78
     2
 67
     7
 79
     5
170
     0
171
     0
290
     0
174
     0
 93
        1
 44
0.0
173
     0
291
     1
 45
0.0
1001
ACAD
1000
AcDbSavedByObjectVersion
1070
     0
  0
VISUALSTYLE
  5
34
102
{ACAD_REACTORS
330
2A
102
}
330
2A
100
AcDbVisualStyle
  2
Conceptual
 70
     9
 71
     3
 72
     2
 73
     0
 90
        0
 40
-0.6
 41
-30.0
 62
     5
 63
     7
421
 16777215
 74
     2
 91
        2
 64
     7
 65
   257
 75
     1
175
     1
 42
40.0
 92
        8
 66
     7
 43
1.0
 76
     1
 77
     6
 78
     2
 67
     7
 79
     3
170
     0
171
     0
290
     0
174
     0
 93
        1
 44
0.0
173
     0
291
     0
 45
0.0
1001
ACAD
1000
AcDbSavedByObjectVersion
1070
     0
  0
VISUALSTYLE
  5
35
102
{ACAD_REACTORS
330
2A
102
}
330
2A
100
AcDbVisualStyle
  2
Dim
 70
    11
 71
     2
 72
     2
 73
     0
 90
        0
 40
-0.6
 41
-30.0
 62
     5
 63
     7
421
 16777215
 74
     1
 91
        4
 64
     7
 65
   257
 75
     1
175
     1
 42
1.0
 92
        8
 66
     7
 43
1.0
 76
     1
 77
     6
 78
     2
 67
     7
 79
     5
170
     0
171
     0
290
     0
174
     0
 93
        1
 44
-50.0
173
     0
291
     1
 45
0.0
1001
ACAD
1000
AcDbSavedByObjectVersion
1070
     0
  0
VISUALSTYLE
  5
39
102
{ACAD_REACTORS
330
2A
102
}
330
2A
100
AcDbVisualStyle
  2
Facepattern
 70
    15
 71
     2
 72
     2
 73
     0
 90
        0
 40
-0.6
 41
-30.0
 62
     5
 63
     7
421
 16777215
 74
     1
 91
        4
 64
     7
 65
   257
 75
     1
175
     1
 42
1.0
 92
        8
 66
     7
 43
1.0
 76
     1
 77
     6
 78
     2
 67
     7
 79
     5
170
     0
171
     0
290
     0
174
     0
 93
        1
 44
0.0
173
     0
291
     1
 45
0.0
1001
ACAD
1000
AcDbSavedByObjectVersion
1070
     0
  0
VISUALSTYLE
  5
2B
102
{ACAD_REACTORS
330
2A
102
}
330
2A
100
AcDbVisualStyle
  2
Flat
 70
     0
 71
     2
 72
     1
 73
     1
 90
        2
 40
-0.6
 41
30.0
 62
     5
 63
     7
421
 16777215
 74
     0
 91
        4
 64
     7
 65
   257
 75
     1
175
     1
 42
1.0
 92
        8
 66
     7
 43
1.0
 76
     1
 77
     6
 78
     2
 67
     7
 79
     5
170
     0
171
     0
290
     0
174
     0
 93
       13
 44
0.0
173
     0
291
     1
 45
0.0
1001
ACAD
1000
AcDbSavedByObjectVersion
1070
     0
  0
VISUALSTYLE
  5
2C
102
{ACAD_REACTORS
330
2A
102
}
330
2A
100
AcDbVisualStyle
  2
FlatWithEdges
 70
     1
 71
     2
 72
     1
 73
     1
 90
        2
 40
-0.6
 41
30.0
 62
     5
 63
     7
421
 16777215
 74
     1
 91
        4
 64
     7
 65
   257
 75
     1
175
     1
 42
1.0
 92
        0
 66
   257
 43
1.0
 76
     1
 77
     6
 78
     2
 67
     7
 79
     5
170
     0
171
     0
290
     0
174
     0
 93
       13
 44
0.0
173
     0
291
     1
 45
0.0
1001
ACAD
1000
AcDbSavedByObjectVersion
1070
     0
  0
VISUALSTYLE
  5
2D
102
{ACAD_REACTORS
330
2A
102
}
330
2A
100
AcDbVisualStyle
  2
Gouraud
 70
     2
 71
     2
 72
     2
 73
     1
 90
        2
 40
-0.6
 41
30.0
 62
     5
 63
     7
421
 16777215
 74
     0
 91
        4
 64
     7
 65
   257
 75
     1
175
     1
 42
1.0
 92
        0
 66
     7
 43
1.0
 76
     1
 77
     6
 78
     2
 67
     7
 79
     5
170
     0
171
     0
290
     0
174
     0
 93
       13
 44
0.0
173
     0
291
     1
 45
0.0
1001
ACAD
1000
AcDbSavedByObjectVersion
1070
     0
  0
VISUALSTYLE
  5
2E
102
{ACAD_REACTORS
330
2A
102
}
330
2A
100
AcDbVisualStyle
  2
GouraudWithEdges
 70
     3
 71
     2
 72
     2
 73
     1
 90
        2
 40
-0.6
 41
30.0
 62
     5
 63
     7
421
 16777215
 74
     1
 91
        4
 64
     7
 65
   257
 75
     1
175
     1
 42
1.0
 92
        0
 66
   257
 43
1.0
 76
     1
 77
     6
 78
     2
 67
     7
 79
     5
170
     0
171
     0
290
     0
174
     0
 93
       13
 44
0.0
173
     0
291
     1
 45
0.0
1001
ACAD
1000
AcDbSavedByObjectVersion
1070
     0
  0
VISUALSTYLE
  5
38
102
{ACAD_REACTORS
330
2A
102
}
330
2A
100
AcDbVisualStyle
  2
Linepattern
 70
    14
 71
     2
 72
     2
 73
     0
 90
        0
 40
-0.6
 41
-30.0
 62
     5
 63
     7
421
 16777215
 74
     1
 91
        4
 64
     7
 65
   257
 75
     7
175
     7
 42
1.0
 92
        8
 66
     7
 43
1.0
 76
     1
 77
     6
 78
     2
 67
     7
 79
     5
170
     0
171
     0
290
     0
174
     0
 93
        1
 44
0.0
173
     0
291
     1
 45
0.0
1001
ACAD
1000
AcDbSavedByObjectVersion
1070
     0
  0
VISUALSTYLE
  5
33
102
{ACAD_REACTORS
330
2A
102
}
330
2A
100
AcDbVisualStyle
  2
Realistic
 70
     8
 71
     2
 72
     2
 73
     0
 90
        0
 40
-0.6
 41
-30.0
 62
     5
 63
     7
421
 16777215
 74
     1
 91
        0
 64
     7
 65
   257
 75
     1
175
     1
 42
1.0
 92
        8
 66
     8
424
  7895160
 43
1.0
 76
     1
 77
     6
 78
     2
 67
     7
 79
     5
170
     0
171
     0
290
     0
174
     0
 93
       13
 44
0.0
173
     0
291
     0
 45
0.0
1001
ACAD
1000
AcDbSavedByObjectVersion
1070
     0
  0
VISUALSTYLE
  5
37
102
{ACAD_REACTORS
330
2A
102
}
330
2A
100
AcDbVisualStyle
  2
Thicken
 70
    13
 71
     2
 72
     2
 73
     0
 90
        0
 40
-0.6
 41
-30.0
 62
     5
 63
     7
421
 16777215
 74
     1
 91
        4
 64
     7
 65
   257
 75
     1
175
     1
 42
1.0
 92
       12
 66
     7
 43
1.0
 76
     1
 77
     6
 78
     2
 67
     7
 79
     5
170
     0
171
     0
290
     0
174
     0
 93
        1
 44
0.0
173
     0
291
     1
 45
0.0
1001
ACAD
1000
AcDbSavedByObjectVersion
1070
     0
  0
DICTIONARYVAR
  5
106
102
{ACAD_REACTORS
330
105
102
}
330
105
100
DictionaryVariables
280
     0
  1
1:1
  0
XRECORD
  5
104
102
{ACAD_REACTORS
330
103
102
}
330
103
100
AcDbXrecord
280
     1
1000
This DWG file was created in ArchiCAD(TM)®
  0
ENDSEC
  0
EOF
