  0
SECTION
  2
HEADER
  9
$ACADVER
  1
AC1018
  9
$ACADMAINTVER
 70
     0
  9
$DWGCODEPAGE
  3
ANSI_1252
  9
$INSBASE
 10
0.0
 20
0.0
 30
0.0
  9
$EXTMIN
 10
1.000000000000000E+20
 20
1.000000000000000E+20
 30
1.000000000000000E+20
  9
$EXTMAX
 10
-1.000000000000000E+20
 20
-1.000000000000000E+20
 30
-1.000000000000000E+20
  9
$LIMMIN
 10
0.0
 20
0.0
  9
$LIMMAX
 10
12.0
 20
9.0
  9
$ORTHOMODE
 70
     0
  9
$REGENMODE
 70
     1
  9
$FILLMODE
 70
     1
  9
$QTEXTMODE
 70
     0
  9
$MIRRTEXT
 70
     1
  9
$LTSCALE
 40
1.0
  9
$ATTMODE
 70
     1
  9
$TEXTSIZE
 40
0.2
  9
$TRACEWID
 40
0.05
  9
$TEXTSTYLE
  7
Standard
  9
$CLAYER
  8
0
  9
$CELTYPE
  6
ByLayer
  9
$CECOLOR
 62
   256
  9
$CELTSCALE
 40
1.0
  9
$DISPSILH
 70
     0
  9
$DIMSCALE
 40
1.0
  9
$DIMASZ
 40
0.18
  9
$DIMEXO
 40
0.0625
  9
$DIMDLI
 40
0.38
  9
$DIMRND
 40
0.0
  9
$DIMDLE
 40
0.0
  9
$DIMEXE
 40
0.18
  9
$DIMTP
 40
0.0
  9
$DIMTM
 40
0.0
  9
$DIMTXT
 40
0.18
  9
$DIMCEN
 40
0.09
  9
$DIMTSZ
 40
0.0
  9
$DIMTOL
 70
     0
  9
$DIMLIM
 70
     0
  9
$DIMTIH
 70
     1
  9
$DIMTOH
 70
     1
  9
$DIMSE1
 70
     0
  9
$DIMSE2
 70
     0
  9
$DIMTAD
 70
     0
  9
$DIMZIN
 70
     0
  9
$DIMBLK
  1

  9
$DIMASO
 70
     1
  9
$DIMSHO
 70
     1
  9
$DIMPOST
  1

  9
$DIMAPOST
  1

  9
$DIMALT
 70
     0
  9
$DIMALTD
 70
     2
  9
$DIMALTF
 40
25.4
  9
$DIMLFAC
 40
1.0
  9
$DIMTOFL
 70
     0
  9
$DIMTVP
 40
0.0
  9
$DIMTIX
 70
     0
  9
$DIMSOXD
 70
     0
  9
$DIMSAH
 70
     0
  9
$DIMBLK1
  1

  9
$DIMBLK2
  1

  9
$DIMSTYLE
  2
Standard
  9
$DIMCLRD
 70
     0
  9
$DIMCLRE
 70
     0
  9
$DIMCLRT
 70
     0
  9
$DIMTFAC
 40
1.0
  9
$DIMGAP
 40
0.09
  9
$DIMJUST
 70
     0
  9
$DIMSD1
 70
     0
  9
$DIMSD2
 70
     0
  9
$DIMTOLJ
 70
     1
  9
$DIMTZIN
 70
     0
  9
$DIMALTZ
 70
     0
  9
$DIMALTTZ
 70
     0
  9
$DIMUPT
 70
     0
  9
$DIMDEC
 70
     4
  9
$DIMTDEC
 70
     4
  9
$DIMALTU
 70
     2
  9
$DIMALTTD
 70
     2
  9
$DIMTXSTY
  7
Standard
  9
$DIMAUNIT
 70
     0
  9
$DIMADEC
 70
     0
  9
$DIMALTRND
 40
0.0
  9
$DIMAZIN
 70
     0
  9
$DIMDSEP
 70
    46
  9
$DIMATFIT
 70
     3
  9
$DIMFRAC
 70
     0
  9
$DIMLDRBLK
  1

  9
$DIMLUNIT
 70
     2
  9
$DIMLWD
 70
    -2
  9
$DIMLWE
 70
    -2
  9
$DIMTMOVE
 70
     0
  9
$LUNITS
 70
     2
  9
$LUPREC
 70
     4
  9
$SKETCHINC
 40
0.1
  9
$FILLETRAD
 40
0.5
  9
$AUNITS
 70
     0
  9
$AUPREC
 70
     0
  9
$MENU
  1
.
  9
$ELEVATION
 40
0.0
  9
$PELEVATION
 40
0.0
  9
$THICKNESS
 40
0.0
  9
$LIMCHECK
 70
     0
  9
$CHAMFERA
 40
0.5
  9
$CHAMFERB
 40
0.5
  9
$CHAMFERC
 40
1.0
  9
$CHAMFERD
 40
0.0
  9
$SKPOLY
 70
     0
  9
$TDCREATE
 40
2455966.579416794
  9
$TDUCREATE
 40
2455966.037750127
  9
$TDUPDATE
 40
2455966.579416805
  9
$TDUUPDATE
 40
2455966.037750139
  9
$TDINDWG
 40
0.0000000116
  9
$TDUSRTIMER
 40
0.0000000116
  9
$USRTIMER
 70
     1
  9
$ANGBASE
 50
0.0
  9
$ANGDIR
 70
     0
  9
$PDMODE
 70
     0
  9
$PDSIZE
 40
0.0
  9
$PLINEWID
 40
0.0
  9
$SPLFRAME
 70
     0
  9
$SPLINETYPE
 70
     6
  9
$SPLINESEGS
 70
     8
  9
$HANDSEED
  5
164
  9
$SURFTAB1
 70
     6
  9
$SURFTAB2
 70
     6
  9
$SURFTYPE
 70
     6
  9
$SURFU
 70
     6
  9
$SURFV
 70
     6
  9
$UCSBASE
  2

  9
$UCSNAME
  2

  9
$UCSORG
 10
0.0
 20
0.0
 30
0.0
  9
$UCSXDIR
 10
1.0
 20
0.0
 30
0.0
  9
$UCSYDIR
 10
0.0
 20
1.0
 30
0.0
  9
$UCSORTHOREF
  2

  9
$UCSORTHOVIEW
 70
     0
  9
$UCSORGTOP
 10
0.0
 20
0.0
 30
0.0
  9
$UCSORGBOTTOM
 10
0.0
 20
0.0
 30
0.0
  9
$UCSORGLEFT
 10
0.0
 20
0.0
 30
0.0
  9
$UCSORGRIGHT
 10
0.0
 20
0.0
 30
0.0
  9
$UCSORGFRONT
 10
0.0
 20
0.0
 30
0.0
  9
$UCSORGBACK
 10
0.0
 20
0.0
 30
0.0
  9
$PUCSBASE
  2

  9
$PUCSNAME
  2

  9
$PUCSORG
 10
0.0
 20
0.0
 30
0.0
  9
$PUCSXDIR
 10
1.0
 20
0.0
 30
0.0
  9
$PUCSYDIR
 10
0.0
 20
1.0
 30
0.0
  9
$PUCSORTHOREF
  2

  9
$PUCSORTHOVIEW
 70
     0
  9
$PUCSORGTOP
 10
0.0
 20
0.0
 30
0.0
  9
$PUCSORGBOTTOM
 10
0.0
 20
0.0
 30
0.0
  9
$PUCSORGLEFT
 10
0.0
 20
0.0
 30
0.0
  9
$PUCSORGRIGHT
 10
0.0
 20
0.0
 30
0.0
  9
$PUCSORGFRONT
 10
0.0
 20
0.0
 30
0.0
  9
$PUCSORGBACK
 10
0.0
 20
0.0
 30
0.0
  9
$USERI1
 70
     0
  9
$USERI2
 70
     0
  9
$USERI3
 70
     0
  9
$USERI4
 70
     0
  9
$USERI5
 70
     0
  9
$USERR1
 40
0.0
  9
$USERR2
 40
0.0
  9
$USERR3
 40
0.0
  9
$USERR4
 40
0.0
  9
$USERR5
 40
0.0
  9
$WORLDVIEW
 70
     1
  9
$SHADEDGE
 70
     3
  9
$SHADEDIF
 70
    70
  9
$TILEMODE
 70
     1
  9
$MAXACTVP
 70
    64
  9
$PINSBASE
 10
0.0
 20
0.0
 30
0.0
  9
$PLIMCHECK
 70
     0
  9
$PEXTMIN
 10
1.000000000000000E+20
 20
1.000000000000000E+20
 30
1.000000000000000E+20
  9
$PEXTMAX
 10
-1.000000000000000E+20
 20
-1.000000000000000E+20
 30
-1.000000000000000E+20
  9
$PLIMMIN
 10
0.0
 20
0.0
  9
$PLIMMAX
 10
12.0
 20
9.0
  9
$UNITMODE
 70
     0
  9
$VISRETAIN
 70
     1
  9
$PLINEGEN
 70
     0
  9
$PSLTSCALE
 70
     1
  9
$TREEDEPTH
 70
  3020
  9
$CMLSTYLE
  2
Standard
  9
$CMLJUST
 70
     0
  9
$CMLSCALE
 40
1.0
  9
$PROXYGRAPHICS
 70
     1
  9
$MEASUREMENT
 70
     0
  9
$CELWEIGHT
370
    -1
  9
$ENDCAPS
280
     0
  9
$JOINSTYLE
280
     0
  9
$LWDISPLAY
290
     1
  9
$INSUNITS
 70
     0
  9
$HYPERLINKBASE
  1

  9
$STYLESHEET
  1

  9
$XEDIT
290
     1
  9
$CEPSNTYPE
380
     0
  9
$PSTYLEMODE
290
     1
  9
$FINGERPRINTGUID
  2
{79DF1209-710F-4994-8C1D-3AAD2C2530DC}
  9
$VERSIONGUID
  2
{FAEB1C32-E019-11D5-929B-00C0DF256EC4}
  9
$EXTNAMES
290
     1
  9
$PSVPSCALE
 40
0.0
  9
$OLESTARTUP
290
     0
  9
$SORTENTS
280
   127
  9
$INDEXCTL
280
     0
  9
$HIDETEXT
280
     1
  9
$XCLIPFRAME
290
     0
  9
$HALOGAP
280
     0
  9
$OBSCOLOR
 70
   257
  9
$OBSLTYPE
280
     0
  9
$INTERSECTIONDISPLAY
280
     0
  9
$INTERSECTIONCOLOR
 70
   257
  9
$DIMASSOC
280
     2
  9
$PROJECTNAME
  1

  0
ENDSEC
  0
SECTION
  2
CLASSES
  0
CLASS
  1
ACDBDICTIONARYWDFLT
  2
AcDbDictionaryWithDefault
  3
ObjectDBX Classes
 90
        0
 91
        4
280
     0
281
     0
  0
CLASS
  1
VISUALSTYLE
  2
AcDbVisualStyle
  3
ObjectDBX Classes
 90
     4095
 91
        4
280
     0
281
     0
  0
CLASS
  1
SCALE
  2
AcDbScale
  3
ObjectDBX Classes
 90
     1153
 91
        4
280
     0
281
     0
  0
CLASS
  1
DICTIONARYVAR
  2
AcDbDictionaryVar
  3
ObjectDBX Classes
 90
        0
 91
        4
280
     0
281
     0
  0
ENDSEC
  0
SECTION
  2
TABLES
  0
TABLE
  2
VPORT
  5
8
330
0
100
AcDbSymbolTable
 70
     1
  0
VPORT
  5
29
330
8
100
AcDbSymbolTableRecord
100
AcDbViewportTableRecord
  2
*Active
 70
     0
 10
0.0
 20
0.0
 11
1.0
 21
1.0
 12
-27.8627400659683
 22
-33.02846486371755
 13
0.0
 23
0.0
 14
0.5
 24
0.5
 15
0.5
 25
0.5
 16
0.0
 26
0.0
 36
1.0
 17
0.0
 27
0.0
 37
0.0
 40
4236.1911547955
 41
1.880000931536868
 42
50.0
 43
0.0
 44
0.0
 50
0.0
 51
0.0
 71
     0
 72
   100
 73
     1
 74
     3
 75
     0
 76
     0
 77
     0
 78
     0
281
     0
 65
     1
110
0.0
120
0.0
130
0.0
111
1.0
121
0.0
131
0.0
112
0.0
122
1.0
132
0.0
 79
     0
146
0.0
  0
ENDTAB
  0
TABLE
  2
LTYPE
  5
5
330
0
100
AcDbSymbolTable
 70
     2
  0
LTYPE
  5
14
330
5
100
AcDbSymbolTableRecord
100
AcDbLinetypeTableRecord
  2
ByBlock
 70
     0
  3

 72
    65
 73
     0
 40
0.0
  0
LTYPE
  5
15
330
5
100
AcDbSymbolTableRecord
100
AcDbLinetypeTableRecord
  2
ByLayer
 70
     0
  3

 72
    65
 73
     0
 40
0.0
  0
LTYPE
  5
16
330
5
100
AcDbSymbolTableRecord
100
AcDbLinetypeTableRecord
  2
Continuous
 70
     0
  3
Solid line
 72
    65
 73
     0
 40
0.0
  0
LTYPE
  5
AE
330
5
100
AcDbSymbolTableRecord
100
AcDbLinetypeTableRecord
  2
DASHED2
 70
     0
  3
- - - - - 
 72
    65
 73
     2
 40
47.625
 49
31.75
 74
     0
 49
-15.875
 74
     0
  0
ENDTAB
  0
TABLE
  2
LAYER
  5
2
330
0
100
AcDbSymbolTable
 70
    11
  0
LAYER
  5
10
330
2
100
AcDbSymbolTableRecord
100
AcDbLayerTableRecord
  2
0
 70
     0
 62
     7
  6
Continuous
370
    -3
390
F
  0
LAYER
  5
3C
330
2
100
AcDbSymbolTableRecord
100
AcDbLayerTableRecord
  2
chh-09_Pen_No__9_Pen_No__2
 70
     0
 62
     8
420
  8355711
  6
Continuous
370
    15
390
F
  0
LAYER
  5
40
330
2
100
AcDbSymbolTableRecord
100
AcDbLayerTableRecord
  2
chh-06_Pen_No__7_Pen_No__7
 70
     0
 62
     7
  6
Continuous
370
    18
390
F
  0
LAYER
  5
B0
330
2
100
AcDbSymbolTableRecord
100
AcDbLayerTableRecord
  2
chh-08_Pen_No__8_Pen_No__81
 70
     0
 62
   251
420
  6974058
  6
Continuous
370
    20
390
F
  0
LAYER
  5
BF
330
2
100
AcDbSymbolTableRecord
100
AcDbLayerTableRecord
  2
chh-06_Pen_No__7_Pen_No__1
 70
     0
 62
     7
  6
Continuous
370
    13
390
F
  0
LAYER
  5
C1
330
2
100
AcDbSymbolTableRecord
100
AcDbLayerTableRecord
  2
chh-09_Pen_No__9_Pen_No__1
 70
     0
 62
     7
  6
Continuous
370
    13
390
F
  0
LAYER
  5
D6
330
2
100
AcDbSymbolTableRecord
100
AcDbLayerTableRecord
  2
chh-txt_Pen_No__1
 70
     0
 62
     7
  6
Continuous
370
    13
390
F
  0
LAYER
  5
D9
330
2
100
AcDbSymbolTableRecord
100
AcDbLayerTableRecord
  2
chh-txt_Pen_No__7
 70
     0
 62
     7
  6
Continuous
370
    18
390
F
  0
LAYER
  5
102
330
2
100
AcDbSymbolTableRecord
100
AcDbLayerTableRecord
  2
chh-txt
 70
     0
 62
     7
  6
Continuous
370
    -3
390
F
  0
LAYER
  5
14E
330
2
100
AcDbSymbolTableRecord
100
AcDbLayerTableRecord
  2
chh-txt_Pen_No__7_Pen_No__7
 70
     0
 62
     7
  6
Continuous
370
    18
390
F
  0
LAYER
  5
155
330
2
100
AcDbSymbolTableRecord
100
AcDbLayerTableRecord
  2
Defpoints_Pen_No__211_Pen_No__115
 70
     0
 62
   211
420
 16738047
  6
Continuous
370
    13
390
F
  0
ENDTAB
  0
TABLE
  2
STYLE
  5
3
330
0
100
AcDbSymbolTable
 70
     3
  0
STYLE
  5
11
330
3
100
AcDbSymbolTableRecord
100
AcDbTextStyleTableRecord
  2
Standard
 70
     0
 40
0.0
 41
1.0
 50
0.0
 71
     0
 42
0.2
  3
txt
  4
BIGFONT.SHX
  0
STYLE
  5
DD
330
3
100
AcDbSymbolTableRecord
100
AcDbTextStyleTableRecord
  2
GENERATED_STYLE_1
 70
     0
 40
0.0
 41
1.0
 50
0.0
 71
     0
 42
0.2
  3

  4

1001
ACAD
1000
Arial Unicode MS
1071
       34
  0
STYLE
  5
158
330
3
100
AcDbSymbolTableRecord
100
AcDbTextStyleTableRecord
  2
GENERATED_STYLE_2
 70
     0
 40
0.0
 41
1.0
 50
0.0
 71
     0
 42
0.2
  3

  4

1001
ACAD
1000
Arial
1071
       34
  0
ENDTAB
  0
TABLE
  2
VIEW
  5
6
330
0
100
AcDbSymbolTable
 70
     0
  0
ENDTAB
  0
TABLE
  2
UCS
  5
7
330
0
100
AcDbSymbolTable
 70
     0
  0
ENDTAB
  0
TABLE
  2
APPID
  5
9
330
0
100
AcDbSymbolTable
 70
     1
  0
APPID
  5
12
330
9
100
AcDbSymbolTableRecord
100
AcDbRegAppTableRecord
  2
ACAD
 70
     0
  0
ENDTAB
  0
TABLE
  2
DIMSTYLE
  5
A
330
0
100
AcDbSymbolTable
 70
     3
100
AcDbDimStyleTable
  0
DIMSTYLE
105
27
330
A
100
AcDbSymbolTableRecord
100
AcDbDimStyleTableRecord
  2
Standard
 70
     0
340
11
  0
DIMSTYLE
105
103
102
{ACAD_REACTORS
330
101
330
113
330
11E
330
129
102
}
330
A
100
AcDbSymbolTableRecord
100
AcDbDimStyleTableRecord
  2
GENERATED_STYLE__1
 70
     0
 41
10.73688269723557
 42
1.0
 77
     1
140
50.0
172
     1
176
     7
177
     7
178
     7
271
     0
340
DD
342
104
343
104
344
104
  0
DIMSTYLE
105
135
102
{ACAD_REACTORS
330
134
330
13F
330
14A
102
}
330
A
100
AcDbSymbolTableRecord
100
AcDbDimStyleTableRecord
  2
GENERATED_STYLE__2
 70
     0
 41
10.73688269723557
 42
1.0
 73
     0
 74
     0
 77
     1
140
50.0
172
     1
176
     7
177
     7
178
     7
271
     0
340
DD
342
104
343
104
344
104
  0
ENDTAB
  0
TABLE
  2
BLOCK_RECORD
  5
1
330
0
100
AcDbSymbolTable
 70
    10
  0
BLOCK_RECORD
  5
1F
330
1
100
AcDbSymbolTableRecord
100
AcDbBlockTableRecord
  2
*Model_Space
340
22
  0
BLOCK_RECORD
  5
1B
330
1
100
AcDbSymbolTableRecord
100
AcDbBlockTableRecord
  2
*Paper_Space
340
1E
  0
BLOCK_RECORD
  5
23
330
1
100
AcDbSymbolTableRecord
100
AcDbBlockTableRecord
  2
*Paper_Space0
340
26
  0
BLOCK_RECORD
  5
D2
330
1
100
AcDbSymbolTableRecord
100
AcDbBlockTableRecord
  2
*D1
340
0
  0
BLOCK_RECORD
  5
104
330
1
100
AcDbSymbolTableRecord
100
AcDbBlockTableRecord
  2
ARROWHEAD_2
340
0
  0
BLOCK_RECORD
  5
109
330
1
100
AcDbSymbolTableRecord
100
AcDbBlockTableRecord
  2
*D3
340
0
  0
BLOCK_RECORD
  5
114
330
1
100
AcDbSymbolTableRecord
100
AcDbBlockTableRecord
  2
*D4
340
0
  0
BLOCK_RECORD
  5
11F
330
1
100
AcDbSymbolTableRecord
100
AcDbBlockTableRecord
  2
*D5
340
0
  0
BLOCK_RECORD
  5
12A
330
1
100
AcDbSymbolTableRecord
100
AcDbBlockTableRecord
  2
*D6
340
0
  0
BLOCK_RECORD
  5
136
330
1
100
AcDbSymbolTableRecord
100
AcDbBlockTableRecord
  2
*D7
340
0
  0
BLOCK_RECORD
  5
140
330
1
100
AcDbSymbolTableRecord
100
AcDbBlockTableRecord
  2
*D8
340
0
  0
BLOCK_RECORD
  5
15B
330
1
100
AcDbSymbolTableRecord
100
AcDbBlockTableRecord
  2
Untitled _STORY_MARKER
340
0
  0
ENDTAB
  0
ENDSEC
  0
SECTION
  2
BLOCKS
  0
BLOCK
  5
20
330
1F
100
AcDbEntity
  8
0
100
AcDbBlockBegin
  2
*Model_Space
 70
     0
 10
0.0
 20
0.0
 30
0.0
  3
*Model_Space
  1

  0
ENDBLK
  5
21
330
1F
100
AcDbEntity
  8
0
100
AcDbBlockEnd
  0
BLOCK
  5
1C
330
1B
100
AcDbEntity
 67
     1
  8
0
100
AcDbBlockBegin
  2
*Paper_Space
 70
     0
 10
0.0
 20
0.0
 30
0.0
  3
*Paper_Space
  1

  0
ENDBLK
  5
1D
330
1B
100
AcDbEntity
 67
     1
  8
0
100
AcDbBlockEnd
  0
BLOCK
  5
24
330
23
100
AcDbEntity
  8
0
100
AcDbBlockBegin
  2
*Paper_Space0
 70
     0
 10
0.0
 20
0.0
 30
0.0
  3
*Paper_Space0
  1

  0
ENDBLK
  5
25
330
23
100
AcDbEntity
  8
0
100
AcDbBlockEnd
  0
BLOCK
  5
D3
330
D2
100
AcDbEntity
  8
0
100
AcDbBlockBegin
  2
*D1
 70
     1
 10
0.0
 20
0.0
 30
0.0
  3
*D1
  1

  0
LINE
  5
D5
330
D2
100
AcDbEntity
  8
chh-txt_Pen_No__1
  6
Continuous
100
AcDbLine
 10
-3301.0143039897
 20
1780.324683361479
 30
0.0
 11
-3294.105967622663
 21
1780.324683361479
 31
0.0
  0
LINE
  5
D7
330
D2
100
AcDbEntity
  8
chh-txt_Pen_No__1
  6
Continuous
100
AcDbLine
 10
-3294.105967622663
 20
1780.324683361479
 30
0.0
 11
-2694.105967622663
 21
1780.324683361479
 31
0.0
  0
LINE
  5
D8
330
D2
100
AcDbEntity
  8
chh-txt_Pen_No__7
  6
Continuous
100
AcDbLine
 10
-3290.027718132368
 20
1787.388421978082
 30
0.0
 11
-3298.184217112958
 21
1773.260944744877
 31
0.0
  0
LINE
  5
DA
330
D2
100
AcDbEntity
  8
chh-txt_Pen_No__1
  6
Continuous
100
AcDbLine
 10
-3294.105967622663
 20
1487.135759820615
 30
0.0
 11
-3294.105967622663
 21
1790.920291286383
 31
0.0
  0
LINE
  5
DB
330
D2
100
AcDbEntity
  8
chh-txt_Pen_No__1
  6
Continuous
100
AcDbLine
 10
-2694.105967622663
 20
1487.135759820615
 30
0.0
 11
-2694.105967622663
 21
1790.920291286383
 31
0.0
  0
LINE
  5
DC
330
D2
100
AcDbEntity
  8
chh-txt_Pen_No__7
  6
Continuous
100
AcDbLine
 10
-2690.027718132368
 20
1787.388421978082
 30
0.0
 11
-2698.184217112959
 21
1773.260944744877
 31
0.0
  0
MTEXT
  5
DE
330
D2
100
AcDbEntity
  8
chh-txt_Pen_No__7
100
AcDbMText
 10
-3052.69421611395
 20
1840.324683361479
 30
0.0
 40
50.0
 41
0.0
 71
     1
 72
     1
  1
{600}
  7
GENERATED_STYLE_1
 73
     1
 44
1.0
  0
ENDBLK
  5
D4
330
D2
100
AcDbEntity
  8
0
100
AcDbBlockEnd
  0
BLOCK
  5
105
330
104
100
AcDbEntity
  8
0
100
AcDbBlockBegin
  2
ARROWHEAD_2
 70
     0
 10
0.0
 20
0.0
 30
0.0
  3
ARROWHEAD_2
  1

  0
LINE
  5
107
330
104
100
AcDbEntity
  8
0
  6
Continuous
 62
     0
370
     0
100
AcDbLine
 10
-0.3781315
 20
-0.655
 30
0.0
 11
0.3781315
 21
0.655
 31
0.0
  0
LINE
  5
108
330
104
100
AcDbEntity
  8
0
  6
Continuous
 62
     0
370
     0
100
AcDbLine
 10
0.0
 20
0.0
 30
0.0
 11
-1.0
 21
0.0
 31
0.0
  0
ENDBLK
  5
106
330
104
100
AcDbEntity
  8
0
100
AcDbBlockEnd
  0
BLOCK
  5
10A
330
109
100
AcDbEntity
  8
0
100
AcDbBlockBegin
  2
*D3
 70
     1
 10
0.0
 20
0.0
 30
0.0
  3
*D3
  1

  0
LINE
  5
10C
330
109
100
AcDbEntity
  8
chh-txt_Pen_No__1
  6
Continuous
100
AcDbLine
 10
-2694.105967622663
 20
1487.135759820615
 30
0.0
 11
-2694.105967622663
 21
1790.920291286383
 31
0.0
  0
LINE
  5
10D
330
109
100
AcDbEntity
  8
chh-txt_Pen_No__1
  6
Continuous
100
AcDbLine
 10
-2694.105967622663
 20
1780.324683361479
 30
0.0
 11
-2094.105967622664
 21
1780.324683361479
 31
0.0
  0
LINE
  5
10E
330
109
100
AcDbEntity
  8
chh-txt_Pen_No__7
  6
Continuous
100
AcDbLine
 10
-2690.027718132368
 20
1787.388421978082
 30
0.0
 11
-2698.184217112959
 21
1773.260944744877
 31
0.0
  0
LINE
  5
10F
330
109
100
AcDbEntity
  8
chh-txt_Pen_No__7
  6
Continuous
100
AcDbLine
 10
-2098.184217112959
 20
1773.260944744877
 30
0.0
 11
-2090.027718132368
 21
1787.388421978082
 31
0.0
  0
LINE
  5
110
330
109
100
AcDbEntity
  8
chh-txt_Pen_No__1
  6
Continuous
100
AcDbLine
 10
-2094.105967622664
 20
1780.324683361479
 30
0.0
 11
-2087.197631255627
 21
1780.324683361479
 31
0.0
  0
LINE
  5
111
330
109
100
AcDbEntity
  8
chh-txt_Pen_No__1
  6
Continuous
100
AcDbLine
 10
-2094.105967622664
 20
1487.135759820615
 30
0.0
 11
-2094.105967622664
 21
1790.920291286383
 31
0.0
  0
MTEXT
  5
112
330
109
100
AcDbEntity
  8
chh-txt_Pen_No__7
100
AcDbMText
 10
-2452.694216113951
 20
1840.324683361479
 30
0.0
 40
50.0
 41
0.0
 71
     1
 72
     1
  1
{600}
  7
GENERATED_STYLE_1
 73
     1
 44
1.0
  0
ENDBLK
  5
10B
330
109
100
AcDbEntity
  8
0
100
AcDbBlockEnd
  0
BLOCK
  5
115
330
114
100
AcDbEntity
  8
0
100
AcDbBlockBegin
  2
*D4
 70
     1
 10
0.0
 20
0.0
 30
0.0
  3
*D4
  1

  0
LINE
  5
117
330
114
100
AcDbEntity
  8
chh-txt_Pen_No__1
  6
Continuous
100
AcDbLine
 10
-2101.014303989701
 20
1780.324683361479
 30
0.0
 11
-2094.105967622664
 21
1780.324683361479
 31
0.0
  0
LINE
  5
118
330
114
100
AcDbEntity
  8
chh-txt_Pen_No__1
  6
Continuous
100
AcDbLine
 10
-2094.105967622664
 20
1780.324683361479
 30
0.0
 11
-1494.105967622666
 21
1780.324683361479
 31
0.0
  0
LINE
  5
119
330
114
100
AcDbEntity
  8
chh-txt_Pen_No__7
  6
Continuous
100
AcDbLine
 10
-2090.027718132368
 20
1787.388421978082
 30
0.0
 11
-2098.184217112959
 21
1773.260944744877
 31
0.0
  0
LINE
  5
11A
330
114
100
AcDbEntity
  8
chh-txt_Pen_No__1
  6
Continuous
100
AcDbLine
 10
-2094.105967622664
 20
1537.135759820615
 30
0.0
 11
-2094.105967622664
 21
1790.920291286383
 31
0.0
  0
LINE
  5
11B
330
114
100
AcDbEntity
  8
chh-txt_Pen_No__1
  6
Continuous
100
AcDbLine
 10
-1494.105967622666
 20
1487.135759820615
 30
0.0
 11
-1494.105967622666
 21
1790.920291286383
 31
0.0
  0
LINE
  5
11C
330
114
100
AcDbEntity
  8
chh-txt_Pen_No__7
  6
Continuous
100
AcDbLine
 10
-1490.02771813237
 20
1787.388421978082
 30
0.0
 11
-1498.184217112961
 21
1773.260944744877
 31
0.0
  0
MTEXT
  5
11D
330
114
100
AcDbEntity
  8
chh-txt_Pen_No__7
100
AcDbMText
 10
-1852.694216113952
 20
1840.324683361479
 30
0.0
 40
50.0
 41
0.0
 71
     1
 72
     1
  1
{600}
  7
GENERATED_STYLE_1
 73
     1
 44
1.0
  0
ENDBLK
  5
116
330
114
100
AcDbEntity
  8
0
100
AcDbBlockEnd
  0
BLOCK
  5
120
330
11F
100
AcDbEntity
  8
0
100
AcDbBlockBegin
  2
*D5
 70
     1
 10
0.0
 20
0.0
 30
0.0
  3
*D5
  1

  0
LINE
  5
122
330
11F
100
AcDbEntity
  8
chh-txt_Pen_No__1
  6
Continuous
100
AcDbLine
 10
-1494.105967622666
 20
1487.135759820615
 30
0.0
 11
-1494.105967622666
 21
1790.920291286383
 31
0.0
  0
LINE
  5
123
330
11F
100
AcDbEntity
  8
chh-txt_Pen_No__1
  6
Continuous
100
AcDbLine
 10
-1494.105967622666
 20
1780.324683361479
 30
0.0
 11
-894.1059676226625
 21
1780.324683361479
 31
0.0
  0
LINE
  5
124
330
11F
100
AcDbEntity
  8
chh-txt_Pen_No__7
  6
Continuous
100
AcDbLine
 10
-1490.02771813237
 20
1787.388421978082
 30
0.0
 11
-1498.184217112961
 21
1773.260944744877
 31
0.0
  0
LINE
  5
125
330
11F
100
AcDbEntity
  8
chh-txt_Pen_No__7
  6
Continuous
100
AcDbLine
 10
-898.184217112958
 20
1773.260944744877
 30
0.0
 11
-890.0277181323672
 21
1787.388421978082
 31
0.0
  0
LINE
  5
126
330
11F
100
AcDbEntity
  8
chh-txt_Pen_No__1
  6
Continuous
100
AcDbLine
 10
-894.1059676226625
 20
1780.324683361479
 30
0.0
 11
-887.1976312556254
 21
1780.324683361479
 31
0.0
  0
LINE
  5
127
330
11F
100
AcDbEntity
  8
chh-txt_Pen_No__1
  6
Continuous
100
AcDbLine
 10
-894.1059676226625
 20
1537.135759820615
 30
0.0
 11
-894.1059676226625
 21
1790.920291286383
 31
0.0
  0
MTEXT
  5
128
330
11F
100
AcDbEntity
  8
chh-txt_Pen_No__7
100
AcDbMText
 10
-1252.694216113951
 20
1840.324683361479
 30
0.0
 40
50.0
 41
0.0
 71
     1
 72
     1
  1
{600}
  7
GENERATED_STYLE_1
 73
     1
 44
1.0
  0
ENDBLK
  5
121
330
11F
100
AcDbEntity
  8
0
100
AcDbBlockEnd
  0
BLOCK
  5
12B
330
12A
100
AcDbEntity
  8
0
100
AcDbBlockBegin
  2
*D6
 70
     1
 10
0.0
 20
0.0
 30
0.0
  3
*D6
  1

  0
LINE
  5
12D
330
12A
100
AcDbEntity
  8
chh-txt_Pen_No__1
  6
Continuous
100
AcDbLine
 10
-3660.753804825367
 20
-1092.36432189321
 30
0.0
 11
-3660.753804825367
 21
-1085.455985526173
 31
0.0
  0
LINE
  5
12E
330
12A
100
AcDbEntity
  8
chh-txt_Pen_No__1
  6
Continuous
100
AcDbLine
 10
-3660.753804825367
 20
-1085.455985526173
 30
0.0
 11
-3660.753804825367
 21
-310.4559855261726
 31
0.0
  0
LINE
  5
12F
330
12A
100
AcDbEntity
  8
chh-txt_Pen_No__7
  6
Continuous
100
AcDbLine
 10
-3667.817543441969
 20
-1081.377736035877
 30
0.0
 11
-3653.690066208765
 21
-1089.534235016468
 31
0.0
  0
LINE
  5
130
330
12A
100
AcDbEntity
  8
chh-txt_Pen_No__1
  6
Continuous
100
AcDbLine
 10
-3421.191800993329
 20
-1085.455985526173
 30
0.0
 11
-3671.34941275027
 21
-1085.455985526173
 31
0.0
  0
LINE
  5
131
330
12A
100
AcDbEntity
  8
chh-txt_Pen_No__1
  6
Continuous
100
AcDbLine
 10
-3421.191800993329
 20
-310.4559855261726
 30
0.0
 11
-3671.34941275027
 21
-310.4559855261726
 31
0.0
  0
LINE
  5
132
330
12A
100
AcDbEntity
  8
chh-txt_Pen_No__7
  6
Continuous
100
AcDbLine
 10
-3667.817543441969
 20
-306.3777360358772
 30
0.0
 11
-3653.690066208765
 21
-314.534235016468
 31
0.0
  0
MTEXT
  5
133
330
12A
100
AcDbEntity
  8
chh-txt_Pen_No__7
100
AcDbMText
 10
-3720.753804825366
 20
-756.54423401746
 30
0.0
 40
50.0
 41
0.0
 71
     1
 72
     1
  1
{800}
  7
GENERATED_STYLE_1
 11
6.123233995736766E-17
 21
1.0
 31
0.0
 73
     1
 44
1.0
  0
ENDBLK
  5
12C
330
12A
100
AcDbEntity
  8
0
100
AcDbBlockEnd
  0
BLOCK
  5
137
330
136
100
AcDbEntity
  8
0
100
AcDbBlockBegin
  2
*D7
 70
     1
 10
0.0
 20
0.0
 30
0.0
  3
*D7
  1

  0
LINE
  5
139
330
136
100
AcDbEntity
  8
chh-txt_Pen_No__1
  6
Continuous
100
AcDbLine
 10
-3421.191800993329
 20
-310.4559855261726
 30
0.0
 11
-3671.34941275027
 21
-310.4559855261726
 31
0.0
  0
LINE
  5
13A
330
136
100
AcDbEntity
  8
chh-txt_Pen_No__1
  6
Continuous
100
AcDbLine
 10
-3660.753804825367
 20
-310.4559855261726
 30
0.0
 11
-3660.753804825367
 21
414.5440144738275
 31
0.0
  0
LINE
  5
13B
330
136
100
AcDbEntity
  8
chh-txt_Pen_No__7
  6
Continuous
100
AcDbLine
 10
-3667.817543441969
 20
-306.3777360358772
 30
0.0
 11
-3653.690066208765
 21
-314.534235016468
 31
0.0
  0
LINE
  5
13C
330
136
100
AcDbEntity
  8
chh-txt_Pen_No__1
  6
Continuous
100
AcDbLine
 10
-3421.191800993329
 20
414.5440144738275
 30
0.0
 11
-3671.34941275027
 21
414.5440144738275
 31
0.0
  0
LINE
  5
13D
330
136
100
AcDbEntity
  8
chh-txt_Pen_No__7
  6
Continuous
100
AcDbLine
 10
-3667.817543441969
 20
418.6222639641229
 30
0.0
 11
-3653.690066208765
 21
410.4657649835321
 31
0.0
  0
MTEXT
  5
13E
330
136
100
AcDbEntity
  8
chh-txt_Pen_No__7
100
AcDbMText
 10
-3720.753804825366
 20
-6.544234017459734
 30
0.0
 40
50.0
 41
0.0
 71
     1
 72
     1
  1
{800}
  7
GENERATED_STYLE_1
 11
6.123233995736766E-17
 21
1.0
 31
0.0
 73
     1
 44
1.0
  0
ENDBLK
  5
138
330
136
100
AcDbEntity
  8
0
100
AcDbBlockEnd
  0
BLOCK
  5
141
330
140
100
AcDbEntity
  8
0
100
AcDbBlockBegin
  2
*D8
 70
     1
 10
0.0
 20
0.0
 30
0.0
  3
*D8
  1

  0
LINE
  5
143
330
140
100
AcDbEntity
  8
chh-txt_Pen_No__1
  6
Continuous
100
AcDbLine
 10
-3421.191800993329
 20
414.5440144738275
 30
0.0
 11
-3671.34941275027
 21
414.5440144738275
 31
0.0
  0
LINE
  5
144
330
140
100
AcDbEntity
  8
chh-txt_Pen_No__1
  6
Continuous
100
AcDbLine
 10
-3660.753804825367
 20
414.5440144738275
 30
0.0
 11
-3660.753804825367
 21
1139.544014473827
 31
0.0
  0
LINE
  5
145
330
140
100
AcDbEntity
  8
chh-txt_Pen_No__7
  6
Continuous
100
AcDbLine
 10
-3667.817543441969
 20
418.6222639641229
 30
0.0
 11
-3653.690066208765
 21
410.4657649835321
 31
0.0
  0
LINE
  5
146
330
140
100
AcDbEntity
  8
chh-txt_Pen_No__7
  6
Continuous
100
AcDbLine
 10
-3653.690066208765
 20
1135.465764983532
 30
0.0
 11
-3667.817543441969
 21
1143.622263964123
 31
0.0
  0
LINE
  5
147
330
140
100
AcDbEntity
  8
chh-txt_Pen_No__1
  6
Continuous
100
AcDbLine
 10
-3660.753804825367
 20
1139.544014473827
 30
0.0
 11
-3660.753804825367
 21
1146.452350840864
 31
0.0
  0
LINE
  5
148
330
140
100
AcDbEntity
  8
chh-txt_Pen_No__1
  6
Continuous
100
AcDbLine
 10
-3421.191800993329
 20
1139.544014473827
 30
0.0
 11
-3671.34941275027
 21
1139.544014473827
 31
0.0
  0
MTEXT
  5
149
330
140
100
AcDbEntity
  8
chh-txt_Pen_No__7
100
AcDbMText
 10
-3720.753804825366
 20
718.4557659825404
 30
0.0
 40
50.0
 41
0.0
 71
     1
 72
     1
  1
{800}
  7
GENERATED_STYLE_1
 11
6.123233995736766E-17
 21
1.0
 31
0.0
 73
     1
 44
1.0
  0
ENDBLK
  5
142
330
140
100
AcDbEntity
  8
0
100
AcDbBlockEnd
  0
BLOCK
  5
15C
330
15B
100
AcDbEntity
  8
0
100
AcDbBlockBegin
  2
Untitled _STORY_MARKER
 70
     0
 10
0.0
 20
0.0
 30
0.0
  3
Untitled _STORY_MARKER
  1

  0
ENDBLK
  5
15D
330
15B
100
AcDbEntity
  8
0
100
AcDbBlockEnd
  0
ENDSEC
  0
SECTION
  2
ENTITIES
  0
HATCH
  5
3B
330
1F
100
AcDbEntity
  8
chh-09_Pen_No__9_Pen_No__2
  6
Continuous
100
AcDbHatch
 10
0.0
 20
0.0
 30
0.0
210
0.0
220
0.0
230
1.0
  2
SOLID
 70
     1
 71
     0
 91
        1
 92
        2
 72
     0
 73
     1
 93
        3
 10
-3232.268833001559
 20
-1425.661746936408
 10
-3232.268833001559
 20
-1397.661758959936
 10
-3316.26879693097
 20
-1411.661752948154
 97
        0
 75
     0
 76
     1
 98
        0
  0
HATCH
  5
3D
330
1F
100
AcDbEntity
  8
chh-09_Pen_No__9_Pen_No__2
  6
Continuous
100
AcDbHatch
 10
0.0
 20
0.0
 30
0.0
210
0.0
220
0.0
230
1.0
  2
SOLID
 70
     1
 71
     0
 91
        1
 92
        2
 72
     0
 73
     1
 93
        3
 10
3117.666040802425
 20
-1425.661746936408
 10
3117.666040802425
 20
-1397.661758959936
 10
3033.666076873015
 20
-1411.661752948154
 97
        0
 75
     0
 76
     1
 98
        0
  0
HATCH
  5
3E
330
1F
100
AcDbEntity
  8
chh-09_Pen_No__9_Pen_No__2
  6
Continuous
100
AcDbHatch
 10
0.0
 20
0.0
 30
0.0
210
0.0
220
0.0
230
1.0
  2
SOLID
 70
     1
 71
     0
 91
        1
 92
        2
 72
     0
 73
     1
 93
        3
 10
2911.18212408921
 20
1125.807889463036
 10
2911.18212408921
 20
1153.807877439509
 10
2827.182160159799
 20
1139.80788345129
 97
        0
 75
     0
 76
     1
 98
        0
  0
LINE
  5
3F
330
1F
100
AcDbEntity
  8
chh-06_Pen_No__7_Pen_No__7
  6
Continuous
100
AcDbLine
 10
-3319.105967622663
 20
-1110.455985526173
 30
0.0
 11
1860.70381283154
 21
-1110.455985526173
 31
0.0
  0
LINE
  5
41
330
1F
100
AcDbEntity
  8
chh-06_Pen_No__7_Pen_No__7
  6
Continuous
100
AcDbLine
 10
2104.719376946945
 20
-1110.455985526173
 30
0.0
 11
3030.828906181322
 21
-1110.455985526173
 31
0.0
  0
LINE
  5
42
330
1F
100
AcDbEntity
  8
chh-06_Pen_No__7_Pen_No__7
  6
Continuous
100
AcDbLine
 10
-3319.105967622663
 20
-1060.455985526173
 30
0.0
 11
-494.1059676226623
 21
-1060.455985526173
 31
0.0
  0
LINE
  5
43
330
1F
100
AcDbEntity
  8
chh-06_Pen_No__7_Pen_No__7
  6
Continuous
100
AcDbLine
 10
420.8940323773369
 20
-1060.455985526173
 30
0.0
 11
1860.70381283154
 21
-1060.455985526173
 31
0.0
  0
LINE
  5
44
330
1F
100
AcDbEntity
  8
chh-06_Pen_No__7_Pen_No__7
  6
Continuous
100
AcDbLine
 10
2104.719376946945
 20
-1060.455985526173
 30
0.0
 11
3030.828906181322
 21
-1060.455985526173
 31
0.0
  0
LINE
  5
45
330
1F
100
AcDbEntity
  8
chh-06_Pen_No__7_Pen_No__7
  6
Continuous
100
AcDbLine
 10
-3319.105967622663
 20
1289.544014473827
 30
0.0
 11
1860.70381283154
 21
1289.544014473827
 31
0.0
  0
LINE
  5
46
330
1F
100
AcDbEntity
  8
chh-06_Pen_No__7_Pen_No__7
  6
Continuous
100
AcDbLine
 10
2104.719376946945
 20
1289.544014473827
 30
0.0
 11
3030.828906181322
 21
1289.544014473827
 31
0.0
  0
LINE
  5
47
330
1F
100
AcDbEntity
  8
chh-06_Pen_No__7_Pen_No__7
  6
Continuous
100
AcDbLine
 10
-3319.105967622663
 20
1239.544014473827
 30
0.0
 11
1860.70381283154
 21
1239.544014473827
 31
0.0
  0
LINE
  5
48
330
1F
100
AcDbEntity
  8
chh-06_Pen_No__7_Pen_No__7
  6
Continuous
100
AcDbLine
 10
2104.719376946945
 20
1239.544014473827
 30
0.0
 11
3030.828906181322
 21
1239.544014473827
 31
0.0
  0
LINE
  5
49
330
1F
100
AcDbEntity
  8
chh-06_Pen_No__7_Pen_No__7
  6
Continuous
100
AcDbLine
 10
-869.1059676226622
 20
1239.544014473827
 30
0.0
 11
-869.1059676226622
 21
-1060.455985526173
 31
0.0
  0
LINE
  5
4A
330
1F
100
AcDbEntity
  8
chh-06_Pen_No__7_Pen_No__7
  6
Continuous
100
AcDbLine
 10
-919.105967622663
 20
1239.544014473827
 30
0.0
 11
-919.105967622663
 21
-1060.455985526173
 31
0.0
  0
LINE
  5
4B
330
1F
100
AcDbEntity
  8
chh-06_Pen_No__7_Pen_No__7
  6
Continuous
100
AcDbLine
 10
-869.1059676226622
 20
389.5440144738274
 30
0.0
 11
-594.1059676226637
 21
389.5440144738274
 31
0.0
  0
LINE
  5
4C
330
1F
100
AcDbEntity
  8
chh-06_Pen_No__7_Pen_No__7
  6
Continuous
100
AcDbLine
 10
-869.1059676226622
 20
439.5440144738274
 30
0.0
 11
-594.1059676226637
 21
439.5440144738274
 31
0.0
  0
LINE
  5
4D
330
1F
100
AcDbEntity
  8
chh-06_Pen_No__7_Pen_No__7
  6
Continuous
100
AcDbLine
 10
-869.1059676226622
 20
-335.4559855261726
 30
0.0
 11
-594.1059676226637
 21
-335.4559855261726
 31
0.0
  0
LINE
  5
4E
330
1F
100
AcDbEntity
  8
chh-06_Pen_No__7_Pen_No__7
  6
Continuous
100
AcDbLine
 10
-869.1059676226622
 20
-285.4559855261726
 30
0.0
 11
-594.1059676226637
 21
-285.4559855261726
 31
0.0
  0
LINE
  5
4F
330
1F
100
AcDbEntity
  8
chh-06_Pen_No__7_Pen_No__7
  6
Continuous
100
AcDbLine
 10
-869.1059676226622
 20
1114.544014473827
 30
0.0
 11
-594.1059676226637
 21
1114.544014473827
 31
0.0
  0
LINE
  5
50
330
1F
100
AcDbEntity
  8
chh-06_Pen_No__7_Pen_No__7
  6
Continuous
100
AcDbLine
 10
-869.1059676226622
 20
1164.544014473827
 30
0.0
 11
-594.1059676226637
 21
1164.544014473827
 31
0.0
  0
LINE
  5
51
330
1F
100
AcDbEntity
  8
chh-06_Pen_No__7_Pen_No__7
  6
Continuous
100
AcDbLine
 10
930.8940323773367
 20
1239.544014473827
 30
0.0
 11
930.8940323773367
 21
-1060.455985526173
 31
0.0
  0
LINE
  5
52
330
1F
100
AcDbEntity
  8
chh-06_Pen_No__7_Pen_No__7
  6
Continuous
100
AcDbLine
 10
880.8940323773369
 20
1239.544014473827
 30
0.0
 11
880.8940323773369
 21
-1060.455985526173
 31
0.0
  0
LINE
  5
53
330
1F
100
AcDbEntity
  8
chh-06_Pen_No__7_Pen_No__7
  6
Continuous
100
AcDbLine
 10
930.8940323773367
 20
389.5440144738274
 30
0.0
 11
1455.894032377337
 21
389.5440144738274
 31
0.0
  0
LINE
  5
54
330
1F
100
AcDbEntity
  8
chh-06_Pen_No__7_Pen_No__7
  6
Continuous
100
AcDbLine
 10
930.8940323773367
 20
439.5440144738274
 30
0.0
 11
1455.894032377337
 21
439.5440144738274
 31
0.0
  0
LINE
  5
55
330
1F
100
AcDbEntity
  8
chh-06_Pen_No__7_Pen_No__7
  6
Continuous
100
AcDbLine
 10
930.8940323773367
 20
-335.4559855261726
 30
0.0
 11
1455.894032377337
 21
-335.4559855261726
 31
0.0
  0
LINE
  5
56
330
1F
100
AcDbEntity
  8
chh-06_Pen_No__7_Pen_No__7
  6
Continuous
100
AcDbLine
 10
930.8940323773367
 20
-285.4559855261726
 30
0.0
 11
1455.894032377337
 21
-285.4559855261726
 31
0.0
  0
LINE
  5
57
330
1F
100
AcDbEntity
  8
chh-06_Pen_No__7_Pen_No__7
  6
Continuous
100
AcDbLine
 10
880.8940323773369
 20
389.5440144738274
 30
0.0
 11
605.8940323773356
 21
389.5440144738274
 31
0.0
  0
LINE
  5
58
330
1F
100
AcDbEntity
  8
chh-06_Pen_No__7_Pen_No__7
  6
Continuous
100
AcDbLine
 10
880.8940323773369
 20
439.5440144738274
 30
0.0
 11
605.8940323773356
 21
439.5440144738274
 31
0.0
  0
LINE
  5
59
330
1F
100
AcDbEntity
  8
chh-06_Pen_No__7_Pen_No__7
  6
Continuous
100
AcDbLine
 10
880.8940323773369
 20
-335.4559855261726
 30
0.0
 11
605.8940323773356
 21
-335.4559855261726
 31
0.0
  0
LINE
  5
5A
330
1F
100
AcDbEntity
  8
chh-06_Pen_No__7_Pen_No__7
  6
Continuous
100
AcDbLine
 10
880.8940323773369
 20
-285.4559855261726
 30
0.0
 11
605.8940323773356
 21
-285.4559855261726
 31
0.0
  0
LINE
  5
5B
330
1F
100
AcDbEntity
  8
chh-06_Pen_No__7_Pen_No__7
  6
Continuous
100
AcDbLine
 10
930.8940323773367
 20
1114.544014473827
 30
0.0
 11
1455.894032377337
 21
1114.544014473827
 31
0.0
  0
LINE
  5
5C
330
1F
100
AcDbEntity
  8
chh-06_Pen_No__7_Pen_No__7
  6
Continuous
100
AcDbLine
 10
930.8940323773367
 20
1164.544014473827
 30
0.0
 11
1455.894032377337
 21
1164.544014473827
 31
0.0
  0
LINE
  5
5D
330
1F
100
AcDbEntity
  8
chh-06_Pen_No__7_Pen_No__7
  6
Continuous
100
AcDbLine
 10
880.8940323773369
 20
1114.544014473827
 30
0.0
 11
605.8940323773356
 21
1114.544014473827
 31
0.0
  0
LINE
  5
5E
330
1F
100
AcDbEntity
  8
chh-06_Pen_No__7_Pen_No__7
  6
Continuous
100
AcDbLine
 10
880.8940323773369
 20
1164.544014473827
 30
0.0
 11
605.8940323773356
 21
1164.544014473827
 31
0.0
  0
LINE
  5
5F
330
1F
100
AcDbEntity
  8
chh-06_Pen_No__7_Pen_No__7
  6
Continuous
100
AcDbLine
 10
2507.46548164094
 20
1239.544014473827
 30
0.0
 11
2507.46548164094
 21
-1060.455985526173
 31
0.0
  0
LINE
  5
60
330
1F
100
AcDbEntity
  8
chh-06_Pen_No__7_Pen_No__7
  6
Continuous
100
AcDbLine
 10
2457.465481640941
 20
1239.544014473827
 30
0.0
 11
2457.465481640941
 21
-1060.455985526173
 31
0.0
  0
LINE
  5
61
330
1F
100
AcDbEntity
  8
chh-06_Pen_No__7_Pen_No__7
  6
Continuous
100
AcDbLine
 10
2507.46548164094
 20
389.5440144738274
 30
0.0
 11
2880.828906181321
 21
389.5440144738274
 31
0.0
  0
LINE
  5
62
330
1F
100
AcDbEntity
  8
chh-06_Pen_No__7_Pen_No__7
  6
Continuous
100
AcDbLine
 10
2507.46548164094
 20
439.5440144738274
 30
0.0
 11
2880.828906181321
 21
439.5440144738274
 31
0.0
  0
LINE
  5
63
330
1F
100
AcDbEntity
  8
chh-06_Pen_No__7_Pen_No__7
  6
Continuous
100
AcDbLine
 10
2507.46548164094
 20
-335.4559855261726
 30
0.0
 11
2880.828906181321
 21
-335.4559855261726
 31
0.0
  0
LINE
  5
64
330
1F
100
AcDbEntity
  8
chh-06_Pen_No__7_Pen_No__7
  6
Continuous
100
AcDbLine
 10
2507.46548164094
 20
-285.4559855261726
 30
0.0
 11
2880.828906181321
 21
-285.4559855261726
 31
0.0
  0
LINE
  5
65
330
1F
100
AcDbEntity
  8
chh-06_Pen_No__7_Pen_No__7
  6
Continuous
100
AcDbLine
 10
2457.465481640941
 20
389.5440144738274
 30
0.0
 11
2104.719376946945
 21
389.5440144738274
 31
0.0
  0
LINE
  5
66
330
1F
100
AcDbEntity
  8
chh-06_Pen_No__7_Pen_No__7
  6
Continuous
100
AcDbLine
 10
2457.465481640941
 20
439.5440144738274
 30
0.0
 11
2104.719376946945
 21
439.5440144738274
 31
0.0
  0
LINE
  5
67
330
1F
100
AcDbEntity
  8
chh-06_Pen_No__7_Pen_No__7
  6
Continuous
100
AcDbLine
 10
2457.465481640941
 20
-335.4559855261726
 30
0.0
 11
2104.719376946945
 21
-335.4559855261726
 31
0.0
  0
LINE
  5
68
330
1F
100
AcDbEntity
  8
chh-06_Pen_No__7_Pen_No__7
  6
Continuous
100
AcDbLine
 10
2457.465481640941
 20
-285.4559855261726
 30
0.0
 11
2104.719376946945
 21
-285.4559855261726
 31
0.0
  0
LINE
  5
69
330
1F
100
AcDbEntity
  8
chh-06_Pen_No__7_Pen_No__7
  6
Continuous
100
AcDbLine
 10
2507.46548164094
 20
1114.544014473827
 30
0.0
 11
2880.828906181321
 21
1114.544014473827
 31
0.0
  0
LINE
  5
6A
330
1F
100
AcDbEntity
  8
chh-06_Pen_No__7_Pen_No__7
  6
Continuous
100
AcDbLine
 10
2507.46548164094
 20
1164.544014473827
 30
0.0
 11
2880.828906181321
 21
1164.544014473827
 31
0.0
  0
LINE
  5
6B
330
1F
100
AcDbEntity
  8
chh-06_Pen_No__7_Pen_No__7
  6
Continuous
100
AcDbLine
 10
2457.465481640941
 20
1114.544014473827
 30
0.0
 11
2104.719376946945
 21
1114.544014473827
 31
0.0
  0
LINE
  5
6C
330
1F
100
AcDbEntity
  8
chh-06_Pen_No__7_Pen_No__7
  6
Continuous
100
AcDbLine
 10
2457.465481640941
 20
1164.544014473827
 30
0.0
 11
2104.719376946945
 21
1164.544014473827
 31
0.0
  0
LINE
  5
6D
330
1F
100
AcDbEntity
  8
chh-06_Pen_No__7_Pen_No__7
  6
Continuous
100
AcDbLine
 10
-2669.105967622663
 20
1239.544014473827
 30
0.0
 11
-2669.105967622663
 21
-1060.455985526173
 31
0.0
  0
LINE
  5
6E
330
1F
100
AcDbEntity
  8
chh-06_Pen_No__7_Pen_No__7
  6
Continuous
100
AcDbLine
 10
-2719.105967622664
 20
1239.544014473827
 30
0.0
 11
-2719.105967622664
 21
-1060.455985526173
 31
0.0
  0
LINE
  5
6F
330
1F
100
AcDbEntity
  8
chh-06_Pen_No__7_Pen_No__7
  6
Continuous
100
AcDbLine
 10
-2669.105967622663
 20
389.5440144738274
 30
0.0
 11
-2394.105967622663
 21
389.5440144738274
 31
0.0
  0
LINE
  5
70
330
1F
100
AcDbEntity
  8
chh-06_Pen_No__7_Pen_No__7
  6
Continuous
100
AcDbLine
 10
-2669.105967622663
 20
439.5440144738274
 30
0.0
 11
-2394.105967622663
 21
439.5440144738274
 31
0.0
  0
LINE
  5
71
330
1F
100
AcDbEntity
  8
chh-06_Pen_No__7_Pen_No__7
  6
Continuous
100
AcDbLine
 10
-2669.105967622663
 20
-335.4559855261726
 30
0.0
 11
-2394.105967622663
 21
-335.4559855261726
 31
0.0
  0
LINE
  5
72
330
1F
100
AcDbEntity
  8
chh-06_Pen_No__7_Pen_No__7
  6
Continuous
100
AcDbLine
 10
-2669.105967622663
 20
-285.4559855261726
 30
0.0
 11
-2394.105967622663
 21
-285.4559855261726
 31
0.0
  0
LINE
  5
73
330
1F
100
AcDbEntity
  8
chh-06_Pen_No__7_Pen_No__7
  6
Continuous
100
AcDbLine
 10
-2669.105967622663
 20
1114.544014473827
 30
0.0
 11
-2394.105967622663
 21
1114.544014473827
 31
0.0
  0
LINE
  5
74
330
1F
100
AcDbEntity
  8
chh-06_Pen_No__7_Pen_No__7
  6
Continuous
100
AcDbLine
 10
-2669.105967622663
 20
1164.544014473827
 30
0.0
 11
-2394.105967622663
 21
1164.544014473827
 31
0.0
  0
LINE
  5
75
330
1F
100
AcDbEntity
  8
chh-06_Pen_No__7_Pen_No__7
  6
Continuous
100
AcDbLine
 10
-3269.105967622663
 20
1239.544014473827
 30
0.0
 11
-3269.105967622663
 21
-1060.455985526173
 31
0.0
  0
LINE
  5
76
330
1F
100
AcDbEntity
  8
chh-06_Pen_No__7_Pen_No__7
  6
Continuous
100
AcDbLine
 10
-3319.105967622663
 20
1239.544014473827
 30
0.0
 11
-3319.105967622663
 21
-1060.455985526173
 31
0.0
  0
LINE
  5
77
330
1F
100
AcDbEntity
  8
chh-06_Pen_No__7_Pen_No__7
  6
Continuous
100
AcDbLine
 10
-3269.105967622663
 20
389.5440144738274
 30
0.0
 11
-2719.105967622664
 21
389.5440144738274
 31
0.0
  0
LINE
  5
78
330
1F
100
AcDbEntity
  8
chh-06_Pen_No__7_Pen_No__7
  6
Continuous
100
AcDbLine
 10
-3269.105967622663
 20
439.5440144738274
 30
0.0
 11
-2719.105967622664
 21
439.5440144738274
 31
0.0
  0
LINE
  5
79
330
1F
100
AcDbEntity
  8
chh-06_Pen_No__7_Pen_No__7
  6
Continuous
100
AcDbLine
 10
-3269.105967622663
 20
-335.4559855261726
 30
0.0
 11
-2719.105967622664
 21
-335.4559855261726
 31
0.0
  0
LINE
  5
7A
330
1F
100
AcDbEntity
  8
chh-06_Pen_No__7_Pen_No__7
  6
Continuous
100
AcDbLine
 10
-3269.105967622663
 20
-285.4559855261726
 30
0.0
 11
-2719.105967622664
 21
-285.4559855261726
 31
0.0
  0
LINE
  5
7B
330
1F
100
AcDbEntity
  8
chh-06_Pen_No__7_Pen_No__7
  6
Continuous
100
AcDbLine
 10
-3269.105967622663
 20
1114.544014473827
 30
0.0
 11
-2719.105967622664
 21
1114.544014473827
 31
0.0
  0
LINE
  5
7C
330
1F
100
AcDbEntity
  8
chh-06_Pen_No__7_Pen_No__7
  6
Continuous
100
AcDbLine
 10
-3269.105967622663
 20
1164.544014473827
 30
0.0
 11
-2719.105967622664
 21
1164.544014473827
 31
0.0
  0
LINE
  5
7D
330
1F
100
AcDbEntity
  8
chh-06_Pen_No__7_Pen_No__7
  6
Continuous
100
AcDbLine
 10
-1469.105967622664
 20
1239.544014473827
 30
0.0
 11
-1469.105967622664
 21
-1060.455985526173
 31
0.0
  0
LINE
  5
7E
330
1F
100
AcDbEntity
  8
chh-06_Pen_No__7_Pen_No__7
  6
Continuous
100
AcDbLine
 10
-1519.105967622663
 20
1239.544014473827
 30
0.0
 11
-1519.105967622663
 21
-1060.455985526173
 31
0.0
  0
LINE
  5
7F
330
1F
100
AcDbEntity
  8
chh-06_Pen_No__7_Pen_No__7
  6
Continuous
100
AcDbLine
 10
-1469.105967622664
 20
389.5440144738274
 30
0.0
 11
-919.105967622663
 21
389.5440144738274
 31
0.0
  0
LINE
  5
80
330
1F
100
AcDbEntity
  8
chh-06_Pen_No__7_Pen_No__7
  6
Continuous
100
AcDbLine
 10
-1469.105967622664
 20
439.5440144738274
 30
0.0
 11
-919.105967622663
 21
439.5440144738274
 31
0.0
  0
LINE
  5
81
330
1F
100
AcDbEntity
  8
chh-06_Pen_No__7_Pen_No__7
  6
Continuous
100
AcDbLine
 10
-1469.105967622664
 20
-335.4559855261726
 30
0.0
 11
-919.105967622663
 21
-335.4559855261726
 31
0.0
  0
LINE
  5
82
330
1F
100
AcDbEntity
  8
chh-06_Pen_No__7_Pen_No__7
  6
Continuous
100
AcDbLine
 10
-1469.105967622664
 20
-285.4559855261726
 30
0.0
 11
-919.105967622663
 21
-285.4559855261726
 31
0.0
  0
LINE
  5
83
330
1F
100
AcDbEntity
  8
chh-06_Pen_No__7_Pen_No__7
  6
Continuous
100
AcDbLine
 10
-1469.105967622664
 20
1114.544014473827
 30
0.0
 11
-919.105967622663
 21
1114.544014473827
 31
0.0
  0
LINE
  5
84
330
1F
100
AcDbEntity
  8
chh-06_Pen_No__7_Pen_No__7
  6
Continuous
100
AcDbLine
 10
-1469.105967622664
 20
1164.544014473827
 30
0.0
 11
-919.105967622663
 21
1164.544014473827
 31
0.0
  0
LINE
  5
85
330
1F
100
AcDbEntity
  8
chh-06_Pen_No__7_Pen_No__7
  6
Continuous
100
AcDbLine
 10
-2394.105967622663
 20
1239.544014473827
 30
0.0
 11
-2394.105967622663
 21
-1060.455985526173
 31
0.0
  0
LINE
  5
86
330
1F
100
AcDbEntity
  8
chh-06_Pen_No__7_Pen_No__7
  6
Continuous
100
AcDbLine
 10
-2344.105967622664
 20
1239.544014473827
 30
0.0
 11
-2344.105967622664
 21
-1060.455985526173
 31
0.0
  0
LINE
  5
87
330
1F
100
AcDbEntity
  8
chh-06_Pen_No__7_Pen_No__7
  6
Continuous
100
AcDbLine
 10
-2294.105967622663
 20
889.544014473831
 30
0.0
 11
-2294.105967622663
 21
-1060.455985526173
 31
0.0
  0
LINE
  5
88
330
1F
100
AcDbEntity
  8
chh-06_Pen_No__7_Pen_No__7
  6
Continuous
100
AcDbLine
 10
-2244.105967622692
 20
-135.455985526169
 30
0.0
 11
-2244.105967622666
 21
-1060.455985526173
 31
0.0
  0
LINE
  5
89
330
1F
100
AcDbEntity
  8
chh-06_Pen_No__7_Pen_No__7
  6
Continuous
100
AcDbLine
 10
-2344.105967622664
 20
1039.544014473827
 30
0.0
 11
-1519.105967622663
 21
1039.544014473831
 31
0.0
  0
LINE
  5
8A
330
1F
100
AcDbEntity
  8
chh-06_Pen_No__7_Pen_No__7
  6
Continuous
100
AcDbLine
 10
-2344.105967622664
 20
889.5440144738274
 30
0.0
 11
-1519.105967622663
 21
889.544014473831
 31
0.0
  0
LINE
  5
8B
330
1F
100
AcDbEntity
  8
chh-06_Pen_No__7_Pen_No__7
  6
Continuous
100
AcDbLine
 10
-1569.105967622663
 20
889.544014473831
 30
0.0
 11
-1569.105967622663
 21
-1060.455985526173
 31
0.0
  0
LINE
  5
8C
330
1F
100
AcDbEntity
  8
chh-06_Pen_No__7_Pen_No__7
  6
Continuous
100
AcDbLine
 10
-1619.105967622692
 20
-135.455985526169
 30
0.0
 11
-1619.105967622666
 21
-1060.455985526173
 31
0.0
  0
LINE
  5
8D
330
1F
100
AcDbEntity
  8
chh-06_Pen_No__7_Pen_No__7
  6
Continuous
100
AcDbLine
 10
-2294.105967622663
 20
-85.45598552617264
 30
0.0
 11
-1569.105967622692
 21
-85.45598552617264
 31
0.0
  0
LINE
  5
8E
330
1F
100
AcDbEntity
  8
chh-06_Pen_No__7_Pen_No__7
  6
Continuous
100
AcDbLine
 10
-2294.105967622663
 20
-135.4559855261726
 30
0.0
 11
-1569.105967622692
 21
-135.455985526169
 31
0.0
  0
LINE
  5
8F
330
1F
100
AcDbEntity
  8
chh-06_Pen_No__7_Pen_No__7
  6
Continuous
100
AcDbLine
 10
-2119.105967622666
 20
1239.544014473827
 30
0.0
 11
-2119.105967622666
 21
1039.544014473831
 31
0.0
  0
LINE
  5
90
330
1F
100
AcDbEntity
  8
chh-06_Pen_No__7_Pen_No__7
  6
Continuous
100
AcDbLine
 10
-2119.105967622666
 20
-135.4559855261726
 30
0.0
 11
-2119.105967622666
 21
-1060.455985526173
 31
0.0
  0
LINE
  5
91
330
1F
100
AcDbEntity
  8
chh-06_Pen_No__7_Pen_No__7
  6
Continuous
100
AcDbLine
 10
-2069.105967622663
 20
1239.544014473827
 30
0.0
 11
-2069.105967622663
 21
1039.544014473831
 31
0.0
  0
LINE
  5
92
330
1F
100
AcDbEntity
  8
chh-06_Pen_No__7_Pen_No__7
  6
Continuous
100
AcDbLine
 10
-2069.105967622663
 20
-135.4559855261726
 30
0.0
 11
-2069.105967622663
 21
-1060.455985526173
 31
0.0
  0
LINE
  5
93
330
1F
100
AcDbEntity
  8
chh-06_Pen_No__7_Pen_No__7
  6
Continuous
100
AcDbLine
 10
-594.1059676226637
 20
1239.544014473827
 30
0.0
 11
-594.1059676226637
 21
-1060.455985526173
 31
0.0
  0
LINE
  5
94
330
1F
100
AcDbEntity
  8
chh-06_Pen_No__7_Pen_No__7
  6
Continuous
100
AcDbLine
 10
-544.105967622663
 20
1239.544014473827
 30
0.0
 11
-544.105967622663
 21
-1060.455985526173
 31
0.0
  0
LINE
  5
95
330
1F
100
AcDbEntity
  8
chh-06_Pen_No__7_Pen_No__7
  6
Continuous
100
AcDbLine
 10
-494.1059676226623
 20
889.544014473831
 30
0.0
 11
-494.1059676226623
 21
-1110.455985526173
 31
0.0
  0
LINE
  5
96
330
1F
100
AcDbEntity
  8
chh-06_Pen_No__7_Pen_No__7
  6
Continuous
100
AcDbLine
 10
-544.105967622663
 20
1039.544014473831
 30
0.0
 11
470.8940323773367
 21
1039.544014473831
 31
0.0
  0
LINE
  5
97
330
1F
100
AcDbEntity
  8
chh-06_Pen_No__7_Pen_No__7
  6
Continuous
100
AcDbLine
 10
-544.105967622663
 20
889.544014473831
 30
0.0
 11
470.8940323773367
 21
889.544014473831
 31
0.0
  0
LINE
  5
98
330
1F
100
AcDbEntity
  8
chh-06_Pen_No__7_Pen_No__7
  6
Continuous
100
AcDbLine
 10
470.8940323773367
 20
1239.544014473827
 30
0.0
 11
470.8940323773367
 21
-1060.455985526173
 31
0.0
  0
LINE
  5
99
330
1F
100
AcDbEntity
  8
chh-06_Pen_No__7_Pen_No__7
  6
Continuous
100
AcDbLine
 10
420.8940323773369
 20
889.544014473831
 30
0.0
 11
420.8940323773369
 21
-1110.455985526173
 31
0.0
  0
LINE
  5
9A
330
1F
100
AcDbEntity
  8
chh-06_Pen_No__7_Pen_No__7
  6
Continuous
100
AcDbLine
 10
-2344.105967622664
 20
1164.544014473827
 30
0.0
 11
-2119.105967622634
 21
1164.544014473831
 31
0.0
  0
LINE
  5
9B
330
1F
100
AcDbEntity
  8
chh-06_Pen_No__7_Pen_No__7
  6
Continuous
100
AcDbLine
 10
-2069.105967622637
 20
1164.544014473831
 30
0.0
 11
-1519.105967622663
 21
1164.544014473824
 31
0.0
  0
LINE
  5
9C
330
1F
100
AcDbEntity
  8
chh-06_Pen_No__7_Pen_No__7
  6
Continuous
100
AcDbLine
 10
-2344.105967622664
 20
1114.544014473827
 30
0.0
 11
-2119.105967622634
 21
1114.544014473827
 31
0.0
  0
LINE
  5
9D
330
1F
100
AcDbEntity
  8
chh-06_Pen_No__7_Pen_No__7
  6
Continuous
100
AcDbLine
 10
-2069.105967622637
 20
1114.544014473827
 30
0.0
 11
-1519.105967622663
 21
1114.544014473824
 31
0.0
  0
LINE
  5
9E
330
1F
100
AcDbEntity
  8
chh-06_Pen_No__7_Pen_No__7
  6
Continuous
100
AcDbLine
 10
-544.105967622663
 20
1164.544014473827
 30
0.0
 11
280.8940323773372
 21
1164.544014473827
 31
0.0
  0
LINE
  5
9F
330
1F
100
AcDbEntity
  8
chh-06_Pen_No__7_Pen_No__7
  6
Continuous
100
AcDbLine
 10
330.894032377337
 20
1164.544014473827
 30
0.0
 11
470.8940323773367
 21
1164.544014473827
 31
0.0
  0
LINE
  5
A0
330
1F
100
AcDbEntity
  8
chh-06_Pen_No__7_Pen_No__7
  6
Continuous
100
AcDbLine
 10
-544.105967622663
 20
1114.544014473827
 30
0.0
 11
280.8940323773372
 21
1114.544014473827
 31
0.0
  0
LINE
  5
A1
330
1F
100
AcDbEntity
  8
chh-06_Pen_No__7_Pen_No__7
  6
Continuous
100
AcDbLine
 10
330.894032377337
 20
1114.544014473827
 30
0.0
 11
470.8940323773367
 21
1114.544014473827
 31
0.0
  0
LINE
  5
A2
330
1F
100
AcDbEntity
  8
chh-06_Pen_No__7_Pen_No__7
  6
Continuous
100
AcDbLine
 10
1555.894032377337
 20
1239.544014473827
 30
0.0
 11
1555.894032377337
 21
-1060.455985526173
 31
0.0
  0
LINE
  5
A3
330
1F
100
AcDbEntity
  8
chh-06_Pen_No__7_Pen_No__7
  6
Continuous
100
AcDbLine
 10
1455.894032377337
 20
1239.544014473827
 30
0.0
 11
1455.894032377337
 21
-1060.455985526173
 31
0.0
  0
LINE
  5
A4
330
1F
100
AcDbEntity
  8
chh-06_Pen_No__7_Pen_No__7
  6
Continuous
100
AcDbLine
 10
1555.894032377337
 20
389.5440144738274
 30
0.0
 11
1860.70381283154
 21
389.5440144738274
 31
0.0
  0
LINE
  5
A5
330
1F
100
AcDbEntity
  8
chh-06_Pen_No__7_Pen_No__7
  6
Continuous
100
AcDbLine
 10
1555.894032377337
 20
439.5440144738274
 30
0.0
 11
1860.70381283154
 21
439.5440144738274
 31
0.0
  0
LINE
  5
A6
330
1F
100
AcDbEntity
  8
chh-06_Pen_No__7_Pen_No__7
  6
Continuous
100
AcDbLine
 10
1555.894032377337
 20
-335.4559855261726
 30
0.0
 11
1860.70381283154
 21
-335.4559855261726
 31
0.0
  0
LINE
  5
A7
330
1F
100
AcDbEntity
  8
chh-06_Pen_No__7_Pen_No__7
  6
Continuous
100
AcDbLine
 10
1555.894032377337
 20
-285.4559855261726
 30
0.0
 11
1860.70381283154
 21
-285.4559855261726
 31
0.0
  0
LINE
  5
A8
330
1F
100
AcDbEntity
  8
chh-06_Pen_No__7_Pen_No__7
  6
Continuous
100
AcDbLine
 10
1555.894032377337
 20
1114.544014473827
 30
0.0
 11
1860.70381283154
 21
1114.544014473827
 31
0.0
  0
LINE
  5
A9
330
1F
100
AcDbEntity
  8
chh-06_Pen_No__7_Pen_No__7
  6
Continuous
100
AcDbLine
 10
1555.894032377337
 20
1164.544014473827
 30
0.0
 11
1860.70381283154
 21
1164.544014473827
 31
0.0
  0
LINE
  5
AA
330
1F
100
AcDbEntity
  8
chh-06_Pen_No__7_Pen_No__7
  6
Continuous
100
AcDbLine
 10
3030.828906181322
 20
1289.544014473827
 30
0.0
 11
3030.828906181322
 21
1239.544014473827
 31
0.0
  0
LINE
  5
AB
330
1F
100
AcDbEntity
  8
chh-06_Pen_No__7_Pen_No__7
  6
Continuous
100
AcDbLine
 10
3030.828906181322
 20
-1060.455985526173
 30
0.0
 11
3030.828906181322
 21
-1110.455985526173
 31
0.0
  0
LINE
  5
AC
330
1F
100
AcDbEntity
  8
chh-06_Pen_No__7_Pen_No__7
  6
Continuous
100
AcDbLine
 10
-3319.105967622663
 20
-1110.455985526173
 30
0.0
 11
-3319.105967622663
 21
-1060.455985526173
 31
0.0
  0
LINE
  5
AD
330
1F
100
AcDbEntity
  8
chh-06_Pen_No__7_Pen_No__7
  6
Continuous
100
AcDbLine
 10
-3319.105967622663
 20
1239.544014473827
 30
0.0
 11
-3319.105967622663
 21
1289.544014473827
 31
0.0
  0
LINE
  5
AF
330
1F
100
AcDbEntity
  8
chh-08_Pen_No__8_Pen_No__81
  6
DASHED2
100
AcDbLine
 10
-2094.105967622664
 20
-1110.455985526173
 30
0.0
 11
-2094.105967622664
 21
-135.4559855261763
 31
0.0
  0
LINE
  5
B1
330
1F
100
AcDbEntity
  8
chh-08_Pen_No__8_Pen_No__81
  6
DASHED2
100
AcDbLine
 10
-2094.105967622664
 20
1039.544014473827
 30
0.0
 11
-2094.105967622664
 21
1289.544014473827
 31
0.0
  0
LINE
  5
B2
330
1F
100
AcDbEntity
  8
chh-08_Pen_No__8_Pen_No__81
  6
DASHED2
100
AcDbLine
 10
-894.1059676226625
 20
-1110.455985526173
 30
0.0
 11
-894.1059676226625
 21
1289.544014473827
 31
0.0
  0
LINE
  5
B3
330
1F
100
AcDbEntity
  8
chh-08_Pen_No__8_Pen_No__81
  6
DASHED2
100
AcDbLine
 10
305.8940323773367
 20
1039.544014473831
 30
0.0
 11
305.8940323773367
 21
1289.544014473827
 31
0.0
  0
LINE
  5
B4
330
1F
100
AcDbEntity
  8
chh-08_Pen_No__8_Pen_No__81
  6
DASHED2
100
AcDbLine
 10
1505.894032377337
 20
-1110.455985526173
 30
0.0
 11
1505.894032377337
 21
1289.544014473827
 31
0.0
  0
LINE
  5
B5
330
1F
100
AcDbEntity
  8
chh-06_Pen_No__7_Pen_No__7
  6
Continuous
100
AcDbLine
 10
280.8940323773372
 20
1039.544014473827
 30
0.0
 11
280.8940323773372
 21
1239.544014473827
 31
0.0
  0
LINE
  5
B6
330
1F
100
AcDbEntity
  8
chh-06_Pen_No__7_Pen_No__7
  6
Continuous
100
AcDbLine
 10
330.894032377337
 20
1039.544014473827
 30
0.0
 11
330.894032377337
 21
1239.544014473827
 31
0.0
  0
LINE
  5
B7
330
1F
100
AcDbEntity
  8
chh-06_Pen_No__7_Pen_No__7
  6
Continuous
100
AcDbLine
 10
520.8940323773356
 20
-1060.455985526173
 30
0.0
 11
520.8940323773356
 21
1239.544014473827
 31
0.0
  0
LINE
  5
B8
330
1F
100
AcDbEntity
  8
chh-06_Pen_No__7_Pen_No__7
  6
Continuous
100
AcDbLine
 10
605.8940323773356
 20
1164.544014473827
 30
0.0
 11
520.8940323773356
 21
1164.544014473827
 31
0.0
  0
LINE
  5
B9
330
1F
100
AcDbEntity
  8
chh-06_Pen_No__7_Pen_No__7
  6
Continuous
100
AcDbLine
 10
605.8940323773356
 20
1114.544014473827
 30
0.0
 11
520.8940323773356
 21
1114.544014473827
 31
0.0
  0
LINE
  5
BA
330
1F
100
AcDbEntity
  8
chh-06_Pen_No__7_Pen_No__7
  6
Continuous
100
AcDbLine
 10
605.8940323773356
 20
439.5440144738274
 30
0.0
 11
520.8940323773356
 21
439.5440144738274
 31
0.0
  0
LINE
  5
BB
330
1F
100
AcDbEntity
  8
chh-06_Pen_No__7_Pen_No__7
  6
Continuous
100
AcDbLine
 10
605.8940323773356
 20
389.5440144738274
 30
0.0
 11
520.8940323773356
 21
389.5440144738274
 31
0.0
  0
LINE
  5
BC
330
1F
100
AcDbEntity
  8
chh-06_Pen_No__7_Pen_No__7
  6
Continuous
100
AcDbLine
 10
605.8940323773356
 20
-285.4559855261726
 30
0.0
 11
520.8940323773356
 21
-285.4559855261726
 31
0.0
  0
LINE
  5
BD
330
1F
100
AcDbEntity
  8
chh-06_Pen_No__7_Pen_No__7
  6
Continuous
100
AcDbLine
 10
605.8940323773356
 20
-335.4559855261726
 30
0.0
 11
520.8940323773356
 21
-335.4559855261726
 31
0.0
  0
LINE
  5
BE
330
1F
100
AcDbEntity
  8
chh-06_Pen_No__7_Pen_No__1
  6
Continuous
100
AcDbLine
 10
-3319.105967622663
 20
-1133.785679557634
 30
0.0
 11
-3319.105967622663
 21
-1448.633717717006
 31
0.0
  0
LINE
  5
C0
330
1F
100
AcDbEntity
  8
chh-09_Pen_No__9_Pen_No__1
  6
Continuous
100
AcDbLine
 10
3030.828906181322
 20
-1131.758360980647
 30
0.0
 11
3030.828906181322
 21
-1509.023543953972
 31
0.0
  0
LINE
  5
C2
330
1F
100
AcDbEntity
  8
chh-06_Pen_No__7_Pen_No__7
  6
Continuous
100
AcDbLine
 10
2980.82890618132
 20
1239.544014473827
 30
0.0
 11
2980.82890618132
 21
-1060.455985526173
 31
0.0
  0
LINE
  5
C3
330
1F
100
AcDbEntity
  8
chh-06_Pen_No__7_Pen_No__7
  6
Continuous
100
AcDbLine
 10
3030.828906181322
 20
1239.544014473827
 30
0.0
 11
3030.828906181322
 21
-1060.455985526173
 31
0.0
  0
LINE
  5
C4
330
1F
100
AcDbEntity
  8
chh-06_Pen_No__7_Pen_No__7
  6
Continuous
100
AcDbLine
 10
2880.828906181321
 20
1239.544014473827
 30
0.0
 11
2880.828906181321
 21
-1060.455985526173
 31
0.0
  0
LINE
  5
C5
330
1F
100
AcDbEntity
  8
chh-06_Pen_No__7_Pen_No__7
  6
Continuous
100
AcDbLine
 10
2930.828906181321
 20
1239.544014473827
 30
0.0
 11
2930.828906181321
 21
-1060.455985526173
 31
0.0
  0
LWPOLYLINE
  5
C6
330
1F
100
AcDbEntity
  8
chh-06_Pen_No__7_Pen_No__7
  6
Continuous
100
AcDbPolyline
 90
        4
 70
   129
 43
0.0
 10
2930.828906181321
 20
914.5440144738274
 10
2980.82890618132
 20
914.5440144738274
 10
2980.82890618132
 20
714.5440144738274
 10
2930.828906181321
 20
714.5440144738274
  0
LWPOLYLINE
  5
C7
330
1F
100
AcDbEntity
  8
chh-06_Pen_No__7_Pen_No__7
  6
Continuous
100
AcDbPolyline
 90
        4
 70
   129
 43
0.0
 10
2930.82890618132
 20
-535.4559855261726
 10
2980.828906181319
 20
-535.4559855261726
 10
2980.828906181319
 20
-735.4559855261726
 10
2930.82890618132
 20
-735.4559855261726
  0
LWPOLYLINE
  5
C8
330
1F
100
AcDbEntity
  8
chh-06_Pen_No__7_Pen_No__7
  6
Continuous
100
AcDbPolyline
 90
        4
 70
   129
 43
0.0
 10
2930.828906181321
 20
197.7202998110398
 10
2980.82890618132
 20
197.7202998110398
 10
2980.82890618132
 20
-2.279700188960197
 10
2930.828906181321
 20
-2.279700188960197
  0
LWPOLYLINE
  5
C9
330
1F
100
AcDbEntity
  8
chh-06_Pen_No__7_Pen_No__7
  6
Continuous
100
AcDbPolyline
 90
        2
 70
   128
 43
0.0
 10
-2244.105967622687
 20
-285.4559855261726
 10
-2119.105967622666
 20
-285.4559855261726
  0
LWPOLYLINE
  5
CA
330
1F
100
AcDbEntity
  8
chh-06_Pen_No__7_Pen_No__7
  6
Continuous
100
AcDbPolyline
 90
        2
 70
   128
 43
0.0
 10
-2069.105967622663
 20
-285.4559855261726
 10
-1619.105967622687
 20
-285.4559855261726
  0
LWPOLYLINE
  5
CB
330
1F
100
AcDbEntity
  8
chh-06_Pen_No__7_Pen_No__7
  6
Continuous
100
AcDbPolyline
 90
        2
 70
   128
 43
0.0
 10
-2244.105967622687
 20
-335.4559855261726
 10
-2119.105967622661
 20
-335.4559855261726
  0
LWPOLYLINE
  5
CC
330
1F
100
AcDbEntity
  8
chh-06_Pen_No__7_Pen_No__7
  6
Continuous
100
AcDbPolyline
 90
        2
 70
   128
 43
0.0
 10
-2069.105967622661
 20
-335.4559855261726
 10
-1619.105967622687
 20
-335.4559855261726
  0
LWPOLYLINE
  5
CD
330
1F
100
AcDbEntity
  8
chh-08_Pen_No__8_Pen_No__81
  6
Continuous
100
AcDbPolyline
 90
        6
 70
   128
 43
0.0
 10
1860.70381283154
 20
-1270.484277747488
 10
1860.70381283154
 20
675.6094978840516
 10
1762.567278787167
 20
675.6094978840516
 10
1958.840346875928
 20
741.0338539136316
 10
1860.70381283154
 20
741.0338539136316
 10
1860.70381283154
 20
1580.851940467746
  0
LWPOLYLINE
  5
CE
330
1F
100
AcDbEntity
  8
chh-08_Pen_No__8_Pen_No__81
  6
Continuous
100
AcDbPolyline
 90
        6
 70
   128
 43
0.0
 10
2104.719376946945
 20
-1270.484277747488
 10
2104.719376946945
 20
675.6094978840516
 10
2006.582842902572
 20
675.6094978840516
 10
2202.855910991334
 20
741.0338539136316
 10
2104.719376946945
 20
741.0338539136316
 10
2104.719376946945
 20
1580.851940467746
  0
LWPOLYLINE
  5
CF
330
1F
100
AcDbEntity
  8
chh-09_Pen_No__9_Pen_No__2
  6
Continuous
100
AcDbPolyline
 90
        2
 70
   128
 43
0.0
 10
-3002.9431440779
 20
-1411.661752948172
 10
-3232.268833001559
 20
-1411.661752948172
  0
LWPOLYLINE
  5
D0
330
1F
100
AcDbEntity
  8
chh-09_Pen_No__9_Pen_No__2
  6
Continuous
100
AcDbPolyline
 90
        2
 70
   128
 43
0.0
 10
3346.991729726084
 20
-1411.661752948172
 10
3117.666040802425
 20
-1411.661752948172
  0
LWPOLYLINE
  5
D1
330
1F
100
AcDbEntity
  8
chh-09_Pen_No__9_Pen_No__2
  6
Continuous
100
AcDbPolyline
 90
        2
 70
   128
 43
0.0
 10
3346.991729726084
 20
1139.807883451272
 10
2911.18212408921
 20
1139.807883451272
  0
DIMENSION
  5
101
330
1F
100
AcDbEntity
  8
chh-txt
  6
Continuous
100
AcDbDimension
  2
*D1
 10
-3294.105967622663
 20
1780.324683361479
 30
0.0
 11
-2996.465466113951
 21
1815.324683361479
 31
0.0
 70
    32
 71
     5
 42
-1.0
  3
GENERATED_STYLE__1
100
AcDbAlignedDimension
 13
-3294.105967622663
 23
1486.135759820615
 33
0.0
 14
-2694.105967622663
 24
1486.135759820615
 34
0.0
100
AcDbRotatedDimension
  0
DIMENSION
  5
113
330
1F
100
AcDbEntity
  8
chh-txt
  6
Continuous
100
AcDbDimension
  2
*D3
 10
-3294.105967622663
 20
1780.324683361479
 30
0.0
 11
-2396.465466113951
 21
1815.324683361479
 31
0.0
 70
    32
 71
     5
 42
-1.0
  3
GENERATED_STYLE__1
100
AcDbAlignedDimension
 13
-2694.105967622663
 23
1486.135759820615
 33
0.0
 14
-2094.105967622664
 24
1486.135759820615
 34
0.0
100
AcDbRotatedDimension
  0
DIMENSION
  5
11E
330
1F
100
AcDbEntity
  8
chh-txt
  6
Continuous
100
AcDbDimension
  2
*D4
 10
-2094.105967622664
 20
1780.324683361479
 30
0.0
 11
-1796.465466113952
 21
1815.324683361479
 31
0.0
 70
    32
 71
     5
 42
-1.0
  3
GENERATED_STYLE__1
100
AcDbAlignedDimension
 13
-2094.105967622664
 23
1536.135759820615
 33
0.0
 14
-1494.105967622666
 24
1486.135759820615
 34
0.0
100
AcDbRotatedDimension
  0
DIMENSION
  5
129
330
1F
100
AcDbEntity
  8
chh-txt
  6
Continuous
100
AcDbDimension
  2
*D5
 10
-2094.105967622664
 20
1780.324683361479
 30
0.0
 11
-1196.465466113951
 21
1815.324683361479
 31
0.0
 70
    32
 71
     5
 42
-1.0
  3
GENERATED_STYLE__1
100
AcDbAlignedDimension
 13
-1494.105967622666
 23
1486.135759820615
 33
0.0
 14
-894.1059676226625
 24
1536.135759820615
 34
0.0
100
AcDbRotatedDimension
  0
DIMENSION
  5
134
330
1F
100
AcDbEntity
  8
chh-txt
  6
Continuous
100
AcDbDimension
  2
*D6
 10
-3660.753804825367
 20
-1085.455985526173
 30
0.0
 11
-3695.753804825367
 21
-700.3154840174599
 31
0.0
 70
    32
  1
\A1;800
 71
     5
 42
-1.0
  3
GENERATED_STYLE__2
100
AcDbAlignedDimension
 13
-3420.191800993329
 23
-1085.455985526173
 33
0.0
 14
-3420.191800993329
 24
-310.4559855261726
 34
0.0
 50
90.0
100
AcDbRotatedDimension
  0
DIMENSION
  5
13F
330
1F
100
AcDbEntity
  8
chh-txt
  6
Continuous
100
AcDbDimension
  2
*D7
 10
-3660.753804825367
 20
-1085.455985526173
 30
0.0
 11
-3695.753804825367
 21
49.68451598254025
 31
0.0
 70
    32
  1
\A1;800
 71
     5
 42
-1.0
  3
GENERATED_STYLE__2
100
AcDbAlignedDimension
 13
-3420.191800993329
 23
-310.4559855261726
 33
0.0
 14
-3420.191800993329
 24
414.5440144738275
 34
0.0
 50
90.0
100
AcDbRotatedDimension
  0
DIMENSION
  5
14A
330
1F
100
AcDbEntity
  8
chh-txt
  6
Continuous
100
AcDbDimension
  2
*D8
 10
-3660.753804825367
 20
-1085.455985526173
 30
0.0
 11
-3695.753804825367
 21
774.6845159825403
 31
0.0
 70
    32
  1
\A1;800
 71
     5
 42
-1.0
  3
GENERATED_STYLE__2
100
AcDbAlignedDimension
 13
-3420.191800993329
 23
414.5440144738275
 33
0.0
 14
-3420.191800993329
 24
1139.544014473827
 34
0.0
 50
90.0
100
AcDbRotatedDimension
  0
MTEXT
  5
14B
330
1F
100
AcDbEntity
  8
chh-06_Pen_No__7_Pen_No__7
  6
Continuous
100
AcDbMText
 10
-196.9886842128013
 20
416.3069110449804
 30
0.0
 40
50.0
 41
0.0
 71
     4
 72
     1
  1
{Door}
  7
GENERATED_STYLE_1
 73
     1
 44
1.0
  0
MTEXT
  5
14C
330
1F
100
AcDbEntity
  8
chh-06_Pen_No__7_Pen_No__7
  6
Continuous
100
AcDbMText
 10
-2191.302529920314
 20
421.6260889770282
 30
0.0
 40
50.0
 41
0.0
 71
     4
 72
     1
  1
{Window}
  7
GENERATED_STYLE_1
 73
     1
 44
1.0
  0
MTEXT
  5
14D
330
1F
100
AcDbEntity
  8
chh-txt_Pen_No__7_Pen_No__7
  6
Continuous
100
AcDbMText
 10
-26.81205996342767
 20
1423.606069479598
 30
0.0
 40
50.0
 41
0.0
 71
     4
 72
     1
  1
{Sheet joint}
  7
GENERATED_STYLE_1
 73
     1
 44
1.0
  0
MTEXT
  5
14F
330
1F
100
AcDbEntity
  8
chh-txt_Pen_No__7_Pen_No__7
  6
Continuous
100
AcDbMText
 10
1157.722244647622
 20
1423.606069479598
 30
0.0
 40
50.0
 41
0.0
 71
     4
 72
     1
  1
{Sheet joint}
  7
GENERATED_STYLE_1
 73
     1
 44
1.0
  0
MTEXT
  5
150
330
1F
100
AcDbEntity
  8
chh-txt_Pen_No__7_Pen_No__7
  6
Continuous
100
AcDbMText
 10
-1226.812059963431
 20
1423.606069479598
 30
0.0
 40
50.0
 41
0.0
 71
     4
 72
     1
  1
{Sheet joint}
  7
GENERATED_STYLE_1
 73
     1
 44
1.0
  0
MTEXT
  5
151
330
1F
100
AcDbEntity
  8
chh-txt_Pen_No__7_Pen_No__7
  6
Continuous
100
AcDbMText
 10
-2426.81205996343
 20
1423.606069479598
 30
0.0
 40
50.0
 41
0.0
 71
     4
 72
     1
  1
{Sheet joint}
  7
GENERATED_STYLE_1
 73
     1
 44
1.0
  0
MTEXT
  5
152
330
1F
100
AcDbEntity
  8
chh-txt_Pen_No__7_Pen_No__7
  6
Continuous
100
AcDbMText
 10
3406.710693105731
 20
-1424.37436858865
 30
0.0
 40
50.0
 41
0.0
 71
     7
 72
     1
  1
{External corner}
  7
GENERATED_STYLE_1
 73
     1
 44
1.0
  0
MTEXT
  5
153
330
1F
100
AcDbEntity
  8
chh-06_Pen_No__7_Pen_No__7
  6
Continuous
100
AcDbMText
 10
3402.110693105732
 20
1076.533694911636
 30
0.0
 40
50.0
 41
0.0
 71
     7
 72
     1
  1
{Soffit Line}
  7
GENERATED_STYLE_1
 73
     1
 44
1.0
  0
MTEXT
  5
154
330
1F
100
AcDbEntity
  8
Defpoints_Pen_No__211_Pen_No__115
  6
Continuous
100
AcDbMText
 10
-3675.376226955528
 20
-2027.698362035744
 30
0.0
 40
62.49999999999999
 41
0.0
 71
     1
 72
     1
  1
{SC001 Shadowclad Framing Layout}
  7
GENERATED_STYLE_1
 73
     1
 44
1.0
  0
MTEXT
  5
156
330
1F
100
AcDbEntity
  8
chh-txt_Pen_No__7_Pen_No__7
  6
Continuous
100
AcDbMText
 10
-3867.140877942372
 20
-576.8791071361578
 30
0.0
 40
50.0
 41
0.0
 71
     7
 72
     1
  1
{Maximum nog spacing}
  7
GENERATED_STYLE_1
 11
6.123233995736766E-17
 21
1.0
 31
0.0
 73
     1
 44
1.0
  0
MTEXT
  5
157
330
1F
100
AcDbEntity
  8
chh-txt_Pen_No__7_Pen_No__7
  6
Continuous
100
AcDbMText
 10
-2962.073713104085
 20
-1424.37436858865
 30
0.0
 40
50.0
 41
0.0
 71
     7
 72
     1
  1
{Internal corner}
  7
GENERATED_STYLE_1
 73
     1
 44
1.0
  0
MTEXT
  5
159
330
1F
100
AcDbEntity
  8
chh-txt_Pen_No__7_Pen_No__7
  6
Continuous
100
AcDbMText
 10
-2490.381396528562
 20
1978.035826702703
 30
0.0
 40
50.0
 41
0.0
 71
     7
 72
     1
  1
{Framing Centres}
  7
GENERATED_STYLE_2
 73
     1
 44
1.0
  0
MTEXT
  5
15A
330
1F
100
AcDbEntity
  8
chh-txt_Pen_No__7_Pen_No__7
  6
Continuous
100
AcDbMText
 10
-3675.376226955528
 20
-1930.963718313015
 30
0.0
 40
50.0
 41
1850.910257541623
 71
     7
 72
     1
  1
{NOTE: Single spans of Shadowclad® should not exceed 600mm (eg below window or on balustrades) }
  7
GENERATED_STYLE_1
 73
     1
 44
1.12731289109503
  0
ENDSEC
  0
SECTION
  2
OBJECTS
  0
DICTIONARY
  5
C
330
0
100
AcDbDictionary
281
     1
  3
ACAD_GROUP
350
D
  3
ACAD_LAYOUT
350
1A
  3
ACAD_MLEADERSTYLE
350
163
  3
ACAD_MLINESTYLE
350
17
  3
ACAD_PLOTSETTINGS
350
19
  3
ACAD_PLOTSTYLENAME
350
E
  3
ACAD_SCALELIST
350
DF
  3
ACAD_TABLESTYLE
350
162
  3
ACAD_VISUALSTYLE
350
2A
  3
AcDbVariableDictionary
350
160
  3
WATERMARKS
350
15E
  0
DICTIONARY
  5
D
102
{ACAD_REACTORS
330
C
102
}
330
C
100
AcDbDictionary
281
     1
  0
DICTIONARY
  5
1A
102
{ACAD_REACTORS
330
C
102
}
330
C
100
AcDbDictionary
281
     1
  3
Layout1
350
1E
  3
Layout2
350
26
  3
Model
350
22
  0
DICTIONARY
  5
163
102
{ACAD_REACTORS
330
C
102
}
330
C
100
AcDbDictionary
281
     1
  0
DICTIONARY
  5
17
102
{ACAD_REACTORS
330
C
102
}
330
C
100
AcDbDictionary
281
     1
  3
Standard
350
18
  0
DICTIONARY
  5
19
102
{ACAD_REACTORS
330
C
102
}
330
C
100
AcDbDictionary
281
     1
  0
ACDBDICTIONARYWDFLT
  5
E
102
{ACAD_REACTORS
330
C
102
}
330
C
100
AcDbDictionary
281
     1
  3
Normal
350
F
100
AcDbDictionaryWithDefault
340
F
  0
DICTIONARY
  5
DF
102
{ACAD_REACTORS
330
C
102
}
330
C
100
AcDbDictionary
281
     1
  3
A0
350
E0
  3
A1
350
E1
  3
A2
350
E2
  3
A3
350
E3
  3
A4
350
E4
  3
A5
350
E5
  3
A6
350
E6
  3
A7
350
E7
  3
A8
350
E8
  3
A9
350
E9
  3
B0
350
EA
  3
B1
350
EB
  3
B2
350
EC
  3
B3
350
ED
  3
B4
350
EE
  3
B5
350
EF
  3
B6
350
F0
  3
B7
350
F1
  3
B8
350
F2
  3
B9
350
F3
  3
C0
350
F4
  3
C1
350
F5
  3
C2
350
F6
  3
C3
350
F7
  3
C4
350
F8
  3
C5
350
F9
  3
C6
350
FA
  3
C7
350
FB
  3
C8
350
FC
  3
C9
350
FD
  3
D0
350
FE
  3
D1
350
FF
  3
D2
350
100
  0
DICTIONARY
  5
162
102
{ACAD_REACTORS
330
C
102
}
330
C
100
AcDbDictionary
281
     1
  0
DICTIONARY
  5
2A
102
{ACAD_REACTORS
330
C
102
}
330
C
100
AcDbDictionary
281
     1
  3
2dWireframe
350
2F
  3
3D Hidden
350
31
  3
3dWireframe
350
30
  3
Basic
350
32
  3
Brighten
350
36
  3
ColorChange
350
3A
  3
Conceptual
350
34
  3
Dim
350
35
  3
Facepattern
350
39
  3
Flat
350
2B
  3
FlatWithEdges
350
2C
  3
Gouraud
350
2D
  3
GouraudWithEdges
350
2E
  3
Linepattern
350
38
  3
Realistic
350
33
  3
Thicken
350
37
  0
DICTIONARY
  5
160
102
{ACAD_REACTORS
330
C
102
}
330
C
100
AcDbDictionary
281
     1
  3
CANNOSCALE
350
161
  0
DICTIONARY
  5
15E
102
{ACAD_REACTORS
330
C
102
}
330
C
100
AcDbDictionary
281
     1
  3
AC_WATERMARK
350
15F
  0
LAYOUT
  5
1E
102
{ACAD_REACTORS
330
1A
102
}
330
1A
100
AcDbPlotSettings
  1

  2
none_device
  4

  6

 40
0.0
 41
0.0
 42
0.0
 43
0.0
 44
0.0
 45
0.0
 46
0.0
 47
0.0
 48
0.0
 49
0.0
140
0.0
141
0.0
142
1.0
143
1.0
 70
   688
 72
     0
 73
     0
 74
     5
  7

 75
    16
 76
     0
 77
     2
 78
   300
147
1.0
148
0.0
149
0.0
100
AcDbLayout
  1
Layout1
 70
     1
 71
     1
 10
0.0
 20
0.0
 11
12.0
 21
9.0
 12
0.0
 22
0.0
 32
0.0
 14
1.000000000000000E+20
 24
1.000000000000000E+20
 34
1.000000000000000E+20
 15
-1.000000000000000E+20
 25
-1.000000000000000E+20
 35
-1.000000000000000E+20
146
0.0
 13
0.0
 23
0.0
 33
0.0
 16
1.0
 26
0.0
 36
0.0
 17
0.0
 27
1.0
 37
0.0
 76
     0
330
1B
  0
LAYOUT
  5
26
102
{ACAD_REACTORS
330
1A
102
}
330
1A
100
AcDbPlotSettings
  1

  2
none_device
  4

  6

 40
0.0
 41
0.0
 42
0.0
 43
0.0
 44
0.0
 45
0.0
 46
0.0
 47
0.0
 48
0.0
 49
0.0
140
0.0
141
0.0
142
1.0
143
1.0
 70
   688
 72
     0
 73
     0
 74
     5
  7

 75
    16
 76
     0
 77
     2
 78
   300
147
1.0
148
0.0
149
0.0
100
AcDbLayout
  1
Layout2
 70
     1
 71
     2
 10
0.0
 20
0.0
 11
0.0
 21
0.0
 12
0.0
 22
0.0
 32
0.0
 14
0.0
 24
0.0
 34
0.0
 15
0.0
 25
0.0
 35
0.0
146
0.0
 13
0.0
 23
0.0
 33
0.0
 16
1.0
 26
0.0
 36
0.0
 17
0.0
 27
1.0
 37
0.0
 76
     0
330
23
  0
LAYOUT
  5
22
102
{ACAD_REACTORS
330
1A
102
}
330
1A
100
AcDbPlotSettings
  1

  2
none_device
  4

  6

 40
0.0
 41
0.0
 42
0.0
 43
0.0
 44
0.0
 45
0.0
 46
0.0
 47
0.0
 48
0.0
 49
0.0
140
0.0
141
0.0
142
1.0
143
1.0
 70
  1712
 72
     0
 73
     0
 74
     0
  7

 75
     0
 76
     0
 77
     2
 78
   300
147
1.0
148
0.0
149
0.0
100
AcDbLayout
  1
Model
 70
     1
 71
     0
 10
0.0
 20
0.0
 11
12.0
 21
9.0
 12
0.0
 22
0.0
 32
0.0
 14
1.000000000000000E+20
 24
1.000000000000000E+20
 34
1.000000000000000E+20
 15
-1.000000000000000E+20
 25
-1.000000000000000E+20
 35
-1.000000000000000E+20
146
0.0
 13
0.0
 23
0.0
 33
0.0
 16
1.0
 26
0.0
 36
0.0
 17
0.0
 27
1.0
 37
0.0
 76
     0
330
1F
331
29
  0
MLINESTYLE
  5
18
102
{ACAD_REACTORS
330
17
102
}
330
17
100
AcDbMlineStyle
  2
Standard
 70
     0
  3

 62
   256
 51
90.0
 52
90.0
 71
     2
 49
0.5
 62
   256
  6
BYLAYER
 49
-0.5
 62
   256
  6
BYLAYER
  0
ACDBPLACEHOLDER
  5
F
102
{ACAD_REACTORS
330
E
102
}
330
E
  0
SCALE
  5
E0
102
{ACAD_REACTORS
330
DF
102
}
330
DF
100
AcDbScale
 70
     0
300
1:1
140
1.0
141
1.0
290
     1
  0
SCALE
  5
E1
102
{ACAD_REACTORS
330
DF
102
}
330
DF
100
AcDbScale
 70
     0
300
1:2
140
1.0
141
2.0
290
     0
  0
SCALE
  5
E2
102
{ACAD_REACTORS
330
DF
102
}
330
DF
100
AcDbScale
 70
     0
300
1:4
140
1.0
141
4.0
290
     0
  0
SCALE
  5
E3
102
{ACAD_REACTORS
330
DF
102
}
330
DF
100
AcDbScale
 70
     0
300
1:5
140
1.0
141
5.0
290
     0
  0
SCALE
  5
E4
102
{ACAD_REACTORS
330
DF
102
}
330
DF
100
AcDbScale
 70
     0
300
1:8
140
1.0
141
8.0
290
     0
  0
SCALE
  5
E5
102
{ACAD_REACTORS
330
DF
102
}
330
DF
100
AcDbScale
 70
     0
300
1:10
140
1.0
141
10.0
290
     0
  0
SCALE
  5
E6
102
{ACAD_REACTORS
330
DF
102
}
330
DF
100
AcDbScale
 70
     0
300
1:16
140
1.0
141
16.0
290
     0
  0
SCALE
  5
E7
102
{ACAD_REACTORS
330
DF
102
}
330
DF
100
AcDbScale
 70
     0
300
1:20
140
1.0
141
20.0
290
     0
  0
SCALE
  5
E8
102
{ACAD_REACTORS
330
DF
102
}
330
DF
100
AcDbScale
 70
     0
300
1:30
140
1.0
141
30.0
290
     0
  0
SCALE
  5
E9
102
{ACAD_REACTORS
330
DF
102
}
330
DF
100
AcDbScale
 70
     0
300
1:40
140
1.0
141
40.0
290
     0
  0
SCALE
  5
EA
102
{ACAD_REACTORS
330
DF
102
}
330
DF
100
AcDbScale
 70
     0
300
1:50
140
1.0
141
50.0
290
     0
  0
SCALE
  5
EB
102
{ACAD_REACTORS
330
DF
102
}
330
DF
100
AcDbScale
 70
     0
300
1:100
140
1.0
141
100.0
290
     0
  0
SCALE
  5
EC
102
{ACAD_REACTORS
330
DF
102
}
330
DF
100
AcDbScale
 70
     0
300
2:1
140
2.0
141
1.0
290
     0
  0
SCALE
  5
ED
102
{ACAD_REACTORS
330
DF
102
}
330
DF
100
AcDbScale
 70
     0
300
4:1
140
4.0
141
1.0
290
     0
  0
SCALE
  5
EE
102
{ACAD_REACTORS
330
DF
102
}
330
DF
100
AcDbScale
 70
     0
300
8:1
140
8.0
141
1.0
290
     0
  0
SCALE
  5
EF
102
{ACAD_REACTORS
330
DF
102
}
330
DF
100
AcDbScale
 70
     0
300
10:1
140
10.0
141
1.0
290
     0
  0
SCALE
  5
F0
102
{ACAD_REACTORS
330
DF
102
}
330
DF
100
AcDbScale
 70
     0
300
100:1
140
100.0
141
1.0
290
     0
  0
SCALE
  5
F1
102
{ACAD_REACTORS
330
DF
102
}
330
DF
100
AcDbScale
 70
     0
300
1/128" = 1'-0"
140
0.0078125
141
12.0
290
     0
  0
SCALE
  5
F2
102
{ACAD_REACTORS
330
DF
102
}
330
DF
100
AcDbScale
 70
     0
300
1/64" = 1'-0"
140
0.015625
141
12.0
290
     0
  0
SCALE
  5
F3
102
{ACAD_REACTORS
330
DF
102
}
330
DF
100
AcDbScale
 70
     0
300
1/32" = 1'-0"
140
0.03125
141
12.0
290
     0
  0
SCALE
  5
F4
102
{ACAD_REACTORS
330
DF
102
}
330
DF
100
AcDbScale
 70
     0
300
1/16" = 1'-0"
140
0.0625
141
12.0
290
     0
  0
SCALE
  5
F5
102
{ACAD_REACTORS
330
DF
102
}
330
DF
100
AcDbScale
 70
     0
300
3/32" = 1'-0"
140
0.09375
141
12.0
290
     0
  0
SCALE
  5
F6
102
{ACAD_REACTORS
330
DF
102
}
330
DF
100
AcDbScale
 70
     0
300
1/8" = 1'-0"
140
0.125
141
12.0
290
     0
  0
SCALE
  5
F7
102
{ACAD_REACTORS
330
DF
102
}
330
DF
100
AcDbScale
 70
     0
300
3/16" = 1'-0"
140
0.1875
141
12.0
290
     0
  0
SCALE
  5
F8
102
{ACAD_REACTORS
330
DF
102
}
330
DF
100
AcDbScale
 70
     0
300
1/4" = 1'-0"
140
0.25
141
12.0
290
     0
  0
SCALE
  5
F9
102
{ACAD_REACTORS
330
DF
102
}
330
DF
100
AcDbScale
 70
     0
300
3/8" = 1'-0"
140
0.375
141
12.0
290
     0
  0
SCALE
  5
FA
102
{ACAD_REACTORS
330
DF
102
}
330
DF
100
AcDbScale
 70
     0
300
1/2" = 1'-0"
140
0.5
141
12.0
290
     0
  0
SCALE
  5
FB
102
{ACAD_REACTORS
330
DF
102
}
330
DF
100
AcDbScale
 70
     0
300
3/4" = 1'-0"
140
0.75
141
12.0
290
     0
  0
SCALE
  5
FC
102
{ACAD_REACTORS
330
DF
102
}
330
DF
100
AcDbScale
 70
     0
300
1" = 1'-0"
140
1.0
141
12.0
290
     0
  0
SCALE
  5
FD
102
{ACAD_REACTORS
330
DF
102
}
330
DF
100
AcDbScale
 70
     0
300
1-1/2" = 1'-0"
140
1.5
141
12.0
290
     0
  0
SCALE
  5
FE
102
{ACAD_REACTORS
330
DF
102
}
330
DF
100
AcDbScale
 70
     0
300
3" = 1'-0"
140
3.0
141
12.0
290
     0
  0
SCALE
  5
FF
102
{ACAD_REACTORS
330
DF
102
}
330
DF
100
AcDbScale
 70
     0
300
6" = 1'-0"
140
6.0
141
12.0
290
     0
  0
SCALE
  5
100
102
{ACAD_REACTORS
330
DF
102
}
330
DF
100
AcDbScale
 70
     0
300
1'-0" = 1'-0"
140
12.0
141
12.0
290
     0
  0
VISUALSTYLE
  5
2F
102
{ACAD_REACTORS
330
2A
102
}
330
2A
100
AcDbVisualStyle
  2
2dWireframe
 70
     4
 71
     0
 72
     2
 73
     0
 90
        0
 40
-0.6
 41
-30.0
 62
     5
 63
     7
421
 16777215
 74
     1
 91
        4
 64
     7
 65
   257
 75
     1
175
     1
 42
1.0
 92
        0
 66
   257
 43
1.0
 76
     1
 77
     6
 78
     2
 67
     7
 79
     5
170
     0
171
     0
290
     0
174
     0
 93
        1
 44
0.0
173
     0
291
     0
 45
0.0
1001
ACAD
1000
AcDbSavedByObjectVersion
1070
     0
  0
VISUALSTYLE
  5
31
102
{ACAD_REACTORS
330
2A
102
}
330
2A
100
AcDbVisualStyle
  2
3D Hidden
 70
     6
 71
     1
 72
     2
 73
     2
 90
        0
 40
-0.6
 41
-30.0
 62
     5
 63
     7
421
 16777215
 74
     2
 91
        2
 64
     7
 65
   257
 75
     2
175
     1
 42
40.0
 92
        0
 66
   257
 43
1.0
 76
     1
 77
     6
 78
     2
 67
     7
 79
     3
170
     0
171
     0
290
     0
174
     0
 93
        1
 44
0.0
173
     0
291
     0
 45
0.0
1001
ACAD
1000
AcDbSavedByObjectVersion
1070
     0
  0
VISUALSTYLE
  5
30
102
{ACAD_REACTORS
330
2A
102
}
330
2A
100
AcDbVisualStyle
  2
3dWireframe
 70
     5
 71
     0
 72
     2
 73
     0
 90
        0
 40
-0.6
 41
-30.0
 62
     5
 63
     7
421
 16777215
 74
     1
 91
        4
 64
     7
 65
   257
 75
     1
175
     1
 42
1.0
 92
        0
 66
   257
 43
1.0
 76
     1
 77
     6
 78
     2
 67
     7
 79
     5
170
     0
171
     0
290
     0
174
     0
 93
        1
 44
0.0
173
     0
291
     0
 45
0.0
1001
ACAD
1000
AcDbSavedByObjectVersion
1070
     0
  0
VISUALSTYLE
  5
32
102
{ACAD_REACTORS
330
2A
102
}
330
2A
100
AcDbVisualStyle
  2
Basic
 70
     7
 71
     1
 72
     0
 73
     1
 90
        0
 40
-0.6
 41
-30.0
 62
     5
 63
     7
421
 16777215
 74
     0
 91
        4
 64
     7
 65
   257
 75
     1
175
     1
 42
1.0
 92
        8
 66
     7
 43
1.0
 76
     1
 77
     6
 78
     2
 67
     7
 79
     5
170
     0
171
     0
290
     0
174
     0
 93
        1
 44
0.0
173
     0
291
     1
 45
0.0
1001
ACAD
1000
AcDbSavedByObjectVersion
1070
     0
  0
VISUALSTYLE
  5
36
102
{ACAD_REACTORS
330
2A
102
}
330
2A
100
AcDbVisualStyle
  2
Brighten
 70
    12
 71
     2
 72
     2
 73
     0
 90
        0
 40
-0.6
 41
-30.0
 62
     5
 63
     7
421
 16777215
 74
     1
 91
        4
 64
     7
 65
   257
 75
     1
175
     1
 42
1.0
 92
        8
 66
     7
 43
1.0
 76
     1
 77
     6
 78
     2
 67
     7
 79
     5
170
     0
171
     0
290
     0
174
     0
 93
        1
 44
50.0
173
     0
291
     1
 45
0.0
1001
ACAD
1000
AcDbSavedByObjectVersion
1070
     0
  0
VISUALSTYLE
  5
3A
102
{ACAD_REACTORS
330
2A
102
}
330
2A
100
AcDbVisualStyle
  2
ColorChange
 70
    16
 71
     2
 72
     2
 73
     3
 90
        0
 40
-0.6
 41
-30.0
 62
     5
 63
     8
421
  8421504
 74
     1
 91
        4
 64
     7
 65
   257
 75
     1
175
     1
 42
1.0
 92
        8
 66
     8
424
  8421504
 43
1.0
 76
     1
 77
     6
 78
     2
 67
     7
 79
     5
170
     0
171
     0
290
     0
174
     0
 93
        1
 44
0.0
173
     0
291
     1
 45
0.0
1001
ACAD
1000
AcDbSavedByObjectVersion
1070
     0
  0
VISUALSTYLE
  5
34
102
{ACAD_REACTORS
330
2A
102
}
330
2A
100
AcDbVisualStyle
  2
Conceptual
 70
     9
 71
     3
 72
     2
 73
     0
 90
        0
 40
-0.6
 41
-30.0
 62
     5
 63
     7
421
 16777215
 74
     2
 91
        2
 64
     7
 65
   257
 75
     1
175
     1
 42
40.0
 92
        8
 66
     7
 43
1.0
 76
     1
 77
     6
 78
     2
 67
     7
 79
     3
170
     0
171
     0
290
     0
174
     0
 93
        1
 44
0.0
173
     0
291
     0
 45
0.0
1001
ACAD
1000
AcDbSavedByObjectVersion
1070
     0
  0
VISUALSTYLE
  5
35
102
{ACAD_REACTORS
330
2A
102
}
330
2A
100
AcDbVisualStyle
  2
Dim
 70
    11
 71
     2
 72
     2
 73
     0
 90
        0
 40
-0.6
 41
-30.0
 62
     5
 63
     7
421
 16777215
 74
     1
 91
        4
 64
     7
 65
   257
 75
     1
175
     1
 42
1.0
 92
        8
 66
     7
 43
1.0
 76
     1
 77
     6
 78
     2
 67
     7
 79
     5
170
     0
171
     0
290
     0
174
     0
 93
        1
 44
-50.0
173
     0
291
     1
 45
0.0
1001
ACAD
1000
AcDbSavedByObjectVersion
1070
     0
  0
VISUALSTYLE
  5
39
102
{ACAD_REACTORS
330
2A
102
}
330
2A
100
AcDbVisualStyle
  2
Facepattern
 70
    15
 71
     2
 72
     2
 73
     0
 90
        0
 40
-0.6
 41
-30.0
 62
     5
 63
     7
421
 16777215
 74
     1
 91
        4
 64
     7
 65
   257
 75
     1
175
     1
 42
1.0
 92
        8
 66
     7
 43
1.0
 76
     1
 77
     6
 78
     2
 67
     7
 79
     5
170
     0
171
     0
290
     0
174
     0
 93
        1
 44
0.0
173
     0
291
     1
 45
0.0
1001
ACAD
1000
AcDbSavedByObjectVersion
1070
     0
  0
VISUALSTYLE
  5
2B
102
{ACAD_REACTORS
330
2A
102
}
330
2A
100
AcDbVisualStyle
  2
Flat
 70
     0
 71
     2
 72
     1
 73
     1
 90
        2
 40
-0.6
 41
30.0
 62
     5
 63
     7
421
 16777215
 74
     0
 91
        4
 64
     7
 65
   257
 75
     1
175
     1
 42
1.0
 92
        8
 66
     7
 43
1.0
 76
     1
 77
     6
 78
     2
 67
     7
 79
     5
170
     0
171
     0
290
     0
174
     0
 93
       13
 44
0.0
173
     0
291
     1
 45
0.0
1001
ACAD
1000
AcDbSavedByObjectVersion
1070
     0
  0
VISUALSTYLE
  5
2C
102
{ACAD_REACTORS
330
2A
102
}
330
2A
100
AcDbVisualStyle
  2
FlatWithEdges
 70
     1
 71
     2
 72
     1
 73
     1
 90
        2
 40
-0.6
 41
30.0
 62
     5
 63
     7
421
 16777215
 74
     1
 91
        4
 64
     7
 65
   257
 75
     1
175
     1
 42
1.0
 92
        0
 66
   257
 43
1.0
 76
     1
 77
     6
 78
     2
 67
     7
 79
     5
170
     0
171
     0
290
     0
174
     0
 93
       13
 44
0.0
173
     0
291
     1
 45
0.0
1001
ACAD
1000
AcDbSavedByObjectVersion
1070
     0
  0
VISUALSTYLE
  5
2D
102
{ACAD_REACTORS
330
2A
102
}
330
2A
100
AcDbVisualStyle
  2
Gouraud
 70
     2
 71
     2
 72
     2
 73
     1
 90
        2
 40
-0.6
 41
30.0
 62
     5
 63
     7
421
 16777215
 74
     0
 91
        4
 64
     7
 65
   257
 75
     1
175
     1
 42
1.0
 92
        0
 66
     7
 43
1.0
 76
     1
 77
     6
 78
     2
 67
     7
 79
     5
170
     0
171
     0
290
     0
174
     0
 93
       13
 44
0.0
173
     0
291
     1
 45
0.0
1001
ACAD
1000
AcDbSavedByObjectVersion
1070
     0
  0
VISUALSTYLE
  5
2E
102
{ACAD_REACTORS
330
2A
102
}
330
2A
100
AcDbVisualStyle
  2
GouraudWithEdges
 70
     3
 71
     2
 72
     2
 73
     1
 90
        2
 40
-0.6
 41
30.0
 62
     5
 63
     7
421
 16777215
 74
     1
 91
        4
 64
     7
 65
   257
 75
     1
175
     1
 42
1.0
 92
        0
 66
   257
 43
1.0
 76
     1
 77
     6
 78
     2
 67
     7
 79
     5
170
     0
171
     0
290
     0
174
     0
 93
       13
 44
0.0
173
     0
291
     1
 45
0.0
1001
ACAD
1000
AcDbSavedByObjectVersion
1070
     0
  0
VISUALSTYLE
  5
38
102
{ACAD_REACTORS
330
2A
102
}
330
2A
100
AcDbVisualStyle
  2
Linepattern
 70
    14
 71
     2
 72
     2
 73
     0
 90
        0
 40
-0.6
 41
-30.0
 62
     5
 63
     7
421
 16777215
 74
     1
 91
        4
 64
     7
 65
   257
 75
     7
175
     7
 42
1.0
 92
        8
 66
     7
 43
1.0
 76
     1
 77
     6
 78
     2
 67
     7
 79
     5
170
     0
171
     0
290
     0
174
     0
 93
        1
 44
0.0
173
     0
291
     1
 45
0.0
1001
ACAD
1000
AcDbSavedByObjectVersion
1070
     0
  0
VISUALSTYLE
  5
33
102
{ACAD_REACTORS
330
2A
102
}
330
2A
100
AcDbVisualStyle
  2
Realistic
 70
     8
 71
     2
 72
     2
 73
     0
 90
        0
 40
-0.6
 41
-30.0
 62
     5
 63
     7
421
 16777215
 74
     1
 91
        0
 64
     7
 65
   257
 75
     1
175
     1
 42
1.0
 92
        8
 66
     8
424
  7895160
 43
1.0
 76
     1
 77
     6
 78
     2
 67
     7
 79
     5
170
     0
171
     0
290
     0
174
     0
 93
       13
 44
0.0
173
     0
291
     0
 45
0.0
1001
ACAD
1000
AcDbSavedByObjectVersion
1070
     0
  0
VISUALSTYLE
  5
37
102
{ACAD_REACTORS
330
2A
102
}
330
2A
100
AcDbVisualStyle
  2
Thicken
 70
    13
 71
     2
 72
     2
 73
     0
 90
        0
 40
-0.6
 41
-30.0
 62
     5
 63
     7
421
 16777215
 74
     1
 91
        4
 64
     7
 65
   257
 75
     1
175
     1
 42
1.0
 92
       12
 66
     7
 43
1.0
 76
     1
 77
     6
 78
     2
 67
     7
 79
     5
170
     0
171
     0
290
     0
174
     0
 93
        1
 44
0.0
173
     0
291
     1
 45
0.0
1001
ACAD
1000
AcDbSavedByObjectVersion
1070
     0
  0
DICTIONARYVAR
  5
161
102
{ACAD_REACTORS
330
160
102
}
330
160
100
DictionaryVariables
280
     0
  1
1:1
  0
XRECORD
  5
15F
102
{ACAD_REACTORS
330
15E
102
}
330
15E
100
AcDbXrecord
280
     1
1000
This DWG file was created in ArchiCAD(TM)®
  0
ENDSEC
  0
EOF
