  0
SECTION
  2
HEADER
  9
$ACADVER
  1
AC1018
  9
$ACADMAINTVER
 70
     0
  9
$DWGCODEPAGE
  3
ANSI_1252
  9
$INSBASE
 10
0.0
 20
0.0
 30
0.0
  9
$EXTMIN
 10
1.000000000000000E+20
 20
1.000000000000000E+20
 30
1.000000000000000E+20
  9
$EXTMAX
 10
-1.000000000000000E+20
 20
-1.000000000000000E+20
 30
-1.000000000000000E+20
  9
$LIMMIN
 10
0.0
 20
0.0
  9
$LIMMAX
 10
12.0
 20
9.0
  9
$ORTHOMODE
 70
     0
  9
$REGENMODE
 70
     1
  9
$FILLMODE
 70
     1
  9
$QTEXTMODE
 70
     0
  9
$MIRRTEXT
 70
     1
  9
$LTSCALE
 40
1.0
  9
$ATTMODE
 70
     1
  9
$TEXTSIZE
 40
0.2
  9
$TRACEWID
 40
0.05
  9
$TEXTSTYLE
  7
Standard
  9
$CLAYER
  8
0
  9
$CELTYPE
  6
ByLayer
  9
$CECOLOR
 62
   256
  9
$CELTSCALE
 40
1.0
  9
$DISPSILH
 70
     0
  9
$DIMSCALE
 40
1.0
  9
$DIMASZ
 40
0.18
  9
$DIMEXO
 40
0.0625
  9
$DIMDLI
 40
0.38
  9
$DIMRND
 40
0.0
  9
$DIMDLE
 40
0.0
  9
$DIMEXE
 40
0.18
  9
$DIMTP
 40
0.0
  9
$DIMTM
 40
0.0
  9
$DIMTXT
 40
0.18
  9
$DIMCEN
 40
0.09
  9
$DIMTSZ
 40
0.0
  9
$DIMTOL
 70
     0
  9
$DIMLIM
 70
     0
  9
$DIMTIH
 70
     1
  9
$DIMTOH
 70
     1
  9
$DIMSE1
 70
     0
  9
$DIMSE2
 70
     0
  9
$DIMTAD
 70
     0
  9
$DIMZIN
 70
     0
  9
$DIMBLK
  1

  9
$DIMASO
 70
     1
  9
$DIMSHO
 70
     1
  9
$DIMPOST
  1

  9
$DIMAPOST
  1

  9
$DIMALT
 70
     0
  9
$DIMALTD
 70
     2
  9
$DIMALTF
 40
25.4
  9
$DIMLFAC
 40
1.0
  9
$DIMTOFL
 70
     0
  9
$DIMTVP
 40
0.0
  9
$DIMTIX
 70
     0
  9
$DIMSOXD
 70
     0
  9
$DIMSAH
 70
     0
  9
$DIMBLK1
  1

  9
$DIMBLK2
  1

  9
$DIMSTYLE
  2
Standard
  9
$DIMCLRD
 70
     0
  9
$DIMCLRE
 70
     0
  9
$DIMCLRT
 70
     0
  9
$DIMTFAC
 40
1.0
  9
$DIMGAP
 40
0.09
  9
$DIMJUST
 70
     0
  9
$DIMSD1
 70
     0
  9
$DIMSD2
 70
     0
  9
$DIMTOLJ
 70
     1
  9
$DIMTZIN
 70
     0
  9
$DIMALTZ
 70
     0
  9
$DIMALTTZ
 70
     0
  9
$DIMUPT
 70
     0
  9
$DIMDEC
 70
     4
  9
$DIMTDEC
 70
     4
  9
$DIMALTU
 70
     2
  9
$DIMALTTD
 70
     2
  9
$DIMTXSTY
  7
Standard
  9
$DIMAUNIT
 70
     0
  9
$DIMADEC
 70
     0
  9
$DIMALTRND
 40
0.0
  9
$DIMAZIN
 70
     0
  9
$DIMDSEP
 70
    46
  9
$DIMATFIT
 70
     3
  9
$DIMFRAC
 70
     0
  9
$DIMLDRBLK
  1

  9
$DIMLUNIT
 70
     2
  9
$DIMLWD
 70
    -2
  9
$DIMLWE
 70
    -2
  9
$DIMTMOVE
 70
     0
  9
$LUNITS
 70
     2
  9
$LUPREC
 70
     4
  9
$SKETCHINC
 40
0.1
  9
$FILLETRAD
 40
0.5
  9
$AUNITS
 70
     0
  9
$AUPREC
 70
     0
  9
$MENU
  1
.
  9
$ELEVATION
 40
0.0
  9
$PELEVATION
 40
0.0
  9
$THICKNESS
 40
0.0
  9
$LIMCHECK
 70
     0
  9
$CHAMFERA
 40
0.5
  9
$CHAMFERB
 40
0.5
  9
$CHAMFERC
 40
1.0
  9
$CHAMFERD
 40
0.0
  9
$SKPOLY
 70
     0
  9
$TDCREATE
 40
2455966.592201574
  9
$TDUCREATE
 40
2455966.050534907
  9
$TDUPDATE
 40
2455966.592201585
  9
$TDUUPDATE
 40
2455966.050534919
  9
$TDINDWG
 40
0.0000000116
  9
$TDUSRTIMER
 40
0.0000000116
  9
$USRTIMER
 70
     1
  9
$ANGBASE
 50
0.0
  9
$ANGDIR
 70
     0
  9
$PDMODE
 70
     0
  9
$PDSIZE
 40
0.0
  9
$PLINEWID
 40
0.0
  9
$SPLFRAME
 70
     0
  9
$SPLINETYPE
 70
     6
  9
$SPLINESEGS
 70
     8
  9
$HANDSEED
  5
398
  9
$SURFTAB1
 70
     6
  9
$SURFTAB2
 70
     6
  9
$SURFTYPE
 70
     6
  9
$SURFU
 70
     6
  9
$SURFV
 70
     6
  9
$UCSBASE
  2

  9
$UCSNAME
  2

  9
$UCSORG
 10
0.0
 20
0.0
 30
0.0
  9
$UCSXDIR
 10
1.0
 20
0.0
 30
0.0
  9
$UCSYDIR
 10
0.0
 20
1.0
 30
0.0
  9
$UCSORTHOREF
  2

  9
$UCSORTHOVIEW
 70
     0
  9
$UCSORGTOP
 10
0.0
 20
0.0
 30
0.0
  9
$UCSORGBOTTOM
 10
0.0
 20
0.0
 30
0.0
  9
$UCSORGLEFT
 10
0.0
 20
0.0
 30
0.0
  9
$UCSORGRIGHT
 10
0.0
 20
0.0
 30
0.0
  9
$UCSORGFRONT
 10
0.0
 20
0.0
 30
0.0
  9
$UCSORGBACK
 10
0.0
 20
0.0
 30
0.0
  9
$PUCSBASE
  2

  9
$PUCSNAME
  2

  9
$PUCSORG
 10
0.0
 20
0.0
 30
0.0
  9
$PUCSXDIR
 10
1.0
 20
0.0
 30
0.0
  9
$PUCSYDIR
 10
0.0
 20
1.0
 30
0.0
  9
$PUCSORTHOREF
  2

  9
$PUCSORTHOVIEW
 70
     0
  9
$PUCSORGTOP
 10
0.0
 20
0.0
 30
0.0
  9
$PUCSORGBOTTOM
 10
0.0
 20
0.0
 30
0.0
  9
$PUCSORGLEFT
 10
0.0
 20
0.0
 30
0.0
  9
$PUCSORGRIGHT
 10
0.0
 20
0.0
 30
0.0
  9
$PUCSORGFRONT
 10
0.0
 20
0.0
 30
0.0
  9
$PUCSORGBACK
 10
0.0
 20
0.0
 30
0.0
  9
$USERI1
 70
     0
  9
$USERI2
 70
     0
  9
$USERI3
 70
     0
  9
$USERI4
 70
     0
  9
$USERI5
 70
     0
  9
$USERR1
 40
0.0
  9
$USERR2
 40
0.0
  9
$USERR3
 40
0.0
  9
$USERR4
 40
0.0
  9
$USERR5
 40
0.0
  9
$WORLDVIEW
 70
     1
  9
$SHADEDGE
 70
     3
  9
$SHADEDIF
 70
    70
  9
$TILEMODE
 70
     1
  9
$MAXACTVP
 70
    64
  9
$PINSBASE
 10
0.0
 20
0.0
 30
0.0
  9
$PLIMCHECK
 70
     0
  9
$PEXTMIN
 10
1.000000000000000E+20
 20
1.000000000000000E+20
 30
1.000000000000000E+20
  9
$PEXTMAX
 10
-1.000000000000000E+20
 20
-1.000000000000000E+20
 30
-1.000000000000000E+20
  9
$PLIMMIN
 10
0.0
 20
0.0
  9
$PLIMMAX
 10
12.0
 20
9.0
  9
$UNITMODE
 70
     0
  9
$VISRETAIN
 70
     1
  9
$PLINEGEN
 70
     0
  9
$PSLTSCALE
 70
     1
  9
$TREEDEPTH
 70
  3020
  9
$CMLSTYLE
  2
Standard
  9
$CMLJUST
 70
     0
  9
$CMLSCALE
 40
1.0
  9
$PROXYGRAPHICS
 70
     1
  9
$MEASUREMENT
 70
     0
  9
$CELWEIGHT
370
    -1
  9
$ENDCAPS
280
     0
  9
$JOINSTYLE
280
     0
  9
$LWDISPLAY
290
     1
  9
$INSUNITS
 70
     0
  9
$HYPERLINKBASE
  1

  9
$STYLESHEET
  1

  9
$XEDIT
290
     1
  9
$CEPSNTYPE
380
     0
  9
$PSTYLEMODE
290
     1
  9
$FINGERPRINTGUID
  2
{39648476-D8CF-4DF0-BDE2-7563F7197B4A}
  9
$VERSIONGUID
  2
{FAEB1C32-E019-11D5-929B-00C0DF256EC4}
  9
$EXTNAMES
290
     1
  9
$PSVPSCALE
 40
0.0
  9
$OLESTARTUP
290
     0
  9
$SORTENTS
280
   127
  9
$INDEXCTL
280
     0
  9
$HIDETEXT
280
     1
  9
$XCLIPFRAME
290
     0
  9
$HALOGAP
280
     0
  9
$OBSCOLOR
 70
   257
  9
$OBSLTYPE
280
     0
  9
$INTERSECTIONDISPLAY
280
     0
  9
$INTERSECTIONCOLOR
 70
   257
  9
$DIMASSOC
280
     2
  9
$PROJECTNAME
  1

  0
ENDSEC
  0
SECTION
  2
CLASSES
  0
CLASS
  1
ACDBDICTIONARYWDFLT
  2
AcDbDictionaryWithDefault
  3
ObjectDBX Classes
 90
        0
 91
        4
280
     0
281
     0
  0
CLASS
  1
VISUALSTYLE
  2
AcDbVisualStyle
  3
ObjectDBX Classes
 90
     4095
 91
        4
280
     0
281
     0
  0
CLASS
  1
WIPEOUT
  2
AcDbWipeout
  3
WipeOut|AutoCAD Express Tool|expresstools@autodesk.com
 90
      127
 91
        4
280
     0
281
     1
  0
CLASS
  1
SCALE
  2
AcDbScale
  3
ObjectDBX Classes
 90
     1153
 91
        4
280
     0
281
     0
  0
CLASS
  1
DICTIONARYVAR
  2
AcDbDictionaryVar
  3
ObjectDBX Classes
 90
        0
 91
        4
280
     0
281
     0
  0
ENDSEC
  0
SECTION
  2
TABLES
  0
TABLE
  2
VPORT
  5
8
330
0
100
AcDbSymbolTable
 70
     1
  0
VPORT
  5
29
330
8
100
AcDbSymbolTableRecord
100
AcDbViewportTableRecord
  2
*Active
 70
     0
 10
0.0
 20
0.0
 11
1.0
 21
1.0
 12
150.0858604592555
 22
-161.9120672088161
 13
0.0
 23
0.0
 14
0.5
 24
0.5
 15
0.5
 25
0.5
 16
0.0
 26
0.0
 36
1.0
 17
0.0
 27
0.0
 37
0.0
 40
4738.791646926321
 41
1.680113871571986
 42
50.0
 43
0.0
 44
0.0
 50
0.0
 51
0.0
 71
     0
 72
   100
 73
     1
 74
     3
 75
     0
 76
     0
 77
     0
 78
     0
281
     0
 65
     1
110
0.0
120
0.0
130
0.0
111
1.0
121
0.0
131
0.0
112
0.0
122
1.0
132
0.0
 79
     0
146
0.0
  0
ENDTAB
  0
TABLE
  2
LTYPE
  5
5
330
0
100
AcDbSymbolTable
 70
     3
  0
LTYPE
  5
14
330
5
100
AcDbSymbolTableRecord
100
AcDbLinetypeTableRecord
  2
ByBlock
 70
     0
  3

 72
    65
 73
     0
 40
0.0
  0
LTYPE
  5
15
330
5
100
AcDbSymbolTableRecord
100
AcDbLinetypeTableRecord
  2
ByLayer
 70
     0
  3

 72
    65
 73
     0
 40
0.0
  0
LTYPE
  5
16
330
5
100
AcDbSymbolTableRecord
100
AcDbLinetypeTableRecord
  2
Continuous
 70
     0
  3
Solid line
 72
    65
 73
     0
 40
0.0
  0
LTYPE
  5
3C
330
5
100
AcDbSymbolTableRecord
100
AcDbLinetypeTableRecord
  2
Wipeout_Contour
 70
     0
  3
- - - - - 
 72
    65
 73
     2
 40
1000.0
 49
0.0
 74
     0
 49
-1000.0
 74
     0
  0
LTYPE
  5
142
330
5
100
AcDbSymbolTableRecord
100
AcDbLinetypeTableRecord
  2
DASHED2
 70
     0
  3
- - - - - 
 72
    65
 73
     2
 40
47.625
 49
31.75
 74
     0
 49
-15.875
 74
     0
  0
ENDTAB
  0
TABLE
  2
LAYER
  5
2
330
0
100
AcDbSymbolTable
 70
    11
  0
LAYER
  5
10
330
2
100
AcDbSymbolTableRecord
100
AcDbLayerTableRecord
  2
0
 70
     0
 62
     7
  6
Continuous
370
    -3
390
F
  0
LAYER
  5
3D
330
2
100
AcDbSymbolTableRecord
100
AcDbLayerTableRecord
  2
0_Pen_No__7
 70
     0
 62
     7
  6
Continuous
370
    18
390
F
  0
LAYER
  5
BC
330
2
100
AcDbSymbolTableRecord
100
AcDbLayerTableRecord
  2
chh-09_Pen_No__9_Pen_No__2
 70
     0
 62
     8
420
  8355711
  6
Continuous
370
    15
390
F
  0
LAYER
  5
144
330
2
100
AcDbSymbolTableRecord
100
AcDbLayerTableRecord
  2
0_Pen_No__81
 70
     0
 62
   251
420
  6974058
  6
Continuous
370
    20
390
F
  0
LAYER
  5
26D
330
2
100
AcDbSymbolTableRecord
100
AcDbLayerTableRecord
  2
chh-09_Pen_No__9_Pen_No__1
 70
     0
 62
     7
  6
Continuous
370
    13
390
F
  0
LAYER
  5
26F
330
2
100
AcDbSymbolTableRecord
100
AcDbLayerTableRecord
  2
chh-06_Pen_No__7_Pen_No__1
 70
     0
 62
     7
  6
Continuous
370
    13
390
F
  0
LAYER
  5
303
330
2
100
AcDbSymbolTableRecord
100
AcDbLayerTableRecord
  2
chh-08_Pen_No__8_Pen_No__81
 70
     0
 62
   251
420
  6974058
  6
Continuous
370
    20
390
F
  0
LAYER
  5
309
330
2
100
AcDbSymbolTableRecord
100
AcDbLayerTableRecord
  2
0_Pen_No__1
 70
     0
 62
     7
  6
Continuous
370
    13
390
F
  0
LAYER
  5
383
330
2
100
AcDbSymbolTableRecord
100
AcDbLayerTableRecord
  2
Defpoints_Pen_No__211_Pen_No__115
 70
     0
 62
   211
420
 16738047
  6
Continuous
370
    13
390
F
  0
LAYER
  5
386
330
2
100
AcDbSymbolTableRecord
100
AcDbLayerTableRecord
  2
chh-txt_Pen_No__7_Pen_No__7
 70
     0
 62
     7
  6
Continuous
370
    18
390
F
  0
LAYER
  5
388
330
2
100
AcDbSymbolTableRecord
100
AcDbLayerTableRecord
  2
chh-06_Pen_No__7_Pen_No__7
 70
     0
 62
     7
  6
Continuous
370
    18
390
F
  0
ENDTAB
  0
TABLE
  2
STYLE
  5
3
330
0
100
AcDbSymbolTable
 70
     3
  0
STYLE
  5
11
330
3
100
AcDbSymbolTableRecord
100
AcDbTextStyleTableRecord
  2
Standard
 70
     0
 40
0.0
 41
1.0
 50
0.0
 71
     0
 42
0.2
  3
txt
  4
BIGFONT.SHX
  0
STYLE
  5
30F
330
3
100
AcDbSymbolTableRecord
100
AcDbTextStyleTableRecord
  2
GENERATED_STYLE_1
 70
     0
 40
0.0
 41
1.0
 50
0.0
 71
     0
 42
0.2
  3

  4

1001
ACAD
1000
Arial Unicode MS
1071
       34
  0
STYLE
  5
384
330
3
100
AcDbSymbolTableRecord
100
AcDbTextStyleTableRecord
  2
GENERATED_STYLE_2
 70
     0
 40
0.0
 41
1.0
 50
0.0
 71
     0
 42
0.2
  3

  4

1001
ACAD
1000
Arial
1071
       34
  0
ENDTAB
  0
TABLE
  2
VIEW
  5
6
330
0
100
AcDbSymbolTable
 70
     0
  0
ENDTAB
  0
TABLE
  2
UCS
  5
7
330
0
100
AcDbSymbolTable
 70
     0
  0
ENDTAB
  0
TABLE
  2
APPID
  5
9
330
0
100
AcDbSymbolTable
 70
     1
  0
APPID
  5
12
330
9
100
AcDbSymbolTableRecord
100
AcDbRegAppTableRecord
  2
ACAD
 70
     0
  0
ENDTAB
  0
TABLE
  2
DIMSTYLE
  5
A
330
0
100
AcDbSymbolTable
 70
     3
100
AcDbDimStyleTable
  0
DIMSTYLE
105
27
330
A
100
AcDbSymbolTableRecord
100
AcDbDimStyleTableRecord
  2
Standard
 70
     0
340
11
  0
DIMSTYLE
105
334
102
{ACAD_REACTORS
330
333
330
344
330
34F
330
35A
102
}
330
A
100
AcDbSymbolTableRecord
100
AcDbDimStyleTableRecord
  2
GENERATED_STYLE__1
 70
     0
 41
26.74805191657993
 42
1.8
 77
     1
140
50.0
172
     1
176
     7
177
     7
178
     7
271
     0
340
30F
342
335
343
335
344
335
  0
DIMSTYLE
105
367
102
{ACAD_REACTORS
330
366
330
372
330
37D
102
}
330
A
100
AcDbSymbolTableRecord
100
AcDbDimStyleTableRecord
  2
GENERATED_STYLE__2
 70
     0
 41
26.74805191657993
 42
1.8
 73
     0
 74
     0
 77
     1
140
50.0
172
     1
176
     7
177
     7
178
     7
271
     0
340
30F
342
335
343
335
344
335
  0
ENDTAB
  0
TABLE
  2
BLOCK_RECORD
  5
1
330
0
100
AcDbSymbolTable
 70
    10
  0
BLOCK_RECORD
  5
1F
330
1
100
AcDbSymbolTableRecord
100
AcDbBlockTableRecord
  2
*Model_Space
340
22
  0
BLOCK_RECORD
  5
1B
330
1
100
AcDbSymbolTableRecord
100
AcDbBlockTableRecord
  2
*Paper_Space
340
1E
  0
BLOCK_RECORD
  5
23
330
1
100
AcDbSymbolTableRecord
100
AcDbBlockTableRecord
  2
*Paper_Space0
340
26
  0
BLOCK_RECORD
  5
305
330
1
100
AcDbSymbolTableRecord
100
AcDbBlockTableRecord
  2
*D1
340
0
  0
BLOCK_RECORD
  5
335
330
1
100
AcDbSymbolTableRecord
100
AcDbBlockTableRecord
  2
ARROWHEAD_2
340
0
  0
BLOCK_RECORD
  5
33A
330
1
100
AcDbSymbolTableRecord
100
AcDbBlockTableRecord
  2
*D3
340
0
  0
BLOCK_RECORD
  5
345
330
1
100
AcDbSymbolTableRecord
100
AcDbBlockTableRecord
  2
*D4
340
0
  0
BLOCK_RECORD
  5
350
330
1
100
AcDbSymbolTableRecord
100
AcDbBlockTableRecord
  2
*D5
340
0
  0
BLOCK_RECORD
  5
35B
330
1
100
AcDbSymbolTableRecord
100
AcDbBlockTableRecord
  2
*D6
340
0
  0
BLOCK_RECORD
  5
368
330
1
100
AcDbSymbolTableRecord
100
AcDbBlockTableRecord
  2
*D7
340
0
  0
BLOCK_RECORD
  5
373
330
1
100
AcDbSymbolTableRecord
100
AcDbBlockTableRecord
  2
*D8
340
0
  0
BLOCK_RECORD
  5
38F
330
1
100
AcDbSymbolTableRecord
100
AcDbBlockTableRecord
  2
Untitled _STORY_MARKER
340
0
  0
ENDTAB
  0
ENDSEC
  0
SECTION
  2
BLOCKS
  0
BLOCK
  5
20
330
1F
100
AcDbEntity
  8
0
100
AcDbBlockBegin
  2
*Model_Space
 70
     0
 10
0.0
 20
0.0
 30
0.0
  3
*Model_Space
  1

  0
ENDBLK
  5
21
330
1F
100
AcDbEntity
  8
0
100
AcDbBlockEnd
  0
BLOCK
  5
1C
330
1B
100
AcDbEntity
 67
     1
  8
0
100
AcDbBlockBegin
  2
*Paper_Space
 70
     0
 10
0.0
 20
0.0
 30
0.0
  3
*Paper_Space
  1

  0
ENDBLK
  5
1D
330
1B
100
AcDbEntity
 67
     1
  8
0
100
AcDbBlockEnd
  0
BLOCK
  5
24
330
23
100
AcDbEntity
  8
0
100
AcDbBlockBegin
  2
*Paper_Space0
 70
     0
 10
0.0
 20
0.0
 30
0.0
  3
*Paper_Space0
  1

  0
ENDBLK
  5
25
330
23
100
AcDbEntity
  8
0
100
AcDbBlockEnd
  0
BLOCK
  5
306
330
305
100
AcDbEntity
  8
0
100
AcDbBlockBegin
  2
*D1
 70
     1
 10
0.0
 20
0.0
 30
0.0
  3
*D1
  1

  0
LINE
  5
308
330
305
100
AcDbEntity
  8
0_Pen_No__1
  6
Continuous
100
AcDbLine
 10
-3131.292246023282
 20
1890.124532164723
 30
0.0
 11
-3114.081986303272
 21
1890.124532164723
 31
0.0
  0
LINE
  5
30A
330
305
100
AcDbEntity
  8
0_Pen_No__1
  6
Continuous
100
AcDbLine
 10
-3114.081986303272
 20
1890.124532164723
 30
0.0
 11
-2514.081986303273
 21
1890.124532164723
 31
0.0
  0
LINE
  5
30B
330
305
100
AcDbEntity
  8
0_Pen_No__7
  6
Continuous
100
AcDbLine
 10
-3103.922125925616
 20
1907.72193474142
 30
0.0
 11
-3124.241846680928
 21
1872.527129588026
 31
0.0
  0
LINE
  5
30C
330
305
100
AcDbEntity
  8
0_Pen_No__1
  6
Continuous
100
AcDbLine
 10
-3114.081986303272
 20
1623.066667124856
 30
0.0
 11
-3114.081986303272
 21
1916.520636029769
 31
0.0
  0
LINE
  5
30D
330
305
100
AcDbEntity
  8
0_Pen_No__1
  6
Continuous
100
AcDbLine
 10
-2514.081986303273
 20
1623.066667124856
 30
0.0
 11
-2514.081986303273
 21
1916.520636029769
 31
0.0
  0
LINE
  5
30E
330
305
100
AcDbEntity
  8
0_Pen_No__7
  6
Continuous
100
AcDbLine
 10
-2503.922125925616
 20
1907.72193474142
 30
0.0
 11
-2524.241846680929
 21
1872.527129588026
 31
0.0
  0
MTEXT
  5
310
330
305
100
AcDbEntity
  8
0_Pen_No__7
100
AcDbMText
 10
-2872.67023479456
 20
1950.124532164723
 30
0.0
 40
50.0
 41
0.0
 71
     1
 72
     1
  1
{600}
  7
GENERATED_STYLE_1
 73
     1
 44
1.0
  0
ENDBLK
  5
307
330
305
100
AcDbEntity
  8
0
100
AcDbBlockEnd
  0
BLOCK
  5
336
330
335
100
AcDbEntity
  8
0
100
AcDbBlockBegin
  2
ARROWHEAD_2
 70
     0
 10
0.0
 20
0.0
 30
0.0
  3
ARROWHEAD_2
  1

  0
LINE
  5
338
330
335
100
AcDbEntity
  8
0
  6
Continuous
 62
     0
370
     0
100
AcDbLine
 10
-0.3781315
 20
-0.655
 30
0.0
 11
0.3781315
 21
0.655
 31
0.0
  0
LINE
  5
339
330
335
100
AcDbEntity
  8
0
  6
Continuous
 62
     0
370
     0
100
AcDbLine
 10
0.0
 20
0.0
 30
0.0
 11
-1.0
 21
0.0
 31
0.0
  0
ENDBLK
  5
337
330
335
100
AcDbEntity
  8
0
100
AcDbBlockEnd
  0
BLOCK
  5
33B
330
33A
100
AcDbEntity
  8
0
100
AcDbBlockBegin
  2
*D3
 70
     1
 10
0.0
 20
0.0
 30
0.0
  3
*D3
  1

  0
LINE
  5
33D
330
33A
100
AcDbEntity
  8
0_Pen_No__1
  6
Continuous
100
AcDbLine
 10
-2514.081986303273
 20
1623.066667124856
 30
0.0
 11
-2514.081986303273
 21
1916.520636029769
 31
0.0
  0
LINE
  5
33E
330
33A
100
AcDbEntity
  8
0_Pen_No__1
  6
Continuous
100
AcDbLine
 10
-2514.081986303273
 20
1890.124532164723
 30
0.0
 11
-1914.081986303271
 21
1890.124532164723
 31
0.0
  0
LINE
  5
33F
330
33A
100
AcDbEntity
  8
0_Pen_No__7
  6
Continuous
100
AcDbLine
 10
-2503.922125925616
 20
1907.72193474142
 30
0.0
 11
-2524.241846680929
 21
1872.527129588026
 31
0.0
  0
LINE
  5
340
330
33A
100
AcDbEntity
  8
0_Pen_No__7
  6
Continuous
100
AcDbLine
 10
-1924.241846680927
 20
1872.527129588026
 30
0.0
 11
-1903.922125925615
 21
1907.72193474142
 31
0.0
  0
LINE
  5
341
330
33A
100
AcDbEntity
  8
0_Pen_No__1
  6
Continuous
100
AcDbLine
 10
-1914.081986303271
 20
1890.124532164723
 30
0.0
 11
-1896.871726583261
 21
1890.124532164723
 31
0.0
  0
LINE
  5
342
330
33A
100
AcDbEntity
  8
0_Pen_No__1
  6
Continuous
100
AcDbLine
 10
-1914.081986303271
 20
1623.066667124856
 30
0.0
 11
-1914.081986303271
 21
1916.520636029769
 31
0.0
  0
MTEXT
  5
343
330
33A
100
AcDbEntity
  8
0_Pen_No__7
100
AcDbMText
 10
-2272.670234794559
 20
1950.124532164723
 30
0.0
 40
50.0
 41
0.0
 71
     1
 72
     1
  1
{600}
  7
GENERATED_STYLE_1
 73
     1
 44
1.0
  0
ENDBLK
  5
33C
330
33A
100
AcDbEntity
  8
0
100
AcDbBlockEnd
  0
BLOCK
  5
346
330
345
100
AcDbEntity
  8
0
100
AcDbBlockBegin
  2
*D4
 70
     1
 10
0.0
 20
0.0
 30
0.0
  3
*D4
  1

  0
LINE
  5
348
330
345
100
AcDbEntity
  8
0_Pen_No__1
  6
Continuous
100
AcDbLine
 10
-1931.292246023281
 20
1890.124532164723
 30
0.0
 11
-1914.081986303271
 21
1890.124532164723
 31
0.0
  0
LINE
  5
349
330
345
100
AcDbEntity
  8
0_Pen_No__1
  6
Continuous
100
AcDbLine
 10
-1914.081986303271
 20
1890.124532164723
 30
0.0
 11
-1314.081986303271
 21
1890.124532164723
 31
0.0
  0
LINE
  5
34A
330
345
100
AcDbEntity
  8
0_Pen_No__7
  6
Continuous
100
AcDbLine
 10
-1903.922125925615
 20
1907.72193474142
 30
0.0
 11
-1924.241846680927
 21
1872.527129588026
 31
0.0
  0
LINE
  5
34B
330
345
100
AcDbEntity
  8
0_Pen_No__1
  6
Continuous
100
AcDbLine
 10
-1914.081986303271
 20
1623.066667124856
 30
0.0
 11
-1914.081986303271
 21
1916.520636029769
 31
0.0
  0
LINE
  5
34C
330
345
100
AcDbEntity
  8
0_Pen_No__1
  6
Continuous
100
AcDbLine
 10
-1314.081986303271
 20
1623.066667124856
 30
0.0
 11
-1314.081986303271
 21
1916.520636029769
 31
0.0
  0
LINE
  5
34D
330
345
100
AcDbEntity
  8
0_Pen_No__7
  6
Continuous
100
AcDbLine
 10
-1303.922125925615
 20
1907.72193474142
 30
0.0
 11
-1324.241846680928
 21
1872.527129588026
 31
0.0
  0
MTEXT
  5
34E
330
345
100
AcDbEntity
  8
0_Pen_No__7
100
AcDbMText
 10
-1672.670234794558
 20
1950.124532164723
 30
0.0
 40
50.0
 41
0.0
 71
     1
 72
     1
  1
{600}
  7
GENERATED_STYLE_1
 73
     1
 44
1.0
  0
ENDBLK
  5
347
330
345
100
AcDbEntity
  8
0
100
AcDbBlockEnd
  0
BLOCK
  5
351
330
350
100
AcDbEntity
  8
0
100
AcDbBlockBegin
  2
*D5
 70
     1
 10
0.0
 20
0.0
 30
0.0
  3
*D5
  1

  0
LINE
  5
353
330
350
100
AcDbEntity
  8
0_Pen_No__1
  6
Continuous
100
AcDbLine
 10
-1314.081986303271
 20
1623.066667124856
 30
0.0
 11
-1314.081986303271
 21
1916.520636029769
 31
0.0
  0
LINE
  5
354
330
350
100
AcDbEntity
  8
0_Pen_No__1
  6
Continuous
100
AcDbLine
 10
-1314.081986303271
 20
1890.124532164723
 30
0.0
 11
-714.0819863032716
 21
1890.124532164723
 31
0.0
  0
LINE
  5
355
330
350
100
AcDbEntity
  8
0_Pen_No__7
  6
Continuous
100
AcDbLine
 10
-1303.922125925615
 20
1907.72193474142
 30
0.0
 11
-1324.241846680928
 21
1872.527129588026
 31
0.0
  0
LINE
  5
356
330
350
100
AcDbEntity
  8
0_Pen_No__7
  6
Continuous
100
AcDbLine
 10
-724.2418466809278
 20
1872.527129588026
 30
0.0
 11
-703.9221259256154
 21
1907.72193474142
 31
0.0
  0
LINE
  5
357
330
350
100
AcDbEntity
  8
0_Pen_No__1
  6
Continuous
100
AcDbLine
 10
-714.0819863032716
 20
1890.124532164723
 30
0.0
 11
-696.8717265832615
 21
1890.124532164723
 31
0.0
  0
LINE
  5
358
330
350
100
AcDbEntity
  8
0_Pen_No__1
  6
Continuous
100
AcDbLine
 10
-714.0819863032716
 20
1623.066667124856
 30
0.0
 11
-714.0819863032716
 21
1916.520636029769
 31
0.0
  0
MTEXT
  5
359
330
350
100
AcDbEntity
  8
0_Pen_No__7
100
AcDbMText
 10
-1072.670234794559
 20
1950.124532164723
 30
0.0
 40
50.0
 41
0.0
 71
     1
 72
     1
  1
{600}
  7
GENERATED_STYLE_1
 73
     1
 44
1.0
  0
ENDBLK
  5
352
330
350
100
AcDbEntity
  8
0
100
AcDbBlockEnd
  0
BLOCK
  5
35C
330
35B
100
AcDbEntity
  8
0
100
AcDbBlockBegin
  2
*D6
 70
     1
 10
0.0
 20
0.0
 30
0.0
  3
*D6
  1

  0
LINE
  5
35E
330
35B
100
AcDbEntity
  8
0_Pen_No__1
  6
Continuous
100
AcDbLine
 10
-3483.229823505976
 20
532.056407404846
 30
0.0
 11
-3483.229823505976
 21
549.2666671248561
 31
0.0
  0
LINE
  5
35F
330
35B
100
AcDbEntity
  8
0_Pen_No__1
  6
Continuous
100
AcDbLine
 10
-3483.229823505976
 20
549.2666671248561
 30
0.0
 11
-3483.229823505976
 21
1274.266667124856
 31
0.0
  0
LINE
  5
360
330
35B
100
AcDbEntity
  8
0_Pen_No__7
  6
Continuous
100
AcDbLine
 10
-3500.827226082672
 20
559.4265275025122
 30
0.0
 11
-3465.632420929278
 21
539.1068067471999
 31
0.0
  0
LINE
  5
361
330
35B
100
AcDbEntity
  8
0_Pen_No__7
  6
Continuous
100
AcDbLine
 10
-3465.632420929278
 20
1264.106806747199
 30
0.0
 11
-3500.827226082672
 21
1284.426527502512
 31
0.0
  0
LINE
  5
362
330
35B
100
AcDbEntity
  8
0_Pen_No__1
  6
Continuous
100
AcDbLine
 10
-3483.229823505976
 20
1274.266667124856
 30
0.0
 11
-3483.229823505976
 21
1291.476926844866
 31
0.0
  0
LINE
  5
363
330
35B
100
AcDbEntity
  8
0_Pen_No__1
  6
Continuous
100
AcDbLine
 10
-3244.467819673938
 20
549.2666671248561
 30
0.0
 11
-3509.625927371022
 21
549.2666671248561
 31
0.0
  0
LINE
  5
364
330
35B
100
AcDbEntity
  8
0_Pen_No__1
  6
Continuous
100
AcDbLine
 10
-3244.467819673938
 20
1274.266667124856
 30
0.0
 11
-3509.625927371022
 21
1274.266667124856
 31
0.0
  0
MTEXT
  5
365
330
35B
100
AcDbEntity
  8
0_Pen_No__7
100
AcDbMText
 10
-3543.229823505975
 20
853.1784186335686
 30
0.0
 40
50.0
 41
0.0
 71
     1
 72
     1
  1
{800}
  7
GENERATED_STYLE_1
 11
6.123233995736766E-17
 21
1.0
 31
0.0
 73
     1
 44
1.0
  0
ENDBLK
  5
35D
330
35B
100
AcDbEntity
  8
0
100
AcDbBlockEnd
  0
BLOCK
  5
369
330
368
100
AcDbEntity
  8
0
100
AcDbBlockBegin
  2
*D7
 70
     1
 10
0.0
 20
0.0
 30
0.0
  3
*D7
  1

  0
LINE
  5
36B
330
368
100
AcDbEntity
  8
0_Pen_No__1
  6
Continuous
100
AcDbLine
 10
-3483.229823505976
 20
-967.943592595154
 30
0.0
 11
-3483.229823505976
 21
-950.7333328751439
 31
0.0
  0
LINE
  5
36C
330
368
100
AcDbEntity
  8
0_Pen_No__1
  6
Continuous
100
AcDbLine
 10
-3483.229823505976
 20
-950.7333328751439
 30
0.0
 11
-3483.229823505976
 21
-175.7333328751445
 31
0.0
  0
LINE
  5
36D
330
368
100
AcDbEntity
  8
0_Pen_No__7
  6
Continuous
100
AcDbLine
 10
-3500.827226082672
 20
-940.5734724974878
 30
0.0
 11
-3465.632420929278
 21
-960.8931932528001
 31
0.0
  0
LINE
  5
36E
330
368
100
AcDbEntity
  8
0_Pen_No__1
  6
Continuous
100
AcDbLine
 10
-3244.467819673938
 20
-950.7333328751439
 30
0.0
 11
-3509.625927371022
 21
-950.7333328751439
 31
0.0
  0
LINE
  5
36F
330
368
100
AcDbEntity
  8
0_Pen_No__1
  6
Continuous
100
AcDbLine
 10
-3244.467819673938
 20
-175.7333328751445
 30
0.0
 11
-3509.625927371022
 21
-175.7333328751445
 31
0.0
  0
LINE
  5
370
330
368
100
AcDbEntity
  8
0_Pen_No__7
  6
Continuous
100
AcDbLine
 10
-3500.827226082672
 20
-165.5734724974883
 30
0.0
 11
-3465.632420929278
 21
-185.8931932528007
 31
0.0
  0
MTEXT
  5
371
330
368
100
AcDbEntity
  8
0_Pen_No__7
100
AcDbMText
 10
-3543.229823505975
 20
-621.8215813664314
 30
0.0
 40
50.0
 41
0.0
 71
     1
 72
     1
  1
{800}
  7
GENERATED_STYLE_1
 11
6.123233995736766E-17
 21
1.0
 31
0.0
 73
     1
 44
1.0
  0
ENDBLK
  5
36A
330
368
100
AcDbEntity
  8
0
100
AcDbBlockEnd
  0
BLOCK
  5
374
330
373
100
AcDbEntity
  8
0
100
AcDbBlockBegin
  2
*D8
 70
     1
 10
0.0
 20
0.0
 30
0.0
  3
*D8
  1

  0
LINE
  5
376
330
373
100
AcDbEntity
  8
0_Pen_No__1
  6
Continuous
100
AcDbLine
 10
-3244.467819673938
 20
-175.7333328751445
 30
0.0
 11
-3509.625927371022
 21
-175.7333328751445
 31
0.0
  0
LINE
  5
377
330
373
100
AcDbEntity
  8
0_Pen_No__1
  6
Continuous
100
AcDbLine
 10
-3483.229823505976
 20
-175.7333328751445
 30
0.0
 11
-3483.229823505976
 21
549.2666671248561
 31
0.0
  0
LINE
  5
378
330
373
100
AcDbEntity
  8
0_Pen_No__7
  6
Continuous
100
AcDbLine
 10
-3500.827226082672
 20
-165.5734724974883
 30
0.0
 11
-3465.632420929278
 21
-185.8931932528007
 31
0.0
  0
LINE
  5
379
330
373
100
AcDbEntity
  8
0_Pen_No__7
  6
Continuous
100
AcDbLine
 10
-3465.632420929278
 20
539.1068067471999
 30
0.0
 11
-3500.827226082672
 21
559.4265275025122
 31
0.0
  0
LINE
  5
37A
330
373
100
AcDbEntity
  8
0_Pen_No__1
  6
Continuous
100
AcDbLine
 10
-3483.229823505976
 20
549.2666671248561
 30
0.0
 11
-3483.229823505976
 21
566.4769268448661
 31
0.0
  0
LINE
  5
37B
330
373
100
AcDbEntity
  8
0_Pen_No__1
  6
Continuous
100
AcDbLine
 10
-3244.467819673938
 20
549.2666671248561
 30
0.0
 11
-3509.625927371022
 21
549.2666671248561
 31
0.0
  0
MTEXT
  5
37C
330
373
100
AcDbEntity
  8
0_Pen_No__7
100
AcDbMText
 10
-3543.229823505975
 20
128.1784186335686
 30
0.0
 40
50.0
 41
0.0
 71
     1
 72
     1
  1
{800}
  7
GENERATED_STYLE_1
 11
6.123233995736766E-17
 21
1.0
 31
0.0
 73
     1
 44
1.0
  0
ENDBLK
  5
375
330
373
100
AcDbEntity
  8
0
100
AcDbBlockEnd
  0
BLOCK
  5
390
330
38F
100
AcDbEntity
  8
0
100
AcDbBlockBegin
  2
Untitled _STORY_MARKER
 70
     0
 10
0.0
 20
0.0
 30
0.0
  3
Untitled _STORY_MARKER
  1

  0
ENDBLK
  5
391
330
38F
100
AcDbEntity
  8
0
100
AcDbBlockEnd
  0
ENDSEC
  0
SECTION
  2
ENTITIES
  0
WIPEOUT
  5
3B
330
1F
100
AcDbEntity
  8
0
  6
Wipeout_Contour
 62
   254
 48
13275.31250409406
370
     0
 92
      296
310
28010000060000000C0000000E000000120000000C00000016000000000000C20C00000014000000010000006C00000007000000040000008AD61BFA2981A8C09C5EA0DDDD7D8EC000000000000000008AD61BFA2927A8C09C5EA0DDDD7D8EC000000000000000008AD61BFA2927A8C0AED02F11114D944000000000000000
310
008AD61BFA2981A8C0AED02F11114D944000000000000000000C0000000E000000FE0000008400000006000000050000008AD61BFA2981A8C09C5EA0DDDD7D8EC000000000000000008AD61BFA2927A8C09C5EA0DDDD7D8EC000000000000000008AD61BFA2927A8C0AED02F11114D944000000000000000008AD61BFA2981
310
A8C0AED02F11114D944000000000000000008AD61BFA2981A8C09C5EA0DDDD7D8EC00000000000000000
100
AcDbWipeout
 90
        0
 10
-3136.581986303271
 20
-975.7333328751442
 30
0.0
 11
45.0
 21
0.0
 31
0.0
 12
0.0
 22
2274.999999999999
 32
0.0
 13
1.0
 23
1.0
340
0
 70
    15
280
     1
281
    50
282
    50
283
     0
360
0
 71
     2
 91
        5
 14
-0.5
 24
0.5
 14
0.5
 24
0.5
 14
0.5
 24
-0.5
 14
-0.5
 24
-0.5
 14
-0.5
 24
0.5
  0
LWPOLYLINE
  5
3E
330
1F
100
AcDbEntity
  8
0_Pen_No__7
  6
Continuous
100
AcDbPolyline
 90
        4
 70
   129
 43
0.0
 10
-3136.581986303271
 20
-975.7333328751442
 10
-3091.581986303271
 20
-975.7333328751442
 10
-3091.581986303271
 20
1299.266667124855
 10
-3136.581986303271
 20
1299.266667124855
  0
WIPEOUT
  5
3F
330
1F
100
AcDbEntity
  8
0
  6
Wipeout_Contour
 62
   254
 48
11053.61219726322
370
     0
 92
      296
310
28010000060000000C0000000E000000120000000C00000016000000000000C20C00000014000000010000006C00000007000000040000008BD61BFA29D1A3C09C5EA0DDDD7D8EC000000000000000008BD61BFA2977A3C09C5EA0DDDD7D8EC000000000000000008BD61BFA2977A3C0AED02F11114D944000000000000000
310
008BD61BFA29D1A3C0AED02F11114D944000000000000000000C0000000E000000FE0000008400000006000000050000008BD61BFA29D1A3C09C5EA0DDDD7D8EC000000000000000008BD61BFA2977A3C09C5EA0DDDD7D8EC000000000000000008BD61BFA2977A3C0AED02F11114D944000000000000000008BD61BFA29D1
310
A3C0AED02F11114D944000000000000000008BD61BFA29D1A3C09C5EA0DDDD7D8EC00000000000000000
100
AcDbWipeout
 90
        0
 10
-2536.581986303272
 20
-975.7333328751442
 30
0.0
 11
45.0
 21
0.0
 31
0.0
 12
0.0
 22
2274.999999999999
 32
0.0
 13
1.0
 23
1.0
340
0
 70
    15
280
     1
281
    50
282
    50
283
     0
360
0
 71
     2
 91
        5
 14
-0.5
 24
0.5
 14
0.5
 24
0.5
 14
0.5
 24
-0.5
 14
-0.5
 24
-0.5
 14
-0.5
 24
0.5
  0
LWPOLYLINE
  5
40
330
1F
100
AcDbEntity
  8
0_Pen_No__7
  6
Continuous
100
AcDbPolyline
 90
        4
 70
   129
 43
0.0
 10
-2536.581986303272
 20
-975.7333328751442
 10
-2491.581986303272
 20
-975.7333328751442
 10
-2491.581986303272
 20
1299.266667124855
 10
-2536.581986303272
 20
1299.266667124855
  0
WIPEOUT
  5
41
330
1F
100
AcDbEntity
  8
0
  6
Wipeout_Contour
 62
   254
 48
9884.763186205559
370
     0
 92
      296
310
28010000060000000C0000000E000000120000000C00000016000000000000C20C00000014000000010000006C000000070000000400000088D61BFA2947A1C09C5EA0DDDD7D8EC000000000000000008CD61BFA29EDA0C09C5EA0DDDD7D8EC000000000000000008CD61BFA29EDA0C0AED02F11114D944000000000000000
310
0088D61BFA2947A1C0AED02F11114D944000000000000000000C0000000E000000FE00000084000000060000000500000088D61BFA2947A1C09C5EA0DDDD7D8EC000000000000000008CD61BFA29EDA0C09C5EA0DDDD7D8EC000000000000000008CD61BFA29EDA0C0AED02F11114D9440000000000000000088D61BFA2947
310
A1C0AED02F11114D9440000000000000000088D61BFA2947A1C09C5EA0DDDD7D8EC00000000000000000
100
AcDbWipeout
 90
        0
 10
-2211.58198630327
 20
-975.7333328751442
 30
0.0
 11
44.99999999999818
 21
0.0
 31
0.0
 12
0.0
 22
2274.999999999999
 32
0.0
 13
1.0
 23
1.0
340
0
 70
    15
280
     1
281
    50
282
    50
283
     0
360
0
 71
     2
 91
        5
 14
-0.5
 24
0.5
 14
0.5
 24
0.5
 14
0.5
 24
-0.5
 14
-0.5
 24
-0.5
 14
-0.5
 24
0.5
  0
LWPOLYLINE
  5
42
330
1F
100
AcDbEntity
  8
0_Pen_No__7
  6
Continuous
100
AcDbPolyline
 90
        4
 70
   129
 43
0.0
 10
-2211.58198630327
 20
-975.7333328751442
 10
-2166.581986303272
 20
-975.7333328751442
 10
-2166.581986303272
 20
1299.266667124855
 10
-2211.58198630327
 20
1299.266667124855
  0
WIPEOUT
  5
43
330
1F
100
AcDbEntity
  8
0
  6
Wipeout_Contour
 62
   254
 48
6969.678379676856
370
     0
 92
      296
310
28010000060000000C0000000E000000120000000C00000016000000000000C20C00000014000000010000006C000000070000000400000011AD37F453E294C09C5EA0DDDD7D8EC0000000000000000019AD37F4532E94C09C5EA0DDDD7D8EC0000000000000000019AD37F4532E94C0AED02F11114D944000000000000000
310
0011AD37F453E294C0AED02F11114D944000000000000000000C0000000E000000FE00000084000000060000000500000011AD37F453E294C09C5EA0DDDD7D8EC0000000000000000019AD37F4532E94C09C5EA0DDDD7D8EC0000000000000000019AD37F4532E94C0AED02F11114D9440000000000000000011AD37F453E2
310
94C0AED02F11114D9440000000000000000011AD37F453E294C09C5EA0DDDD7D8EC00000000000000000
100
AcDbWipeout
 90
        0
 10
-1336.58198630327
 20
-975.7333328751442
 30
0.0
 11
44.99999999999818
 21
0.0
 31
0.0
 12
0.0
 22
2274.999999999999
 32
0.0
 13
1.0
 23
1.0
340
0
 70
    15
280
     1
281
    50
282
    50
283
     0
360
0
 71
     2
 91
        5
 14
-0.5
 24
0.5
 14
0.5
 24
0.5
 14
0.5
 24
-0.5
 14
-0.5
 24
-0.5
 14
-0.5
 24
0.5
  0
LWPOLYLINE
  5
44
330
1F
100
AcDbEntity
  8
0_Pen_No__7
  6
Continuous
100
AcDbPolyline
 90
        4
 70
   129
 43
0.0
 10
-1336.58198630327
 20
-975.7333328751442
 10
-1291.581986303272
 20
-975.7333328751442
 10
-1291.581986303272
 20
1299.266667124855
 10
-1336.58198630327
 20
1299.266667124855
  0
WIPEOUT
  5
45
330
1F
100
AcDbEntity
  8
0
  6
Wipeout_Contour
 62
   254
 48
5384.014966730385
370
     0
 92
      296
310
28010000060000000C0000000E000000120000000C00000016000000000000C20C00000014000000010000006C0000000700000004000000245A6FE8A70487C09C5EA0DDDD7D8EC00000000000000000245A6FE8A79C85C09C5EA0DDDD7D8EC00000000000000000245A6FE8A79C85C0AED02F11114D944000000000000000
310
00245A6FE8A70487C0AED02F11114D944000000000000000000C0000000E000000FE000000840000000600000005000000245A6FE8A70487C09C5EA0DDDD7D8EC00000000000000000245A6FE8A79C85C09C5EA0DDDD7D8EC00000000000000000245A6FE8A79C85C0AED02F11114D94400000000000000000245A6FE8A704
310
87C0AED02F11114D94400000000000000000245A6FE8A70487C09C5EA0DDDD7D8EC00000000000000000
100
AcDbWipeout
 90
        0
 10
-736.5819863032707
 20
-975.7333328751442
 30
0.0
 11
45.0
 21
0.0
 31
0.0
 12
0.0
 22
2274.999999999999
 32
0.0
 13
1.0
 23
1.0
340
0
 70
    15
280
     1
281
    50
282
    50
283
     0
360
0
 71
     2
 91
        5
 14
-0.5
 24
0.5
 14
0.5
 24
0.5
 14
0.5
 24
-0.5
 14
-0.5
 24
-0.5
 14
-0.5
 24
0.5
  0
LWPOLYLINE
  5
46
330
1F
100
AcDbEntity
  8
0_Pen_No__7
  6
Continuous
100
AcDbPolyline
 90
        4
 70
   129
 43
0.0
 10
-736.5819863032707
 20
-975.7333328751442
 10
-691.5819863032707
 20
-975.7333328751442
 10
-691.5819863032707
 20
1299.266667124855
 10
-736.5819863032707
 20
1299.266667124855
  0
WIPEOUT
  5
47
330
1F
100
AcDbEntity
  8
0
  6
Wipeout_Contour
 62
   254
 48
4814.28234291545
370
     0
 92
      296
310
28010000060000000C0000000E000000120000000C00000016000000000000C20C00000014000000010000006C000000070000000400000054B4DED04FB979C09C5EA0DDDD7D8EC0000000000000000055B4DED04FE976C09C5EA0DDDD7D8EC0000000000000000055B4DED04FE976C0AED02F11114D944000000000000000
310
0054B4DED04FB979C0AED02F11114D944000000000000000000C0000000E000000FE00000084000000060000000500000054B4DED04FB979C09C5EA0DDDD7D8EC0000000000000000055B4DED04FE976C09C5EA0DDDD7D8EC0000000000000000055B4DED04FE976C0AED02F11114D9440000000000000000054B4DED04FB9
310
79C0AED02F11114D9440000000000000000054B4DED04FB979C09C5EA0DDDD7D8EC00000000000000000
100
AcDbWipeout
 90
        0
 10
-411.5819863032714
 20
-975.7333328751442
 30
0.0
 11
44.99999999999994
 21
0.0
 31
0.0
 12
0.0
 22
2274.999999999999
 32
0.0
 13
1.0
 23
1.0
340
0
 70
    15
280
     1
281
    50
282
    50
283
     0
360
0
 71
     2
 91
        5
 14
-0.5000000000000007
 24
0.5
 14
0.4999999999999994
 24
0.5
 14
0.4999999999999994
 24
-0.5
 14
-0.5000000000000007
 24
-0.5
 14
-0.5000000000000007
 24
0.5
  0
LWPOLYLINE
  5
48
330
1F
100
AcDbEntity
  8
0_Pen_No__7
  6
Continuous
100
AcDbPolyline
 90
        4
 70
   129
 43
0.0
 10
-411.5819863032714
 20
-975.7333328751442
 10
-366.5819863032714
 20
-975.7333328751442
 10
-366.5819863032714
 20
1299.266667124855
 10
-411.5819863032714
 20
1299.266667124855
  0
WIPEOUT
  5
49
330
1F
100
AcDbEntity
  8
0
  6
Wipeout_Contour
 62
   254
 48
5303.550409214521
370
     0
 92
      296
310
28010000060000000C0000000E000000120000000C00000016000000000000C20C00000014000000010000006C0000000700000004000000D2A59017586B84409C5EA0DDDD7D8EC00000000000000000E1A5901758D385409C5EA0DDDD7D8EC00000000000000000E1A5901758D38540AED02F11114D944000000000000000
310
00D2A59017586B8440AED02F11114D944000000000000000000C0000000E000000FE000000840000000600000005000000D2A59017586B84409C5EA0DDDD7D8EC00000000000000000E1A5901758D385409C5EA0DDDD7D8EC00000000000000000E1A5901758D38540AED02F11114D94400000000000000000D2A59017586B
310
8440AED02F11114D94400000000000000000D2A59017586B84409C5EA0DDDD7D8EC00000000000000000
100
AcDbWipeout
 90
        0
 10
653.4180136967282
 20
-975.7333328751442
 30
0.0
 11
45.00000000000171
 21
0.0
 31
0.0
 12
0.0
 22
2274.999999999999
 32
0.0
 13
1.0
 23
1.0
340
0
 70
    15
280
     1
281
    50
282
    50
283
     0
360
0
 71
     2
 91
        5
 14
-0.5000000000000012
 24
0.5
 14
0.4999999999999987
 24
0.5
 14
0.4999999999999987
 24
-0.5
 14
-0.5000000000000012
 24
-0.5
 14
-0.5000000000000012
 24
0.5
  0
LWPOLYLINE
  5
4A
330
1F
100
AcDbEntity
  8
0_Pen_No__7
  6
Continuous
100
AcDbPolyline
 90
        4
 70
   129
 43
0.0
 10
653.4180136967282
 20
-975.7333328751442
 10
698.4180136967299
 20
-975.7333328751442
 10
698.4180136967299
 20
1299.266667124855
 10
653.4180136967282
 20
1299.266667124855
  0
WIPEOUT
  5
4B
330
1F
100
AcDbEntity
  8
0
  6
Wipeout_Contour
 62
   254
 48
6306.633917358031
370
     0
 92
      296
310
28010000060000000C0000000E000000120000000C00000016000000000000C20C00000014000000010000006C0000000700000004000000E952C80BAC9D90409C5EA0DDDD7D8EC00000000000000000F152C80BAC5191409C5EA0DDDD7D8EC00000000000000000F152C80BAC519140AED02F11114D944000000000000000
310
00E952C80BAC9D9040AED02F11114D944000000000000000000C0000000E000000FE000000840000000600000005000000E952C80BAC9D90409C5EA0DDDD7D8EC00000000000000000F152C80BAC5191409C5EA0DDDD7D8EC00000000000000000F152C80BAC519140AED02F11114D94400000000000000000E952C80BAC9D
310
9040AED02F11114D94400000000000000000E952C80BAC9D90409C5EA0DDDD7D8EC00000000000000000
100
AcDbWipeout
 90
        0
 10
1063.418013696728
 20
-975.7333328751442
 30
0.0
 11
45.00000000000182
 21
0.0
 31
0.0
 12
0.0
 22
2274.999999999999
 32
0.0
 13
1.0
 23
1.0
340
0
 70
    15
280
     1
281
    50
282
    50
283
     0
360
0
 71
     2
 91
        5
 14
-0.5
 24
0.5
 14
0.5
 24
0.5
 14
0.5
 24
-0.5
 14
-0.5
 24
-0.5
 14
-0.5
 24
0.5
  0
LWPOLYLINE
  5
4C
330
1F
100
AcDbEntity
  8
0_Pen_No__7
  6
Continuous
100
AcDbPolyline
 90
        4
 70
   129
 43
0.0
 10
1063.418013696728
 20
-975.7333328751442
 10
1108.41801369673
 20
-975.7333328751442
 10
1108.41801369673
 20
1299.266667124855
 10
1063.418013696728
 20
1299.266667124855
  0
WIPEOUT
  5
4D
330
1F
100
AcDbEntity
  8
0
  6
Wipeout_Contour
 62
   254
 48
8152.865282771631
370
     0
 92
      296
310
28010000060000000C0000000E000000120000000C00000016000000000000C20C00000014000000010000006C0000000700000004000000EF52C80BACFD99409C5EA0DDDD7D8EC00000000000000000EF52C80BACB19A409C5EA0DDDD7D8EC00000000000000000EF52C80BACB19A40AED02F11114D944000000000000000
310
00EF52C80BACFD9940AED02F11114D944000000000000000000C0000000E000000FE000000840000000600000005000000EF52C80BACFD99409C5EA0DDDD7D8EC00000000000000000EF52C80BACB19A409C5EA0DDDD7D8EC00000000000000000EF52C80BACB19A40AED02F11114D94400000000000000000EF52C80BACFD
310
9940AED02F11114D94400000000000000000EF52C80BACFD99409C5EA0DDDD7D8EC00000000000000000
100
AcDbWipeout
 90
        0
 10
1663.41801369673
 20
-975.7333328751442
 30
0.0
 11
45.0
 21
0.0
 31
0.0
 12
0.0
 22
2274.999999999999
 32
0.0
 13
1.0
 23
1.0
340
0
 70
    15
280
     1
281
    50
282
    50
283
     0
360
0
 71
     2
 91
        5
 14
-0.5
 24
0.5
 14
0.5
 24
0.5
 14
0.5
 24
-0.5
 14
-0.5
 24
-0.5
 14
-0.5
 24
0.5
  0
LWPOLYLINE
  5
4E
330
1F
100
AcDbEntity
  8
0_Pen_No__7
  6
Continuous
100
AcDbPolyline
 90
        4
 70
   129
 43
0.0
 10
1663.41801369673
 20
-975.7333328751442
 10
1708.41801369673
 20
-975.7333328751442
 10
1708.41801369673
 20
1299.266667124855
 10
1663.41801369673
 20
1299.266667124855
  0
WIPEOUT
  5
4F
330
1F
100
AcDbEntity
  8
0
  6
Wipeout_Contour
 62
   254
 48
11596.49318587915
370
     0
 92
      296
310
28010000060000000C0000000E000000120000000C00000016000000000000C20C00000014000000010000006C0000000700000004000000759EE39AFA9FA4409C5EA0DDDD7D8EC00000000000000000759EE39AFAF9A4409C5EA0DDDD7D8EC00000000000000000759EE39AFAF9A440AED02F11114D944000000000000000
310
00759EE39AFA9FA440AED02F11114D944000000000000000000C0000000E000000FE000000840000000600000005000000759EE39AFA9FA4409C5EA0DDDD7D8EC00000000000000000759EE39AFAF9A4409C5EA0DDDD7D8EC00000000000000000759EE39AFAF9A440AED02F11114D94400000000000000000759EE39AFA9F
310
A440AED02F11114D94400000000000000000759EE39AFA9FA4409C5EA0DDDD7D8EC00000000000000000
100
AcDbWipeout
 90
        0
 10
2639.989462960332
 20
-975.7333328751442
 30
0.0
 11
45.0
 21
0.0
 31
0.0
 12
0.0
 22
2274.999999999999
 32
0.0
 13
1.0
 23
1.0
340
0
 70
    15
280
     1
281
    50
282
    50
283
     0
360
0
 71
     2
 91
        5
 14
-0.5
 24
0.5
 14
0.5
 24
0.5
 14
0.5
 24
-0.5
 14
-0.5
 24
-0.5
 14
-0.5
 24
0.5
  0
LWPOLYLINE
  5
50
330
1F
100
AcDbEntity
  8
0_Pen_No__7
  6
Continuous
100
AcDbPolyline
 90
        4
 70
   129
 43
0.0
 10
2639.989462960332
 20
-975.7333328751442
 10
2684.989462960332
 20
-975.7333328751442
 10
2684.989462960332
 20
1299.266667124855
 10
2639.989462960332
 20
1299.266667124855
  0
WIPEOUT
  5
51
330
1F
100
AcDbEntity
  8
0
  6
Wipeout_Contour
 62
   254
 48
12156.04817615011
370
     0
 92
      296
310
28010000060000000C0000000E000000120000000C00000016000000000000C20C00000014000000010000006C000000070000000400000088D61BFA2929A6C09C5EA0DDDD7D8EC000000000000000008CD61BFA29CFA5C09C5EA0DDDD7D8EC000000000000000008CD61BFA29CFA5C0AED02F11114D944000000000000000
310
0088D61BFA2929A6C0AED02F11114D944000000000000000000C0000000E000000FE00000084000000060000000500000088D61BFA2929A6C09C5EA0DDDD7D8EC000000000000000008CD61BFA29CFA5C09C5EA0DDDD7D8EC000000000000000008CD61BFA29CFA5C0AED02F11114D9440000000000000000088D61BFA2929
310
A6C0AED02F11114D9440000000000000000088D61BFA2929A6C09C5EA0DDDD7D8EC00000000000000000
100
AcDbWipeout
 90
        0
 10
-2836.58198630327
 20
-975.7333328751442
 30
0.0
 11
44.99999999999818
 21
0.0
 31
0.0
 12
0.0
 22
2274.999999999999
 32
0.0
 13
1.0
 23
1.0
340
0
 70
    15
280
     1
281
    50
282
    50
283
     0
360
0
 71
     2
 91
        5
 14
-0.5
 24
0.5
 14
0.5
 24
0.5
 14
0.5
 24
-0.5
 14
-0.5
 24
-0.5
 14
-0.5
 24
0.5
  0
LWPOLYLINE
  5
52
330
1F
100
AcDbEntity
  8
0_Pen_No__7
  6
Continuous
100
AcDbPolyline
 90
        4
 70
   129
 43
0.0
 10
-2836.58198630327
 20
-975.7333328751442
 10
-2791.581986303272
 20
-975.7333328751442
 10
-2791.581986303272
 20
1299.266667124855
 10
-2836.58198630327
 20
1299.266667124855
  0
WIPEOUT
  5
53
330
1F
100
AcDbEntity
  8
0
  6
Wipeout_Contour
 62
   254
 48
12907.4613555179
370
     0
 92
      296
310
28010000060000000C0000000E000000120000000C00000016000000000000C20C00000014000000010000006C00000007000000040000008AD61BFA2927A8C0AFD02F11114D944000000000000000008AD61BFA2927A8C0B0D02F1111859340000000000000000088D61BFA2929A6C0B0D02F111185934000000000000000
310
0088D61BFA2929A6C0AFD02F11114D944000000000000000000C0000000E000000FE0000008400000006000000050000008AD61BFA2927A8C0AFD02F11114D944000000000000000008AD61BFA2927A8C0B0D02F1111859340000000000000000088D61BFA2929A6C0B0D02F1111859340000000000000000088D61BFA2929
310
A6C0AFD02F11114D944000000000000000008AD61BFA2927A8C0AFD02F11114D94400000000000000000
100
AcDbWipeout
 90
        0
 10
-3091.581986303271
 20
1249.266667124855
 30
0.0
 11
255.0000000000009
 21
0.0
 31
0.0
 12
0.0
 22
49.99999999999977
 32
0.0
 13
1.0
 23
1.0
340
0
 70
    15
280
     1
281
    50
282
    50
283
     0
360
0
 71
     2
 91
        5
 14
-0.5
 24
-0.4999999999999977
 14
-0.5
 24
0.5000000000000022
 14
0.5
 24
0.5000000000000022
 14
0.5
 24
-0.4999999999999977
 14
-0.5
 24
-0.4999999999999977
  0
LWPOLYLINE
  5
54
330
1F
100
AcDbEntity
  8
0_Pen_No__7
  6
Continuous
100
AcDbPolyline
 90
        4
 70
   129
 43
0.0
 10
-3091.581986303271
 20
1299.266667124855
 10
-3091.581986303271
 20
1249.266667124855
 10
-2836.58198630327
 20
1249.266667124855
 10
-2836.58198630327
 20
1299.266667124855
  0
WIPEOUT
  5
55
330
1F
100
AcDbEntity
  8
0
  6
Wipeout_Contour
 62
   254
 48
11815.03308855032
370
     0
 92
      296
310
28010000060000000C0000000E000000120000000C00000016000000000000C20C00000014000000010000006C00000007000000040000008CD61BFA29CFA5C0AFD02F11114D944000000000000000008CD61BFA29CFA5C0B0D02F111185934000000000000000008BD61BFA29D1A3C0B0D02F111185934000000000000000
310
008BD61BFA29D1A3C0AFD02F11114D944000000000000000000C0000000E000000FE0000008400000006000000050000008CD61BFA29CFA5C0AFD02F11114D944000000000000000008CD61BFA29CFA5C0B0D02F111185934000000000000000008BD61BFA29D1A3C0B0D02F111185934000000000000000008BD61BFA29D1
310
A3C0AFD02F11114D944000000000000000008CD61BFA29CFA5C0AFD02F11114D94400000000000000000
100
AcDbWipeout
 90
        0
 10
-2791.581986303272
 20
1249.266667124855
 30
0.0
 11
255.0000000000005
 21
0.0
 31
0.0
 12
0.0
 22
49.99999999999977
 32
0.0
 13
1.0
 23
1.0
340
0
 70
    15
280
     1
281
    50
282
    50
283
     0
360
0
 71
     2
 91
        5
 14
-0.4999999999999991
 24
-0.4999999999999977
 14
-0.4999999999999991
 24
0.5000000000000022
 14
0.5000000000000009
 24
0.5000000000000022
 14
0.5000000000000009
 24
-0.4999999999999977
 14
-0.4999999999999991
 24
-0.4999999999999977
  0
LWPOLYLINE
  5
56
330
1F
100
AcDbEntity
  8
0_Pen_No__7
  6
Continuous
100
AcDbPolyline
 90
        4
 70
   129
 43
0.0
 10
-2791.581986303272
 20
1299.266667124855
 10
-2791.581986303272
 20
1249.266667124855
 10
-2536.581986303272
 20
1249.266667124855
 10
-2536.581986303272
 20
1299.266667124855
  0
WIPEOUT
  5
57
330
1F
100
AcDbEntity
  8
0
  6
Wipeout_Contour
 62
   254
 48
10702.30171991611
370
     0
 92
      296
310
28010000060000000C0000000E000000120000000C00000016000000000000C20C00000014000000010000006C00000007000000040000008BD61BFA2977A3C0AFD02F11114D944000000000000000008BD61BFA2977A3C0B0D02F1111859340000000000000000088D61BFA2947A1C0B0D02F111185934000000000000000
310
0088D61BFA2947A1C0AFD02F11114D944000000000000000000C0000000E000000FE0000008400000006000000050000008BD61BFA2977A3C0AFD02F11114D944000000000000000008BD61BFA2977A3C0B0D02F1111859340000000000000000088D61BFA2947A1C0B0D02F1111859340000000000000000088D61BFA2947
310
A1C0AFD02F11114D944000000000000000008BD61BFA2977A3C0AFD02F11114D94400000000000000000
100
AcDbWipeout
 90
        0
 10
-2491.581986303272
 20
1249.266667124855
 30
0.0
 11
280.0000000000014
 21
0.0
 31
0.0
 12
0.0
 22
49.99999999999977
 32
0.0
 13
1.0
 23
1.0
340
0
 70
    15
280
     1
281
    50
282
    50
283
     0
360
0
 71
     2
 91
        5
 14
-0.4999999999999992
 24
-0.4999999999999977
 14
-0.4999999999999992
 24
0.5000000000000022
 14
0.5000000000000008
 24
0.5000000000000022
 14
0.5000000000000008
 24
-0.4999999999999977
 14
-0.4999999999999992
 24
-0.4999999999999977
  0
LWPOLYLINE
  5
58
330
1F
100
AcDbEntity
  8
0_Pen_No__7
  6
Continuous
100
AcDbPolyline
 90
        4
 70
   129
 43
0.0
 10
-2491.581986303272
 20
1299.266667124855
 10
-2491.581986303272
 20
1249.266667124855
 10
-2211.58198630327
 20
1249.266667124855
 10
-2211.58198630327
 20
1299.266667124855
  0
WIPEOUT
  5
59
330
1F
100
AcDbEntity
  8
0
  6
Wipeout_Contour
 62
   254
 48
12907.4613555179
370
     0
 92
      296
310
28010000060000000C0000000E000000120000000C00000016000000000000C20C00000014000000010000006C00000007000000040000008AD61BFA2927A8C0AFD02F11114D944000000000000000008AD61BFA2927A8C0B0D02F1111859340000000000000000088D61BFA2929A6C0B0D02F111185934000000000000000
310
0088D61BFA2929A6C0AFD02F11114D944000000000000000000C0000000E000000FE0000008400000006000000050000008AD61BFA2927A8C0AFD02F11114D944000000000000000008AD61BFA2927A8C0B0D02F1111859340000000000000000088D61BFA2929A6C0B0D02F1111859340000000000000000088D61BFA2929
310
A6C0AFD02F11114D944000000000000000008AD61BFA2927A8C0AFD02F11114D94400000000000000000
100
AcDbWipeout
 90
        0
 10
-3091.581986303271
 20
1249.266667124855
 30
0.0
 11
255.0000000000009
 21
0.0
 31
0.0
 12
0.0
 22
49.99999999999977
 32
0.0
 13
1.0
 23
1.0
340
0
 70
    15
280
     1
281
    50
282
    50
283
     0
360
0
 71
     2
 91
        5
 14
-0.5
 24
-0.4999999999999977
 14
-0.5
 24
0.5000000000000022
 14
0.5
 24
0.5000000000000022
 14
0.5
 24
-0.4999999999999977
 14
-0.5
 24
-0.4999999999999977
  0
LWPOLYLINE
  5
5A
330
1F
100
AcDbEntity
  8
0_Pen_No__7
  6
Continuous
100
AcDbPolyline
 90
        4
 70
   129
 43
0.0
 10
-3091.581986303271
 20
1299.266667124855
 10
-3091.581986303271
 20
1249.266667124855
 10
-2836.58198630327
 20
1249.266667124855
 10
-2836.58198630327
 20
1299.266667124855
  0
WIPEOUT
  5
5B
330
1F
100
AcDbEntity
  8
0
  6
Wipeout_Contour
 62
   254
 48
5578.086509395795
370
     0
 92
      296
310
28010000060000000C0000000E000000120000000C00000016000000000000C20C00000014000000010000006C0000000700000004000000245A6FE8A79C85C0AFD02F11114D94400000000000000000245A6FE8A79C85C0B0D02F1111859340000000000000000054B4DED04FB979C0B0D02F111185934000000000000000
310
0054B4DED04FB979C0AFD02F11114D944000000000000000000C0000000E000000FE000000840000000600000005000000245A6FE8A79C85C0AFD02F11114D94400000000000000000245A6FE8A79C85C0B0D02F1111859340000000000000000054B4DED04FB979C0B0D02F1111859340000000000000000054B4DED04FB9
310
79C0AFD02F11114D94400000000000000000245A6FE8A79C85C0AFD02F11114D94400000000000000000
100
AcDbWipeout
 90
        0
 10
-691.5819863032707
 20
1249.266667124855
 30
0.0
 11
279.9999999999993
 21
0.0
 31
0.0
 12
0.0
 22
49.99999999999977
 32
0.0
 13
1.0
 23
1.0
340
0
 70
    15
280
     1
281
    50
282
    50
283
     0
360
0
 71
     2
 91
        5
 14
-0.5
 24
-0.4999999999999977
 14
-0.5
 24
0.5000000000000022
 14
0.5
 24
0.5000000000000022
 14
0.5
 24
-0.4999999999999977
 14
-0.5
 24
-0.4999999999999977
  0
LWPOLYLINE
  5
5C
330
1F
100
AcDbEntity
  8
0_Pen_No__7
  6
Continuous
100
AcDbPolyline
 90
        4
 70
   129
 43
0.0
 10
-691.5819863032707
 20
1299.266667124855
 10
-691.5819863032707
 20
1249.266667124855
 10
-411.5819863032714
 20
1249.266667124855
 10
-411.5819863032714
 20
1299.266667124855
  0
WIPEOUT
  5
5D
330
1F
100
AcDbEntity
  8
0
  6
Wipeout_Contour
 62
   254
 48
12454.84771211857
370
     0
 92
      296
310
28010000060000000C0000000E000000120000000C00000016000000000000C20C00000014000000010000006C0000000700000004000000D53171D4A4BAA7C037C0399355BA8CC00000000000000000D15D51045CC3A7C041ED84E9CF488EC0000000000000000005FC98438098A6C0FCFC062866B18EC000000000000000
310
000AD0B813C98FA6C0F2CFBBD1EB228DC000000000000000000C0000000E000000FE000000840000000600000005000000D53171D4A4BAA7C037C0399355BA8CC00000000000000000D15D51045CC3A7C041ED84E9CF488EC0000000000000000005FC98438098A6C0FCFC062866B18EC000000000000000000AD0B813C98F
310
A6C0F2CFBBD1EB228DC00000000000000000D53171D4A4BAA7C037C0399355BA8CC00000000000000000
100
AcDbWipeout
 90
        0
 10
-3041.679720442488
 20
-982.1748810335116
 30
0.0
 11
153.7869918511456
 21
0.0
 31
0.0
 12
0.0
 22
62.8830963167353
 32
0.0
 13
1.0
 23
1.0
340
0
 70
    15
280
     1
281
    50
282
    50
283
     0
360
0
 71
     2
 91
        5
 14
-0.4716634867167316
 24
-0.5000000000000009
 14
-0.4999999999999985
 24
0.2921005456490328
 14
0.4716634867167376
 24
0.4999999999999991
 14
0.5000000000000014
 24
-0.2921005456490346
 14
-0.4716634867167316
 24
-0.5000000000000009
  0
LWPOLYLINE
  5
5E
330
1F
100
AcDbEntity
  8
0_Pen_No__7
  6
Continuous
100
AcDbPolyline
 90
        4
 70
   129
 43
0.0
 10
-3037.321933305104
 20
-919.2917847167763
 10
-3041.679720442488
 20
-969.1015196213631
 10
-2892.250515728726
 20
-982.1748810335116
 10
-2887.892728591342
 20
-932.3651461289248
  0
WIPEOUT
  5
5F
330
1F
100
AcDbEntity
  8
0
  6
Wipeout_Contour
 62
   254
 48
11308.85020216346
370
     0
 92
      296
310
28010000060000000C0000000E000000120000000C00000016000000000000C20C00000014000000010000006C0000000700000004000000D43171D4A45DA5C037C0399355BA8CC00000000000000000D05D51045C66A5C041ED84E9CF488EC0000000000000000005FC9843803BA4C0FCFC062866B18EC000000000000000
310
0009D0B813C932A4C0F2CFBBD1EB228DC000000000000000000C0000000E000000FE000000840000000600000005000000D43171D4A45DA5C037C0399355BA8CC00000000000000000D05D51045C66A5C041ED84E9CF488EC0000000000000000005FC9843803BA4C0FCFC062866B18EC0000000000000000009D0B813C932
310
A4C0F2CFBBD1EB228DC00000000000000000D43171D4A45DA5C037C0399355BA8CC00000000000000000
100
AcDbWipeout
 90
        0
 10
-2739.179720442487
 20
-982.1748810335116
 30
0.0
 11
153.7869918511456
 21
0.0
 31
0.0
 12
0.0
 22
62.8830963167353
 32
0.0
 13
1.0
 23
1.0
340
0
 70
    15
280
     1
281
    50
282
    50
283
     0
360
0
 71
     2
 91
        5
 14
-0.4716634867167346
 24
-0.5000000000000009
 14
-0.5000000000000014
 24
0.2921005456490328
 14
0.4716634867167316
 24
0.4999999999999991
 14
0.4999999999999985
 24
-0.2921005456490346
 14
-0.4716634867167346
 24
-0.5000000000000009
  0
LWPOLYLINE
  5
60
330
1F
100
AcDbEntity
  8
0_Pen_No__7
  6
Continuous
100
AcDbPolyline
 90
        4
 70
   129
 43
0.0
 10
-2734.821933305104
 20
-919.2917847167763
 10
-2739.179720442487
 20
-969.1015196213631
 10
-2589.750515728726
 20
-982.1748810335116
 10
-2585.392728591342
 20
-932.3651461289248
  0
WIPEOUT
  5
61
330
1F
100
AcDbEntity
  8
0
  6
Wipeout_Contour
 62
   254
 48
10196.25669142817
370
     0
 92
      296
310
28010000060000000C0000000E000000120000000C00000016000000000000C20C00000014000000010000006C0000000700000004000000D63171D4A40AA3C037C0399355BA8CC00000000000000000D15D51045C13A3C041ED84E9CF488EC0000000000000000006FC984380E8A1C0FCFC062866B18EC000000000000000
310
000BD0B813C9DFA1C0F2CFBBD1EB228DC000000000000000000C0000000E000000FE000000840000000600000005000000D63171D4A40AA3C037C0399355BA8CC00000000000000000D15D51045C13A3C041ED84E9CF488EC0000000000000000006FC984380E8A1C0FCFC062866B18EC000000000000000000BD0B813C9DF
310
A1C0F2CFBBD1EB228DC00000000000000000D63171D4A40AA3C037C0399355BA8CC00000000000000000
100
AcDbWipeout
 90
        0
 10
-2441.679720442488
 20
-982.1748810335116
 30
0.0
 11
153.7869918511451
 21
0.0
 31
0.0
 12
0.0
 22
62.8830963167353
 32
0.0
 13
1.0
 23
1.0
340
0
 70
    15
280
     1
281
    50
282
    50
283
     0
360
0
 71
     2
 91
        5
 14
-0.471663486716736
 24
-0.5000000000000009
 14
-0.5
 24
0.2921005456490328
 14
0.471663486716736
 24
0.4999999999999991
 14
0.5
 24
-0.2921005456490346
 14
-0.471663486716736
 24
-0.5000000000000009
  0
LWPOLYLINE
  5
62
330
1F
100
AcDbEntity
  8
0_Pen_No__7
  6
Continuous
100
AcDbPolyline
 90
        4
 70
   129
 43
0.0
 10
-2437.321933305105
 20
-919.2917847167763
 10
-2441.679720442488
 20
-969.1015196213631
 10
-2292.250515728726
 20
-982.1748810335116
 10
-2287.892728591343
 20
-932.3651461289248
  0
WIPEOUT
  5
63
330
1F
100
AcDbEntity
  8
0
  6
Wipeout_Contour
 62
   254
 48
9021.635656804045
370
     0
 92
      296
310
28010000060000000C0000000E000000120000000C00000016000000000000C20C00000014000000010000006C00000007000000040000008BD61BFA29E3A0C0007E7A817677E7BF00000000000000008BD61BFA2989A0C0007E7A817677E7BF00000000000000008BD61BFA2989A0C0B2D02F111101904000000000000000
310
008BD61BFA29E3A0C0B2D02F111101904000000000000000000C0000000E000000FE0000008400000006000000050000008BD61BFA29E3A0C0007E7A817677E7BF00000000000000008BD61BFA2989A0C0007E7A817677E7BF00000000000000008BD61BFA2989A0C0B2D02F111101904000000000000000008BD61BFA29E3
310
A0C0B2D02F111101904000000000000000008BD61BFA29E3A0C0007E7A817677E7BF0000000000000000
100
AcDbWipeout
 90
        0
 10
-2161.581986303272
 20
-0.7333328751446544
 30
0.0
 11
45.0
 21
0.0
 31
0.0
 12
0.0
 22
1025.0
 32
0.0
 13
1.0
 23
1.0
340
0
 70
    15
280
     1
281
    50
282
    50
283
     0
360
0
 71
     2
 91
        5
 14
-0.5
 24
0.5
 14
0.5
 24
0.5
 14
0.5
 24
-0.5
 14
-0.5
 24
-0.5
 14
-0.5
 24
0.5
  0
LWPOLYLINE
  5
64
330
1F
100
AcDbEntity
  8
0_Pen_No__7
  6
Continuous
100
AcDbPolyline
 90
        4
 70
   129
 43
0.0
 10
-2161.581986303272
 20
-0.7333328751446544
 10
-2116.581986303272
 20
-0.7333328751446544
 10
-2116.581986303272
 20
1024.266667124856
 10
-2161.581986303272
 20
1024.266667124856
  0
WIPEOUT
  5
65
330
1F
100
AcDbEntity
  8
0
  6
Wipeout_Contour
 62
   254
 48
6140.130172448891
370
     0
 92
      296
310
28010000060000000C0000000E000000120000000C00000016000000000000C20C00000014000000010000006C000000070000000400000014AD37F453AA95C0007E7A817677E7BF000000000000000014AD37F453F694C0007E7A817677E7BF000000000000000014AD37F453F694C0B2D02F111101904000000000000000
310
0014AD37F453AA95C0B2D02F111101904000000000000000000C0000000E000000FE00000084000000060000000500000014AD37F453AA95C0007E7A817677E7BF000000000000000014AD37F453F694C0007E7A817677E7BF000000000000000014AD37F453F694C0B2D02F1111019040000000000000000014AD37F453AA
310
95C0B2D02F1111019040000000000000000014AD37F453AA95C0007E7A817677E7BF0000000000000000
100
AcDbWipeout
 90
        0
 10
-1386.581986303271
 20
-0.7333328751446544
 30
0.0
 11
45.0
 21
0.0
 31
0.0
 12
0.0
 22
1025.0
 32
0.0
 13
1.0
 23
1.0
340
0
 70
    15
280
     1
281
    50
282
    50
283
     0
360
0
 71
     2
 91
        5
 14
-0.5
 24
0.5
 14
0.5
 24
0.5
 14
0.5
 24
-0.5
 14
-0.5
 24
-0.5
 14
-0.5
 24
0.5
  0
LWPOLYLINE
  5
66
330
1F
100
AcDbEntity
  8
0_Pen_No__7
  6
Continuous
100
AcDbPolyline
 90
        4
 70
   129
 43
0.0
 10
-1386.581986303271
 20
-0.7333328751446544
 10
-1341.581986303271
 20
-0.7333328751446544
 10
-1341.581986303271
 20
1024.266667124856
 10
-1386.581986303271
 20
1024.266667124856
  0
WIPEOUT
  5
67
330
1F
100
AcDbEntity
  8
0
  6
Wipeout_Contour
 62
   254
 48
4224.687145088202
370
     0
 92
      296
310
28010000060000000C0000000E000000120000000C00000016000000000000C20C00000014000000010000006C000000070000000400000047B4DED04F9976C09C5EA0DDDD7D8EC0000000000000000048B4DED04FC973C09C5EA0DDDD7D8EC0000000000000000048B4DED04FC973C0C1D02F111101904000000000000000
310
0047B4DED04F9976C0C1D02F111101904000000000000000000C0000000E000000FE00000084000000060000000500000047B4DED04F9976C09C5EA0DDDD7D8EC0000000000000000048B4DED04FC973C09C5EA0DDDD7D8EC0000000000000000048B4DED04FC973C0C1D02F1111019040000000000000000047B4DED04F99
310
76C0C1D02F1111019040000000000000000047B4DED04F9976C09C5EA0DDDD7D8EC00000000000000000
100
AcDbWipeout
 90
        0
 10
-361.5819863032706
 20
-975.7333328751442
 30
0.0
 11
44.99999999999994
 21
0.0
 31
0.0
 12
0.0
 22
2000.000000000003
 32
0.0
 13
1.0
 23
1.0
340
0
 70
    15
280
     1
281
    50
282
    50
283
     0
360
0
 71
     2
 91
        5
 14
-0.4999999999999994
 24
0.5
 14
0.5000000000000007
 24
0.5
 14
0.5000000000000007
 24
-0.5
 14
-0.4999999999999994
 24
-0.5
 14
-0.4999999999999994
 24
0.5
  0
LWPOLYLINE
  5
68
330
1F
100
AcDbEntity
  8
0_Pen_No__7
  6
Continuous
100
AcDbPolyline
 90
        4
 70
   129
 43
0.0
 10
-361.5819863032706
 20
-975.7333328751442
 10
-316.5819863032707
 20
-975.7333328751442
 10
-316.5819863032707
 20
1024.266667124859
 10
-361.5819863032706
 20
1024.266667124859
  0
WIPEOUT
  5
69
330
1F
100
AcDbEntity
  8
0
  6
Wipeout_Contour
 62
   254
 48
4719.817777617631
370
     0
 92
      296
310
28010000060000000C0000000E000000120000000C00000016000000000000C20C00000014000000010000006C0000000700000004000000DBA5901758DB82409C5EA0DDDD7D8EC00000000000000000DBA59017584384409C5EA0DDDD7D8EC00000000000000000DBA5901758438440C1D02F111101904000000000000000
310
00DBA5901758DB8240C1D02F111101904000000000000000000C0000000E000000FE000000840000000600000005000000DBA5901758DB82409C5EA0DDDD7D8EC00000000000000000DBA59017584384409C5EA0DDDD7D8EC00000000000000000DBA5901758438440C1D02F11110190400000000000000000DBA5901758DB
310
8240C1D02F11110190400000000000000000DBA5901758DB82409C5EA0DDDD7D8EC00000000000000000
100
AcDbWipeout
 90
        0
 10
603.4180136967292
 20
-975.7333328751442
 30
0.0
 11
45.0
 21
0.0
 31
0.0
 12
0.0
 22
2000.000000000003
 32
0.0
 13
1.0
 23
1.0
340
0
 70
    15
280
     1
281
    50
282
    50
283
     0
360
0
 71
     2
 91
        5
 14
-0.5
 24
0.5
 14
0.5
 24
0.5
 14
0.5
 24
-0.5
 14
-0.5
 24
-0.5
 14
-0.5
 24
0.5
  0
LWPOLYLINE
  5
6A
330
1F
100
AcDbEntity
  8
0_Pen_No__7
  6
Continuous
100
AcDbPolyline
 90
        4
 70
   129
 43
0.0
 10
603.4180136967292
 20
-975.7333328751442
 10
648.4180136967292
 20
-975.7333328751442
 10
648.4180136967292
 20
1024.266667124859
 10
603.4180136967292
 20
1024.266667124859
  0
WIPEOUT
  5
6B
330
1F
100
AcDbEntity
  8
0
  6
Wipeout_Contour
 62
   254
 48
5078.486069956289
370
     0
 92
      296
310
28010000060000000C0000000E000000120000000C00000016000000000000C20C00000014000000010000006C0000000700000004000000AC4B212FB0F67C40C0D02F11115190400000000000000000AB4B212FB0C67F40C0D02F11115190400000000000000000AB4B212FB0C67F40BBD02F11114D944000000000000000
310
00AC4B212FB0F67C40BBD02F11114D944000000000000000000C0000000E000000FE000000840000000600000005000000AC4B212FB0F67C40C0D02F11115190400000000000000000AB4B212FB0C67F40C0D02F11115190400000000000000000AB4B212FB0C67F40BBD02F11114D94400000000000000000AC4B212FB0F6
310
7C40BBD02F11114D94400000000000000000AC4B212FB0F67C40C0D02F11115190400000000000000000
100
AcDbWipeout
 90
        0
 10
463.4180136967286
 20
1044.266667124859
 30
0.0
 11
44.99999999999994
 21
0.0
 31
0.0
 12
0.0
 22
254.9999999999989
 32
0.0
 13
1.0
 23
1.0
340
0
 70
    15
280
     1
281
    50
282
    50
283
     0
360
0
 71
     2
 91
        5
 14
-0.5000000000000007
 24
0.5000000000000004
 14
0.4999999999999994
 24
0.5000000000000004
 14
0.4999999999999994
 24
-0.4999999999999996
 14
-0.5000000000000007
 24
-0.4999999999999996
 14
-0.5000000000000007
 24
0.5000000000000004
  0
LWPOLYLINE
  5
6C
330
1F
100
AcDbEntity
  8
0_Pen_No__7
  6
Continuous
100
AcDbPolyline
 90
        4
 70
   129
 43
0.0
 10
463.4180136967286
 20
1044.266667124859
 10
508.4180136967286
 20
1044.266667124859
 10
508.4180136967286
 20
1299.266667124858
 10
463.4180136967286
 20
1299.266667124858
  0
WIPEOUT
  5
6D
330
1F
100
AcDbEntity
  8
0
  6
Wipeout_Contour
 62
   254
 48
8968.789095755237
370
     0
 92
      296
310
28010000060000000C0000000E000000120000000C00000016000000000000C20C00000014000000010000006C000000070000000400000017AD37F453429EC0B6D02F1111019040000000000000000017AD37F4538E9DC0B6D02F1111019040000000000000000017AD37F4538E9DC0B3D02F11114D944000000000000000
310
0017AD37F453429EC0B3D02F11114D944000000000000000000C0000000E000000FE00000084000000060000000500000017AD37F453429EC0B6D02F1111019040000000000000000017AD37F4538E9DC0B6D02F1111019040000000000000000017AD37F4538E9DC0B3D02F11114D9440000000000000000017AD37F45342
310
9EC0B3D02F11114D9440000000000000000017AD37F453429EC0B6D02F11110190400000000000000000
100
AcDbWipeout
 90
        0
 10
-1936.581986303272
 20
1024.266667124857
 30
0.0
 11
45.0
 21
0.0
 31
0.0
 12
0.0
 22
274.9999999999993
 32
0.0
 13
1.0
 23
1.0
340
0
 70
    15
280
     1
281
    50
282
    50
283
     0
360
0
 71
     2
 91
        5
 14
-0.5
 24
0.4999999999999996
 14
0.5
 24
0.4999999999999996
 14
0.5
 24
-0.5000000000000004
 14
-0.5
 24
-0.5000000000000004
 14
-0.5
 24
0.4999999999999996
  0
LWPOLYLINE
  5
6E
330
1F
100
AcDbEntity
  8
0_Pen_No__7
  6
Continuous
100
AcDbPolyline
 90
        4
 70
   129
 43
0.0
 10
-1936.581986303272
 20
1024.266667124857
 10
-1891.581986303272
 20
1024.266667124857
 10
-1891.581986303272
 20
1299.266667124856
 10
-1936.581986303272
 20
1299.266667124856
  0
WIPEOUT
  5
6F
330
1F
100
AcDbEntity
  8
0
  6
Wipeout_Contour
 62
   254
 48
8126.234636499919
370
     0
 92
      296
310
28010000060000000C0000000E000000120000000C00000016000000000000C20C00000014000000010000006C000000070000000400000092AC37F453429EC09D5EA0DDDD7D8EC0000000000000000092AC37F4538E9DC09D5EA0DDDD7D8EC0000000000000000092AC37F4538E9DC06016FA2522A2484000000000000000
310
0092AC37F453429EC06016FA2522A2484000000000000000000C0000000E000000FE00000084000000060000000500000092AC37F453429EC09D5EA0DDDD7D8EC0000000000000000092AC37F4538E9DC09D5EA0DDDD7D8EC0000000000000000092AC37F4538E9DC06016FA2522A24840000000000000000092AC37F45342
310
9EC06016FA2522A24840000000000000000092AC37F453429EC09D5EA0DDDD7D8EC00000000000000000
100
AcDbWipeout
 90
        0
 10
-1936.581986303242
 20
-975.7333328751442
 30
0.0
 11
45.0
 21
0.0
 31
0.0
 12
0.0
 22
1025.0
 32
0.0
 13
1.0
 23
1.0
340
0
 70
    15
280
     1
281
    50
282
    50
283
     0
360
0
 71
     2
 91
        5
 14
-0.5
 24
0.5000000000000001
 14
0.5
 24
0.5000000000000001
 14
0.5
 24
-0.5
 14
-0.5
 24
-0.5
 14
-0.5
 24
0.5000000000000001
  0
LWPOLYLINE
  5
70
330
1F
100
AcDbEntity
  8
0_Pen_No__7
  6
Continuous
100
AcDbPolyline
 90
        4
 70
   129
 43
0.0
 10
-1936.581986303242
 20
-975.7333328751442
 10
-1891.581986303242
 20
-975.7333328751442
 10
-1891.581986303242
 20
49.26666712485606
 10
-1936.581986303242
 20
49.26666712485606
  0
WIPEOUT
  5
71
330
1F
100
AcDbEntity
  8
0
  6
Wipeout_Contour
 62
   254
 48
9663.908428187788
370
     0
 92
      296
310
28010000060000000C0000000E000000120000000C00000016000000000000C20C00000014000000010000006C00000007000000040000008CD61BFA29EDA0C0AFD02F11114D944000000000000000008CD61BFA29EDA0C0B0D02F1111859340000000000000000017AD37F453429EC0B0D02F111185934000000000000000
310
0017AD37F453429EC0AFD02F11114D944000000000000000000C0000000E000000FE0000008400000006000000050000008CD61BFA29EDA0C0AFD02F11114D944000000000000000008CD61BFA29EDA0C0B0D02F1111859340000000000000000017AD37F453429EC0B0D02F1111859340000000000000000017AD37F45342
310
9EC0AFD02F11114D944000000000000000008CD61BFA29EDA0C0AFD02F11114D94400000000000000000
100
AcDbWipeout
 90
        0
 10
-2166.581986303272
 20
1249.266667124855
 30
0.0
 11
230.0000000000002
 21
0.0
 31
0.0
 12
0.0
 22
49.99999999999977
 32
0.0
 13
1.0
 23
1.0
340
0
 70
    15
280
     1
281
    50
282
    50
283
     0
360
0
 71
     2
 91
        5
 14
-0.4999999999999995
 24
-0.4999999999999977
 14
-0.4999999999999995
 24
0.5000000000000022
 14
0.5000000000000004
 24
0.5000000000000022
 14
0.5000000000000004
 24
-0.4999999999999977
 14
-0.4999999999999995
 24
-0.4999999999999977
  0
LWPOLYLINE
  5
72
330
1F
100
AcDbEntity
  8
0_Pen_No__7
  6
Continuous
100
AcDbPolyline
 90
        4
 70
   129
 43
0.0
 10
-2166.581986303272
 20
1299.266667124855
 10
-2166.581986303272
 20
1249.266667124855
 10
-1936.581986303272
 20
1249.266667124855
 10
-1936.581986303272
 20
1299.266667124855
  0
WIPEOUT
  5
73
330
1F
100
AcDbEntity
  8
0
  6
Wipeout_Contour
 62
   254
 48
8710.27842900556
370
     0
 92
      296
310
28010000060000000C0000000E000000120000000C00000016000000000000C20C00000014000000010000006C000000070000000400000017AD37F4538E9DC0B3D02F11114D9440000000000000000017AD37F4538E9DC0B0D02F1111859340000000000000000014AD37F4539299C0B0D02F111185934000000000000000
310
0014AD37F4539299C0B3D02F11114D944000000000000000000C0000000E000000FE00000084000000060000000500000017AD37F4538E9DC0B3D02F11114D9440000000000000000017AD37F4538E9DC0B0D02F1111859340000000000000000014AD37F4539299C0B0D02F1111859340000000000000000014AD37F45392
310
99C0B3D02F11114D9440000000000000000017AD37F4538E9DC0B3D02F11114D94400000000000000000
100
AcDbWipeout
 90
        0
 10
-1891.581986303272
 20
1249.266667124855
 30
0.0
 11
255.0000000000007
 21
0.0
 31
0.0
 12
0.0
 22
50.00000000000068
 32
0.0
 13
1.0
 23
1.0
340
0
 70
    15
280
     1
281
    50
282
    50
283
     0
360
0
 71
     2
 91
        5
 14
-0.4999999999999996
 24
-0.4999999999999977
 14
-0.4999999999999996
 24
0.5000000000000022
 14
0.5000000000000004
 24
0.5000000000000022
 14
0.5000000000000004
 24
-0.4999999999999977
 14
-0.4999999999999996
 24
-0.4999999999999977
  0
LWPOLYLINE
  5
74
330
1F
100
AcDbEntity
  8
0_Pen_No__7
  6
Continuous
100
AcDbPolyline
 90
        4
 70
   129
 43
0.0
 10
-1891.581986303272
 20
1299.266667124856
 10
-1891.581986303272
 20
1249.266667124855
 10
-1636.581986303271
 20
1249.266667124855
 10
-1636.581986303271
 20
1299.266667124856
  0
WIPEOUT
  5
75
330
1F
100
AcDbEntity
  8
0
  6
Wipeout_Contour
 62
   254
 48
6914.429620554597
370
     0
 92
      296
310
28010000060000000C0000000E000000120000000C00000016000000000000C20C00000014000000010000006C000000070000000400000019AD37F4532E94C0AFD02F11114D9440000000000000000019AD37F4532E94C0B0D02F1111859340000000000000000015AD37F4533290C0B0D02F111185934000000000000000
310
0015AD37F4533290C0AFD02F11114D944000000000000000000C0000000E000000FE00000084000000060000000500000019AD37F4532E94C0AFD02F11114D9440000000000000000019AD37F4532E94C0B0D02F1111859340000000000000000015AD37F4533290C0B0D02F1111859340000000000000000015AD37F45332
310
90C0AFD02F11114D9440000000000000000019AD37F4532E94C0AFD02F11114D94400000000000000000
100
AcDbWipeout
 90
        0
 10
-1291.581986303272
 20
1249.266667124855
 30
0.0
 11
255.0000000000009
 21
0.0
 31
0.0
 12
0.0
 22
49.99999999999977
 32
0.0
 13
1.0
 23
1.0
340
0
 70
    15
280
     1
281
    50
282
    50
283
     0
360
0
 71
     2
 91
        5
 14
-0.5
 24
-0.4999999999999977
 14
-0.5
 24
0.5000000000000022
 14
0.5
 24
0.5000000000000022
 14
0.5
 24
-0.4999999999999977
 14
-0.5
 24
-0.4999999999999977
  0
LWPOLYLINE
  5
76
330
1F
100
AcDbEntity
  8
0_Pen_No__7
  6
Continuous
100
AcDbPolyline
 90
        4
 70
   129
 43
0.0
 10
-1291.581986303272
 20
1299.266667124855
 10
-1291.581986303272
 20
1249.266667124855
 10
-1036.581986303271
 20
1249.266667124855
 10
-1036.581986303271
 20
1299.266667124855
  0
WIPEOUT
  5
77
330
1F
100
AcDbEntity
  8
0
  6
Wipeout_Contour
 62
   254
 48
7001.7609304157
370
     0
 92
      296
310
28010000060000000C0000000E000000120000000C00000016000000000000C20C00000014000000010000006C000000070000000400000097AC37F4539299C09D5EA0DDDD7D8EC0000000000000000097AC37F453DE98C09D5EA0DDDD7D8EC0000000000000000097AC37F453DE98C06016FA2522A2484000000000000000
310
0097AC37F4539299C06016FA2522A2484000000000000000000C0000000E000000FE00000084000000060000000500000097AC37F4539299C09D5EA0DDDD7D8EC0000000000000000097AC37F453DE98C09D5EA0DDDD7D8EC0000000000000000097AC37F453DE98C06016FA2522A24840000000000000000097AC37F45392
310
99C06016FA2522A24840000000000000000097AC37F4539299C09D5EA0DDDD7D8EC00000000000000000
100
AcDbWipeout
 90
        0
 10
-1636.581986303243
 20
-975.7333328751442
 30
0.0
 11
45.0
 21
0.0
 31
0.0
 12
0.0
 22
1025.0
 32
0.0
 13
1.0
 23
1.0
340
0
 70
    15
280
     1
281
    50
282
    50
283
     0
360
0
 71
     2
 91
        5
 14
-0.5
 24
0.5000000000000001
 14
0.5
 24
0.5000000000000001
 14
0.5
 24
-0.5
 14
-0.5
 24
-0.5
 14
-0.5
 24
0.5000000000000001
  0
LWPOLYLINE
  5
78
330
1F
100
AcDbEntity
  8
0_Pen_No__7
  6
Continuous
100
AcDbPolyline
 90
        4
 70
   129
 43
0.0
 10
-1636.581986303243
 20
-975.7333328751442
 10
-1591.581986303243
 20
-975.7333328751442
 10
-1591.581986303243
 20
49.26666712485606
 10
-1636.581986303243
 20
49.26666712485606
  0
WIPEOUT
  5
79
330
1F
100
AcDbEntity
  8
0
  6
Wipeout_Contour
 62
   254
 48
6111.34949402611
370
     0
 92
      296
310
28010000060000000C0000000E000000120000000C00000016000000000000C20C00000014000000010000006C000000070000000400000015AD37F4533290C09C5EA0DDDD7D8EC000000000000000002A5A6FE8A7FC8EC09C5EA0DDDD7D8EC000000000000000002A5A6FE8A7FC8EC0AED02F11114D944000000000000000
310
0015AD37F4533290C0AED02F11114D944000000000000000000C0000000E000000FE00000084000000060000000500000015AD37F4533290C09C5EA0DDDD7D8EC000000000000000002A5A6FE8A7FC8EC09C5EA0DDDD7D8EC000000000000000002A5A6FE8A7FC8EC0AED02F11114D9440000000000000000015AD37F45332
310
90C0AED02F11114D9440000000000000000015AD37F4533290C09C5EA0DDDD7D8EC00000000000000000
100
AcDbWipeout
 90
        0
 10
-1036.581986303271
 20
-975.7333328751442
 30
0.0
 11
45.0
 21
0.0
 31
0.0
 12
0.0
 22
2274.999999999999
 32
0.0
 13
1.0
 23
1.0
340
0
 70
    15
280
     1
281
    50
282
    50
283
     0
360
0
 71
     2
 91
        5
 14
-0.5
 24
0.5
 14
0.5
 24
0.5
 14
0.5
 24
-0.5
 14
-0.5
 24
-0.5
 14
-0.5
 24
0.5
  0
LWPOLYLINE
  5
7A
330
1F
100
AcDbEntity
  8
0_Pen_No__7
  6
Continuous
100
AcDbPolyline
 90
        4
 70
   129
 43
0.0
 10
-1036.581986303271
 20
-975.7333328751442
 10
-991.5819863032714
 20
-975.7333328751442
 10
-991.5819863032714
 20
1299.266667124855
 10
-1036.581986303271
 20
1299.266667124855
  0
WIPEOUT
  5
7B
330
1F
100
AcDbEntity
  8
0
  6
Wipeout_Contour
 62
   254
 48
7189.419048864784
370
     0
 92
      296
310
28010000060000000C0000000E000000120000000C00000016000000000000C20C00000014000000010000006C0000000700000004000000EC52C80BAC4D95409C5EA0DDDD7D8EC00000000000000000EC52C80BAC0196409C5EA0DDDD7D8EC00000000000000000EC52C80BAC019640AED02F11114D944000000000000000
310
00EC52C80BAC4D9540AED02F11114D944000000000000000000C0000000E000000FE000000840000000600000005000000EC52C80BAC4D95409C5EA0DDDD7D8EC00000000000000000EC52C80BAC0196409C5EA0DDDD7D8EC00000000000000000EC52C80BAC019640AED02F11114D94400000000000000000EC52C80BAC4D
310
9540AED02F11114D94400000000000000000EC52C80BAC4D95409C5EA0DDDD7D8EC00000000000000000
100
AcDbWipeout
 90
        0
 10
1363.418013696729
 20
-975.7333328751442
 30
0.0
 11
45.0
 21
0.0
 31
0.0
 12
0.0
 22
2274.999999999999
 32
0.0
 13
1.0
 23
1.0
340
0
 70
    15
280
     1
281
    50
282
    50
283
     0
360
0
 71
     2
 91
        5
 14
-0.5
 24
0.5
 14
0.5
 24
0.5
 14
0.5
 24
-0.5
 14
-0.5
 24
-0.5
 14
-0.5
 24
0.5
  0
LWPOLYLINE
  5
7C
330
1F
100
AcDbEntity
  8
0_Pen_No__7
  6
Continuous
100
AcDbPolyline
 90
        4
 70
   129
 43
0.0
 10
1363.418013696729
 20
-975.7333328751442
 10
1408.418013696729
 20
-975.7333328751442
 10
1408.418013696729
 20
1299.266667124855
 10
1363.418013696729
 20
1299.266667124855
  0
WIPEOUT
  5
7D
330
1F
100
AcDbEntity
  8
0
  6
Wipeout_Contour
 62
   254
 48
5543.100056632162
370
     0
 92
      296
310
28010000060000000C0000000E000000120000000C00000016000000000000C20C00000014000000010000006C0000000700000004000000DCA5901758DB87409C5EA0DDDD7D8EC00000000000000000DCA59017584389409C5EA0DDDD7D8EC00000000000000000DCA5901758438940AED02F11114D944000000000000000
310
00DCA5901758DB8740AED02F11114D944000000000000000000C0000000E000000FE000000840000000600000005000000DCA5901758DB87409C5EA0DDDD7D8EC00000000000000000DCA59017584389409C5EA0DDDD7D8EC00000000000000000DCA5901758438940AED02F11114D94400000000000000000DCA5901758DB
310
8740AED02F11114D94400000000000000000DCA5901758DB87409C5EA0DDDD7D8EC00000000000000000
100
AcDbWipeout
 90
        0
 10
763.4180136967293
 20
-975.7333328751442
 30
0.0
 11
45.0
 21
0.0
 31
0.0
 12
0.0
 22
2274.999999999999
 32
0.0
 13
1.0
 23
1.0
340
0
 70
    15
280
     1
281
    50
282
    50
283
     0
360
0
 71
     2
 91
        5
 14
-0.5
 24
0.5
 14
0.5
 24
0.5
 14
0.5
 24
-0.5
 14
-0.5
 24
-0.5
 14
-0.5
 24
0.5
  0
LWPOLYLINE
  5
7E
330
1F
100
AcDbEntity
  8
0_Pen_No__7
  6
Continuous
100
AcDbPolyline
 90
        4
 70
   129
 43
0.0
 10
763.4180136967293
 20
-975.7333328751442
 10
808.4180136967293
 20
-975.7333328751442
 10
808.4180136967293
 20
1299.266667124855
 10
763.4180136967293
 20
1299.266667124855
  0
WIPEOUT
  5
7F
330
1F
100
AcDbEntity
  8
0
  6
Wipeout_Contour
 62
   254
 48
4747.17908758717
370
     0
 92
      296
310
28010000060000000C0000000E000000120000000C00000016000000000000C20C00000014000000010000006C00000007000000040000007E97425E606D6440C0D02F111151904000000000000000003D97425E600D6A40C0D02F111151904000000000000000003D97425E600D6A40BBD02F11114D944000000000000000
310
007E97425E606D6440BBD02F11114D944000000000000000000C0000000E000000FE0000008400000006000000050000007E97425E606D6440C0D02F111151904000000000000000003D97425E600D6A40C0D02F111151904000000000000000003D97425E600D6A40BBD02F11114D944000000000000000007E97425E606D
310
6440BBD02F11114D944000000000000000007E97425E606D6440C0D02F11115190400000000000000000
100
AcDbWipeout
 90
        0
 10
163.4180136967297
 20
1044.266667124859
 30
0.0
 11
44.99999999999815
 21
0.0
 31
0.0
 12
0.0
 22
254.9999999999989
 32
0.0
 13
1.0
 23
1.0
340
0
 70
    15
280
     1
281
    50
282
    50
283
     0
360
0
 71
     2
 91
        5
 14
-0.5000000000000003
 24
0.5000000000000004
 14
0.4999999999999997
 24
0.5000000000000004
 14
0.4999999999999997
 24
-0.4999999999999996
 14
-0.5000000000000003
 24
-0.4999999999999996
 14
-0.5000000000000003
 24
0.5000000000000004
  0
LWPOLYLINE
  5
80
330
1F
100
AcDbEntity
  8
0_Pen_No__7
  6
Continuous
100
AcDbPolyline
 90
        4
 70
   129
 43
0.0
 10
163.4180136967297
 20
1044.266667124859
 10
208.4180136967279
 20
1044.266667124859
 10
208.4180136967279
 20
1299.266667124858
 10
163.4180136967297
 20
1299.266667124858
  0
WIPEOUT
  5
81
330
1F
100
AcDbEntity
  8
0
  6
Wipeout_Contour
 62
   254
 48
4710.377114732411
370
     0
 92
      296
310
28010000060000000C0000000E000000120000000C00000016000000000000C20C00000014000000010000006C00000007000000040000009B68BDA19F1261C0C0D02F111151904000000000000000003BD17A433FE556C0C0D02F111151904000000000000000003BD17A433FE556C0BBD02F11114D944000000000000000
310
009B68BDA19F1261C0BBD02F11114D944000000000000000000C0000000E000000FE0000008400000006000000050000009B68BDA19F1261C0C0D02F111151904000000000000000003BD17A433FE556C0C0D02F111151904000000000000000003BD17A433FE556C0BBD02F11114D944000000000000000009B68BDA19F12
310
61C0BBD02F11114D944000000000000000009B68BDA19F1261C0C0D02F11115190400000000000000000
100
AcDbWipeout
 90
        0
 10
-136.581986303271
 20
1044.266667124859
 30
0.0
 11
44.99999999999993
 21
0.0
 31
0.0
 12
0.0
 22
254.9999999999989
 32
0.0
 13
1.0
 23
1.0
340
0
 70
    15
280
     1
281
    50
282
    50
283
     0
360
0
 71
     2
 91
        5
 14
-0.5000000000000001
 24
0.5000000000000004
 14
0.4999999999999998
 24
0.5000000000000004
 14
0.4999999999999998
 24
-0.4999999999999996
 14
-0.5000000000000001
 24
-0.4999999999999996
 14
-0.5000000000000001
 24
0.5000000000000004
  0
LWPOLYLINE
  5
82
330
1F
100
AcDbEntity
  8
0_Pen_No__7
  6
Continuous
100
AcDbPolyline
 90
        4
 70
   129
 43
0.0
 10
-136.581986303271
 20
1044.266667124859
 10
-91.58198630327108
 20
1044.266667124859
 10
-91.58198630327108
 20
1299.266667124858
 10
-136.581986303271
 20
1299.266667124858
  0
WIPEOUT
  5
83
330
1F
100
AcDbEntity
  8
0
  6
Wipeout_Contour
 62
   254
 48
7967.618693836544
370
     0
 92
      296
310
28010000060000000C0000000E000000120000000C00000016000000000000C20C00000014000000010000006C000000070000000400000014AD37F4539299C0B6D02F1111019040000000000000000014AD37F453DE98C0B6D02F1111019040000000000000000014AD37F453DE98C0B3D02F11114D944000000000000000
310
0014AD37F4539299C0B3D02F11114D944000000000000000000C0000000E000000FE00000084000000060000000500000014AD37F4539299C0B6D02F1111019040000000000000000014AD37F453DE98C0B6D02F1111019040000000000000000014AD37F453DE98C0B3D02F11114D9440000000000000000014AD37F45392
310
99C0B3D02F11114D9440000000000000000014AD37F4539299C0B6D02F11110190400000000000000000
100
AcDbWipeout
 90
        0
 10
-1636.581986303271
 20
1024.266667124857
 30
0.0
 11
45.0
 21
0.0
 31
0.0
 12
0.0
 22
274.9999999999993
 32
0.0
 13
1.0
 23
1.0
340
0
 70
    15
280
     1
281
    50
282
    50
283
     0
360
0
 71
     2
 91
        5
 14
-0.5
 24
0.4999999999999996
 14
0.5
 24
0.4999999999999996
 14
0.5
 24
-0.5000000000000004
 14
-0.5
 24
-0.5000000000000004
 14
-0.5
 24
0.4999999999999996
  0
LWPOLYLINE
  5
84
330
1F
100
AcDbEntity
  8
0_Pen_No__7
  6
Continuous
100
AcDbPolyline
 90
        4
 70
   129
 43
0.0
 10
-1636.581986303271
 20
1024.266667124857
 10
-1591.581986303271
 20
1024.266667124857
 10
-1591.581986303271
 20
1299.266667124856
 10
-1636.581986303271
 20
1299.266667124856
  0
WIPEOUT
  5
85
330
1F
100
AcDbEntity
  8
0
  6
Wipeout_Contour
 62
   254
 48
7771.48118495234
370
     0
 92
      296
310
28010000060000000C0000000E000000120000000C00000016000000000000C20C00000014000000010000006C000000070000000400000014AD37F453DE98C0AFD02F11114D9440000000000000000014AD37F453DE98C0B0D02F1111859340000000000000000011AD37F453E294C0B0D02F111185934000000000000000
310
0011AD37F453E294C0AFD02F11114D944000000000000000000C0000000E000000FE00000084000000060000000500000014AD37F453DE98C0AFD02F11114D9440000000000000000014AD37F453DE98C0B0D02F1111859340000000000000000011AD37F453E294C0B0D02F1111859340000000000000000011AD37F453E2
310
94C0AFD02F11114D9440000000000000000014AD37F453DE98C0AFD02F11114D94400000000000000000
100
AcDbWipeout
 90
        0
 10
-1591.581986303271
 20
1249.266667124855
 30
0.0
 11
255.0000000000007
 21
0.0
 31
0.0
 12
0.0
 22
49.99999999999977
 32
0.0
 13
1.0
 23
1.0
340
0
 70
    15
280
     1
281
    50
282
    50
283
     0
360
0
 71
     2
 91
        5
 14
-0.5000000000000004
 24
-0.4999999999999977
 14
-0.5000000000000004
 24
0.5000000000000022
 14
0.4999999999999996
 24
0.5000000000000022
 14
0.4999999999999996
 24
-0.4999999999999977
 14
-0.5000000000000004
 24
-0.4999999999999977
  0
LWPOLYLINE
  5
86
330
1F
100
AcDbEntity
  8
0_Pen_No__7
  6
Continuous
100
AcDbPolyline
 90
        4
 70
   129
 43
0.0
 10
-1591.581986303271
 20
1299.266667124855
 10
-1591.581986303271
 20
1249.266667124855
 10
-1336.58198630327
 20
1249.266667124855
 10
-1336.58198630327
 20
1299.266667124855
  0
WIPEOUT
  5
87
330
1F
100
AcDbEntity
  8
0
  6
Wipeout_Contour
 62
   254
 48
6173.256572453156
370
     0
 92
      296
310
28010000060000000C0000000E000000120000000C00000016000000000000C20C00000014000000010000006C00000007000000040000002A5A6FE8A7FC8EC0AFD02F11114D944000000000000000002A5A6FE8A7FC8EC0B0D02F11118593400000000000000000245A6FE8A70487C0B0D02F111185934000000000000000
310
00245A6FE8A70487C0AFD02F11114D944000000000000000000C0000000E000000FE0000008400000006000000050000002A5A6FE8A7FC8EC0AFD02F11114D944000000000000000002A5A6FE8A7FC8EC0B0D02F11118593400000000000000000245A6FE8A70487C0B0D02F11118593400000000000000000245A6FE8A704
310
87C0AFD02F11114D944000000000000000002A5A6FE8A7FC8EC0AFD02F11114D94400000000000000000
100
AcDbWipeout
 90
        0
 10
-991.5819863032714
 20
1249.266667124855
 30
0.0
 11
255.0000000000007
 21
0.0
 31
0.0
 12
0.0
 22
49.99999999999977
 32
0.0
 13
1.0
 23
1.0
340
0
 70
    15
280
     1
281
    50
282
    50
283
     0
360
0
 71
     2
 91
        5
 14
-0.5
 24
-0.4999999999999977
 14
-0.5
 24
0.5000000000000022
 14
0.5
 24
0.5000000000000022
 14
0.5
 24
-0.4999999999999977
 14
-0.5
 24
-0.4999999999999977
  0
LWPOLYLINE
  5
88
330
1F
100
AcDbEntity
  8
0_Pen_No__7
  6
Continuous
100
AcDbPolyline
 90
        4
 70
   129
 43
0.0
 10
-991.5819863032714
 20
1299.266667124855
 10
-991.5819863032714
 20
1249.266667124855
 10
-736.5819863032707
 20
1249.266667124855
 10
-736.5819863032707
 20
1299.266667124855
  0
WIPEOUT
  5
89
330
1F
100
AcDbEntity
  8
0
  6
Wipeout_Contour
 62
   254
 48
5215.109240426365
370
     0
 92
      296
310
28010000060000000C0000000E000000120000000C00000016000000000000C20C00000014000000010000006C000000070000000400000055B4DED04FE976C0AFD02F11114D9440000000000000000055B4DED04FE976C0B0D02F111185934000000000000000009B68BDA19F1261C0B0D02F111185934000000000000000
310
009B68BDA19F1261C0AFD02F11114D944000000000000000000C0000000E000000FE00000084000000060000000500000055B4DED04FE976C0AFD02F11114D9440000000000000000055B4DED04FE976C0B0D02F111185934000000000000000009B68BDA19F1261C0B0D02F111185934000000000000000009B68BDA19F12
310
61C0AFD02F11114D9440000000000000000055B4DED04FE976C0AFD02F11114D94400000000000000000
100
AcDbWipeout
 90
        0
 10
-366.5819863032714
 20
1249.266667124855
 30
0.0
 11
230.0000000000004
 21
0.0
 31
0.0
 12
0.0
 22
49.99999999999977
 32
0.0
 13
1.0
 23
1.0
340
0
 70
    15
280
     1
281
    50
282
    50
283
     0
360
0
 71
     2
 91
        5
 14
-0.5000000000000001
 24
-0.4999999999999977
 14
-0.5000000000000001
 24
0.5000000000000022
 14
0.4999999999999999
 24
0.5000000000000022
 14
0.4999999999999999
 24
-0.4999999999999977
 14
-0.5000000000000001
 24
-0.4999999999999977
  0
LWPOLYLINE
  5
8A
330
1F
100
AcDbEntity
  8
0_Pen_No__7
  6
Continuous
100
AcDbPolyline
 90
        4
 70
   129
 43
0.0
 10
-366.5819863032714
 20
1299.266667124855
 10
-366.5819863032714
 20
1249.266667124855
 10
-136.581986303271
 20
1249.266667124855
 10
-136.581986303271
 20
1299.266667124855
  0
WIPEOUT
  5
8B
330
1F
100
AcDbEntity
  8
0
  6
Wipeout_Contour
 62
   254
 48
5124.516423317546
370
     0
 92
      296
310
28010000060000000C0000000E000000120000000C00000016000000000000C20C00000014000000010000006C00000007000000040000003BD17A433FE556C0AFD02F11114D944000000000000000003BD17A433FE556C0B0D02F111185934000000000000000007E97425E606D6440B0D02F111185934000000000000000
310
007E97425E606D6440AFD02F11114D944000000000000000000C0000000E000000FE0000008400000006000000050000003BD17A433FE556C0AFD02F11114D944000000000000000003BD17A433FE556C0B0D02F111185934000000000000000007E97425E606D6440B0D02F111185934000000000000000007E97425E606D
310
6440AFD02F11114D944000000000000000003BD17A433FE556C0AFD02F11114D94400000000000000000
100
AcDbWipeout
 90
        0
 10
-91.58198630327108
 20
1249.266667124855
 30
0.0
 11
255.0000000000008
 21
0.0
 31
0.0
 12
0.0
 22
49.99999999999977
 32
0.0
 13
1.0
 23
1.0
340
0
 70
    15
280
     1
281
    50
282
    50
283
     0
360
0
 71
     2
 91
        5
 14
-0.5
 24
-0.4999999999999977
 14
-0.5
 24
0.5000000000000022
 14
0.5
 24
0.5000000000000022
 14
0.5
 24
-0.4999999999999977
 14
-0.5
 24
-0.4999999999999977
  0
LWPOLYLINE
  5
8C
330
1F
100
AcDbEntity
  8
0_Pen_No__7
  6
Continuous
100
AcDbPolyline
 90
        4
 70
   129
 43
0.0
 10
-91.58198630327108
 20
1299.266667124855
 10
-91.58198630327108
 20
1249.266667124855
 10
163.4180136967297
 20
1249.266667124855
 10
163.4180136967297
 20
1299.266667124855
  0
WIPEOUT
  5
8D
330
1F
100
AcDbEntity
  8
0
  6
Wipeout_Contour
 62
   254
 48
5294.242382267623
370
     0
 92
      296
310
28010000060000000C0000000E000000120000000C00000016000000000000C20C00000014000000010000006C00000007000000040000003D97425E600D6A40B3D02F11114D944000000000000000003D97425E600D6A40B0D02F11118593400000000000000000AC4B212FB0F67C40B0D02F111185934000000000000000
310
00AC4B212FB0F67C40B3D02F11114D944000000000000000000C0000000E000000FE0000008400000006000000050000003D97425E600D6A40B3D02F11114D944000000000000000003D97425E600D6A40B0D02F11118593400000000000000000AC4B212FB0F67C40B0D02F11118593400000000000000000AC4B212FB0F6
310
7C40B3D02F11114D944000000000000000003D97425E600D6A40B3D02F11114D94400000000000000000
100
AcDbWipeout
 90
        0
 10
208.4180136967279
 20
1249.266667124855
 30
0.0
 11
255.0000000000008
 21
0.0
 31
0.0
 12
0.0
 22
50.00000000000068
 32
0.0
 13
1.0
 23
1.0
340
0
 70
    15
280
     1
281
    50
282
    50
283
     0
360
0
 71
     2
 91
        5
 14
-0.4999999999999999
 24
-0.4999999999999977
 14
-0.4999999999999999
 24
0.5000000000000022
 14
0.5000000000000001
 24
0.5000000000000022
 14
0.5000000000000001
 24
-0.4999999999999977
 14
-0.4999999999999999
 24
-0.4999999999999977
  0
LWPOLYLINE
  5
8E
330
1F
100
AcDbEntity
  8
0_Pen_No__7
  6
Continuous
100
AcDbPolyline
 90
        4
 70
   129
 43
0.0
 10
208.4180136967279
 20
1299.266667124856
 10
208.4180136967279
 20
1249.266667124855
 10
463.4180136967286
 20
1249.266667124855
 10
463.4180136967286
 20
1299.266667124856
  0
WIPEOUT
  5
8F
330
1F
100
AcDbEntity
  8
0
  6
Wipeout_Contour
 62
   254
 48
5608.060233295421
370
     0
 92
      296
310
28010000060000000C0000000E000000120000000C00000016000000000000C20C00000014000000010000006C0000000700000004000000AB4B212FB0C67F40B3D02F11114D94400000000000000000AB4B212FB0C67F40B0D02F11118593400000000000000000D2A59017586B8440B0D02F111185934000000000000000
310
00D2A59017586B8440B3D02F11114D944000000000000000000C0000000E000000FE000000840000000600000005000000AB4B212FB0C67F40B3D02F11114D94400000000000000000AB4B212FB0C67F40B0D02F11118593400000000000000000D2A59017586B8440B0D02F11118593400000000000000000D2A59017586B
310
8440B3D02F11114D94400000000000000000AB4B212FB0C67F40B3D02F11114D94400000000000000000
100
AcDbWipeout
 90
        0
 10
508.4180136967286
 20
1249.266667124855
 30
0.0
 11
144.9999999999996
 21
0.0
 31
0.0
 12
0.0
 22
50.00000000000068
 32
0.0
 13
1.0
 23
1.0
340
0
 70
    15
280
     1
281
    50
282
    50
283
     0
360
0
 71
     2
 91
        5
 14
-0.5000000000000002
 24
-0.4999999999999977
 14
-0.5000000000000002
 24
0.5000000000000022
 14
0.4999999999999998
 24
0.5000000000000022
 14
0.4999999999999998
 24
-0.4999999999999977
 14
-0.5000000000000002
 24
-0.4999999999999977
  0
LWPOLYLINE
  5
90
330
1F
100
AcDbEntity
  8
0_Pen_No__7
  6
Continuous
100
AcDbPolyline
 90
        4
 70
   129
 43
0.0
 10
508.4180136967286
 20
1299.266667124856
 10
508.4180136967286
 20
1249.266667124855
 10
653.4180136967282
 20
1249.266667124855
 10
653.4180136967282
 20
1299.266667124856
  0
WIPEOUT
  5
91
330
1F
100
AcDbEntity
  8
0
  6
Wipeout_Contour
 62
   254
 48
9003.523640317233
370
     0
 92
      296
310
28010000060000000C0000000E000000120000000C00000016000000000000C20C00000014000000010000006C0000000700000004000000D33171D4A480A0C037C0399355BA8CC00000000000000000CF5D51045C89A0C041ED84E9CF488EC0000000000000000008F8318700BD9EC0FCFC062866B18EC000000000000000
310
0011A0712792AB9EC0F2CFBBD1EB228DC000000000000000000C0000000E000000FE000000840000000600000005000000D33171D4A480A0C037C0399355BA8CC00000000000000000CF5D51045C89A0C041ED84E9CF488EC0000000000000000008F8318700BD9EC0FCFC062866B18EC0000000000000000011A0712792AB
310
9EC0F2CFBBD1EB228DC00000000000000000D33171D4A480A0C037C0399355BA8CC00000000000000000
100
AcDbWipeout
 90
        0
 10
-2116.679720442487
 20
-982.1748810335116
 30
0.0
 11
153.7869918511453
 21
0.0
 31
0.0
 12
0.0
 22
62.8830963167353
 32
0.0
 13
1.0
 23
1.0
340
0
 70
    15
280
     1
281
    50
282
    50
283
     0
360
0
 71
     2
 91
        5
 14
-0.4716634867167324
 24
-0.5000000000000009
 14
-0.4999999999999993
 24
0.2921005456490328
 14
0.4716634867167353
 24
0.4999999999999991
 14
0.5000000000000008
 24
-0.2921005456490346
 14
-0.4716634867167324
 24
-0.5000000000000009
  0
LWPOLYLINE
  5
92
330
1F
100
AcDbEntity
  8
0_Pen_No__7
  6
Continuous
100
AcDbPolyline
 90
        4
 70
   129
 43
0.0
 10
-2112.321933305103
 20
-919.2917847167763
 10
-2116.679720442487
 20
-969.1015196213631
 10
-1967.250515728725
 20
-982.1748810335116
 10
-1962.892728591342
 20
-932.3651461289248
  0
WIPEOUT
  5
93
330
1F
100
AcDbEntity
  8
0
  6
Wipeout_Contour
 62
   254
 48
8029.237780575596
370
     0
 92
      296
310
28010000060000000C0000000E000000120000000C00000016000000000000C20C00000014000000010000006C00000007000000040000002663E2A849BF9CC037C0399355BA8CC000000000000000001DBBA208B8D09CC041ED84E9CF488EC0000000000000000087F73187007B9AC0FCFC062866B18EC000000000000000
310
00989F712792699AC0F2CFBBD1EB228DC000000000000000000C0000000E000000FE0000008400000006000000050000002663E2A849BF9CC037C0399355BA8CC000000000000000001DBBA208B8D09CC041ED84E9CF488EC0000000000000000087F73187007B9AC0FCFC062866B18EC00000000000000000989F71279269
310
9AC0F2CFBBD1EB228DC000000000000000002663E2A849BF9CC037C0399355BA8CC00000000000000000
100
AcDbWipeout
 90
        0
 10
-1844.179720442458
 20
-982.1748810335116
 30
0.0
 11
153.7869918511435
 21
0.0
 31
0.0
 12
0.0
 22
62.8830963167353
 32
0.0
 13
1.0
 23
1.0
340
0
 70
    15
280
     1
281
    50
282
    50
283
     0
360
0
 71
     2
 91
        5
 14
-0.471663486716735
 24
-0.5000000000000009
 14
-0.5000000000000008
 24
0.2921005456490328
 14
0.4716634867167454
 24
0.4999999999999991
 14
0.4999999999999993
 24
-0.2921005456490346
 14
-0.471663486716735
 24
-0.5000000000000009
  0
LWPOLYLINE
  5
94
330
1F
100
AcDbEntity
  8
0_Pen_No__7
  6
Continuous
100
AcDbPolyline
 90
        4
 70
   129
 43
0.0
 10
-1839.821933305074
 20
-919.2917847167763
 10
-1844.179720442458
 20
-969.1015196213631
 10
-1694.750515728696
 20
-982.1748810335116
 10
-1690.392728591314
 20
-932.3651461289248
  0
WIPEOUT
  5
95
330
1F
100
AcDbEntity
  8
0
  6
Wipeout_Contour
 62
   254
 48
6996.343578725598
370
     0
 92
      296
310
28010000060000000C0000000E000000120000000C00000016000000000000C20C00000014000000010000006C00000007000000040000002B63E2A8490F98C037C0399355BA8CC0000000000000000022BBA208B82098C041ED84E9CF488EC000000000000000008CF7318700CB95C0FCFC062866B18EC000000000000000
310
00949F712792B995C0F2CFBBD1EB228DC000000000000000000C0000000E000000FE0000008400000006000000050000002B63E2A8490F98C037C0399355BA8CC0000000000000000022BBA208B82098C041ED84E9CF488EC000000000000000008CF7318700CB95C0FCFC062866B18EC00000000000000000949F712792B9
310
95C0F2CFBBD1EB228DC000000000000000002B63E2A8490F98C037C0399355BA8CC00000000000000000
100
AcDbWipeout
 90
        0
 10
-1544.179720442459
 20
-982.1748810335116
 30
0.0
 11
153.7869918511456
 21
0.0
 31
0.0
 12
0.0
 22
62.8830963167353
 32
0.0
 13
1.0
 23
1.0
340
0
 70
    15
280
     1
281
    50
282
    50
283
     0
360
0
 71
     2
 91
        5
 14
-0.4716634867167346
 24
-0.5000000000000009
 14
-0.5
 24
0.2921005456490328
 14
0.4716634867167331
 24
0.4999999999999991
 14
0.5
 24
-0.2921005456490346
 14
-0.4716634867167346
 24
-0.5000000000000009
  0
LWPOLYLINE
  5
96
330
1F
100
AcDbEntity
  8
0_Pen_No__7
  6
Continuous
100
AcDbPolyline
 90
        4
 70
   129
 43
0.0
 10
-1539.821933305075
 20
-919.2917847167763
 10
-1544.179720442459
 20
-969.1015196213631
 10
-1394.750515728697
 20
-982.1748810335116
 10
-1390.392728591313
 20
-932.3651461289248
  0
WIPEOUT
  5
97
330
1F
100
AcDbEntity
  8
0
  6
Wipeout_Contour
 62
   254
 48
6018.158294760247
370
     0
 92
      296
310
28010000060000000C0000000E000000120000000C00000016000000000000C20C00000014000000010000006C0000000700000004000000A763E2A8495593C037C0399355BA8CC000000000000000009EBBA208B86693C041ED84E9CF488EC0000000000000000008F83187001191C0FCFC062866B18EC000000000000000
310
0011A0712792FF90C0F2CFBBD1EB228DC000000000000000000C0000000E000000FE000000840000000600000005000000A763E2A8495593C037C0399355BA8CC000000000000000009EBBA208B86693C041ED84E9CF488EC0000000000000000008F83187001191C0FCFC062866B18EC0000000000000000011A0712792FF
310
90C0F2CFBBD1EB228DC00000000000000000A763E2A8495593C037C0399355BA8CC00000000000000000
100
AcDbWipeout
 90
        0
 10
-1241.679720442487
 20
-982.1748810335116
 30
0.0
 11
153.7869918511453
 21
0.0
 31
0.0
 12
0.0
 22
62.8830963167353
 32
0.0
 13
1.0
 23
1.0
340
0
 70
    15
280
     1
281
    50
282
    50
283
     0
360
0
 71
     2
 91
        5
 14
-0.4716634867167339
 24
-0.5000000000000009
 14
-0.4999999999999993
 24
0.2921005456490328
 14
0.4716634867167353
 24
0.4999999999999991
 14
0.5000000000000008
 24
-0.2921005456490346
 14
-0.4716634867167339
 24
-0.5000000000000009
  0
LWPOLYLINE
  5
98
330
1F
100
AcDbEntity
  8
0_Pen_No__7
  6
Continuous
100
AcDbPolyline
 90
        4
 70
   129
 43
0.0
 10
-1237.321933305104
 20
-919.2917847167763
 10
-1241.679720442487
 20
-969.1015196213631
 10
-1092.250515728725
 20
-982.1748810335116
 10
-1087.892728591342
 20
-932.3651461289248
  0
WIPEOUT
  5
99
330
1F
100
AcDbEntity
  8
0
  6
Wipeout_Contour
 62
   254
 48
5146.65003714371
370
     0
 92
      296
310
28010000060000000C0000000E000000120000000C00000016000000000000C20C00000014000000010000006C000000070000000400000056C7C451934A8DC037C0399355BA8CC0000000000000000035774511706D8DC041ED84E9CF488EC0000000000000000018F0630E01C288C0FCFC062866B18EC000000000000000
310
002940E34E249F88C0F2CFBBD1EB228DC000000000000000000C0000000E000000FE00000084000000060000000500000056C7C451934A8DC037C0399355BA8CC0000000000000000035774511706D8DC041ED84E9CF488EC0000000000000000018F0630E01C288C0FCFC062866B18EC000000000000000002940E34E249F
310
88C0F2CFBBD1EB228DC0000000000000000056C7C451934A8DC037C0399355BA8CC00000000000000000
100
AcDbWipeout
 90
        0
 10
-941.6797204424862
 20
-982.1748810335116
 30
0.0
 11
153.7869918511437
 21
0.0
 31
0.0
 12
0.0
 22
62.8830963167353
 32
0.0
 13
1.0
 23
1.0
340
0
 70
    15
280
     1
281
    50
282
    50
283
     0
360
0
 71
     2
 91
        5
 14
-0.4716634867167454
 24
-0.5000000000000009
 14
-0.5
 24
0.2921005456490328
 14
0.4716634867167335
 24
0.4999999999999991
 14
0.5
 24
-0.2921005456490346
 14
-0.4716634867167454
 24
-0.5000000000000009
  0
LWPOLYLINE
  5
9A
330
1F
100
AcDbEntity
  8
0_Pen_No__7
  6
Continuous
100
AcDbPolyline
 90
        4
 70
   129
 43
0.0
 10
-937.3219333051045
 20
-919.2917847167763
 10
-941.6797204424862
 20
-969.1015196213631
 10
-792.250515728726
 20
-982.1748810335116
 10
-787.8927285913425
 20
-932.3651461289248
  0
WIPEOUT
  5
9B
330
1F
100
AcDbEntity
  8
0
  6
Wipeout_Contour
 62
   254
 48
4431.755281114053
370
     0
 92
      296
310
28010000060000000C0000000E000000120000000C00000016000000000000C20C00000014000000010000006C000000070000000400000050C7C45193EA83C037C0399355BA8CC000000000000000003E774511700D84C041ED84E9CF488EC0000000000000000023E0C71C02C47EC0FCFC062866B18EC000000000000000
310
004680C69D487E7EC0F2CFBBD1EB228DC000000000000000000C0000000E000000FE00000084000000060000000500000050C7C45193EA83C037C0399355BA8CC000000000000000003E774511700D84C041ED84E9CF488EC0000000000000000023E0C71C02C47EC0FCFC062866B18EC000000000000000004680C69D487E
310
7EC0F2CFBBD1EB228DC0000000000000000050C7C45193EA83C037C0399355BA8CC00000000000000000
100
AcDbWipeout
 90
        0
 10
-641.6797204424872
 20
-982.1748810335116
 30
0.0
 11
153.7869918511454
 21
0.0
 31
0.0
 12
0.0
 22
62.8830963167353
 32
0.0
 13
1.0
 23
1.0
340
0
 70
    15
280
     1
281
    50
282
    50
283
     0
360
0
 71
     2
 91
        5
 14
-0.471663486716735
 24
-0.5000000000000009
 14
-0.5000000000000003
 24
0.2921005456490328
 14
0.4716634867167339
 24
0.4999999999999991
 14
0.4999999999999996
 24
-0.2921005456490346
 14
-0.471663486716735
 24
-0.5000000000000009
  0
LWPOLYLINE
  5
9C
330
1F
100
AcDbEntity
  8
0_Pen_No__7
  6
Continuous
100
AcDbPolyline
 90
        4
 70
   129
 43
0.0
 10
-637.3219333051038
 20
-919.2917847167763
 10
-641.6797204424872
 20
-969.1015196213631
 10
-492.2505157287252
 20
-982.1748810335116
 10
-487.8927285913418
 20
-932.3651461289248
  0
WIPEOUT
  5
9D
330
1F
100
AcDbEntity
  8
0
  6
Wipeout_Contour
 62
   254
 48
5338.607095423558
370
     0
 92
      296
310
28010000060000000C0000000E000000120000000C00000016000000000000C20C00000014000000010000006C0000000700000004000000B0383BAE6CF58A4037C0399355BA8CC00000000000000000C288BAEE8FD28A4041ED84E9CF488EC00000000000000000EE0F9CF1FE7D8F40FCFC062866B18EC000000000000000
310
00DCBF1CB1DBA08F40F2CFBBD1EB228DC000000000000000000C0000000E000000FE000000840000000600000005000000B0383BAE6CF58A4037C0399355BA8CC00000000000000000C288BAEE8FD28A4041ED84E9CF488EC00000000000000000EE0F9CF1FE7D8F40FCFC062866B18EC00000000000000000DCBF1CB1DBA0
310
8F40F2CFBBD1EB228DC00000000000000000B0383BAE6CF58A4037C0399355BA8CC00000000000000000
100
AcDbWipeout
 90
        0
 10
858.3202795575128
 20
-982.1748810335116
 30
0.0
 11
153.7869918511453
 21
0.0
 31
0.0
 12
0.0
 22
62.8830963167353
 32
0.0
 13
1.0
 23
1.0
340
0
 70
    15
280
     1
281
    50
282
    50
283
     0
360
0
 71
     2
 91
        5
 14
-0.4716634867167346
 24
-0.5000000000000009
 14
-0.5
 24
0.2921005456490328
 14
0.4716634867167346
 24
0.4999999999999991
 14
0.5
 24
-0.2921005456490346
 14
-0.4716634867167346
 24
-0.5000000000000009
  0
LWPOLYLINE
  5
9E
330
1F
100
AcDbEntity
  8
0_Pen_No__7
  6
Continuous
100
AcDbPolyline
 90
        4
 70
   129
 43
0.0
 10
862.6780666948962
 20
-919.2917847167763
 10
858.3202795575128
 20
-969.1015196213631
 10
1007.749484271275
 20
-982.1748810335116
 10
1012.107271408658
 20
-932.3651461289248
  0
WIPEOUT
  5
9F
330
1F
100
AcDbEntity
  8
0
  6
Wipeout_Contour
 62
   254
 48
6237.647096615042
370
     0
 92
      296
310
28010000060000000C0000000E000000120000000C00000016000000000000C20C00000014000000010000006C00000007000000040000005B9C1D57B62A924037C0399355BA8CC0000000000000000064445DF74719924041ED84E9CF488EC00000000000000000FA07CE78FF6E9440FCFC062866B18EC000000000000000
310
00E95F8ED86D809440F2CFBBD1EB228DC000000000000000000C0000000E000000FE0000008400000006000000050000005B9C1D57B62A924037C0399355BA8CC0000000000000000064445DF74719924041ED84E9CF488EC00000000000000000FA07CE78FF6E9440FCFC062866B18EC00000000000000000E95F8ED86D80
310
9440F2CFBBD1EB228DC000000000000000005B9C1D57B62A924037C0399355BA8CC00000000000000000
100
AcDbWipeout
 90
        0
 10
1158.320279557513
 20
-982.1748810335116
 30
0.0
 11
153.7869918511435
 21
0.0
 31
0.0
 12
0.0
 22
62.8830963167353
 32
0.0
 13
1.0
 23
1.0
340
0
 70
    15
280
     1
281
    50
282
    50
283
     0
360
0
 71
     2
 91
        5
 14
-0.4716634867167335
 24
-0.5000000000000009
 14
-0.4999999999999993
 24
0.2921005456490328
 14
0.4716634867167468
 24
0.4999999999999991
 14
0.5000000000000008
 24
-0.2921005456490346
 14
-0.4716634867167335
 24
-0.5000000000000009
  0
LWPOLYLINE
  5
A0
330
1F
100
AcDbEntity
  8
0_Pen_No__7
  6
Continuous
100
AcDbPolyline
 90
        4
 70
   129
 43
0.0
 10
1162.678066694897
 20
-919.2917847167763
 10
1158.320279557513
 20
-969.1015196213631
 10
1307.749484271275
 20
-982.1748810335116
 10
1312.107271408657
 20
-932.3651461289248
  0
WIPEOUT
  5
A1
330
1F
100
AcDbEntity
  8
0
  6
Wipeout_Contour
 62
   254
 48
7224.905608609385
370
     0
 92
      296
310
28010000060000000C0000000E000000120000000C00000016000000000000C20C00000014000000010000006C0000000700000004000000569C1D57B6DA964037C0399355BA8CC000000000000000005F445DF747C9964041ED84E9CF488EC00000000000000000F507CE78FF1E9940FCFC062866B18EC000000000000000
310
00EC5F8ED86D309940F2CFBBD1EB228DC000000000000000000C0000000E000000FE000000840000000600000005000000569C1D57B6DA964037C0399355BA8CC000000000000000005F445DF747C9964041ED84E9CF488EC00000000000000000F507CE78FF1E9940FCFC062866B18EC00000000000000000EC5F8ED86D30
310
9940F2CFBBD1EB228DC00000000000000000569C1D57B6DA964037C0399355BA8CC00000000000000000
100
AcDbWipeout
 90
        0
 10
1458.320279557512
 20
-982.1748810335116
 30
0.0
 11
153.7869918511453
 21
0.0
 31
0.0
 12
0.0
 22
62.8830963167353
 32
0.0
 13
1.0
 23
1.0
340
0
 70
    15
280
     1
281
    50
282
    50
283
     0
360
0
 71
     2
 91
        5
 14
-0.4716634867167353
 24
-0.5000000000000009
 14
-0.5000000000000008
 24
0.2921005456490328
 14
0.4716634867167339
 24
0.4999999999999991
 14
0.4999999999999993
 24
-0.2921005456490346
 14
-0.4716634867167353
 24
-0.5000000000000009
  0
LWPOLYLINE
  5
A2
330
1F
100
AcDbEntity
  8
0_Pen_No__7
  6
Continuous
100
AcDbPolyline
 90
        4
 70
   129
 43
0.0
 10
1462.678066694896
 20
-919.2917847167763
 10
1458.320279557512
 20
-969.1015196213631
 10
1607.749484271274
 20
-982.1748810335116
 10
1612.107271408658
 20
-932.3651461289248
  0
WIPEOUT
  5
A3
330
1F
100
AcDbEntity
  8
0
  6
Wipeout_Contour
 62
   254
 48
8599.807373795451
370
     0
 92
      296
310
28010000060000000C0000000E000000120000000C00000016000000000000C20C00000014000000010000006C00000007000000040000007D76668EC0FD9C4037C0399355BA8CC00000000000000000861EA62E52EC9C4041ED84E9CF488EC000000000000000001CE216B009429F40FCFC062866B18EC000000000000000
310
00133AD70F78539F40F2CFBBD1EB228DC000000000000000000C0000000E000000FE0000008400000006000000050000007D76668EC0FD9C4037C0399355BA8CC00000000000000000861EA62E52EC9C4041ED84E9CF488EC000000000000000001CE216B009429F40FCFC062866B18EC00000000000000000133AD70F7853
310
9F40F2CFBBD1EB228DC000000000000000007D76668EC0FD9C4037C0399355BA8CC00000000000000000
100
AcDbWipeout
 90
        0
 10
1851.080256076444
 20
-982.1748810335116
 30
0.0
 11
153.7869918511453
 21
0.0
 31
0.0
 12
0.0
 22
62.8830963167353
 32
0.0
 13
1.0
 23
1.0
340
0
 70
    15
280
     1
281
    50
282
    50
283
     0
360
0
 71
     2
 91
        5
 14
-0.4716634867167339
 24
-0.5000000000000009
 14
-0.4999999999999993
 24
0.2921005456490328
 14
0.4716634867167353
 24
0.4999999999999991
 14
0.5000000000000008
 24
-0.2921005456490346
 14
-0.4716634867167339
 24
-0.5000000000000009
  0
LWPOLYLINE
  5
A4
330
1F
100
AcDbEntity
  8
0_Pen_No__7
  6
Continuous
100
AcDbPolyline
 90
        4
 70
   129
 43
0.0
 10
1855.438043213827
 20
-919.2917847167763
 10
1851.080256076444
 20
-969.1015196213631
 10
2000.509460790206
 20
-982.1748810335116
 10
2004.867247927589
 20
-932.3651461289248
  0
WIPEOUT
  5
A5
330
1F
100
AcDbEntity
  8
0
  6
Wipeout_Contour
 62
   254
 48
12299.96727957272
370
     0
 92
      296
310
28010000060000000C0000000E000000120000000C00000016000000000000C20C00000014000000010000006C00000007000000040000000D87DB5B4547A64037C0399355BA8CC00000000000000000145BFB2B8E3EA64041ED84E9CF488EC00000000000000000DFBCB3EC6969A740FCFC062866B18EC000000000000000
310
00D9E8931C2172A740F2CFBBD1EB228DC000000000000000000C0000000E000000FE0000008400000006000000050000000D87DB5B4547A64037C0399355BA8CC00000000000000000145BFB2B8E3EA64041ED84E9CF488EC00000000000000000DFBCB3EC6969A740FCFC062866B18EC00000000000000000D9E8931C2172
310
A740F2CFBBD1EB228DC000000000000000000D87DB5B4547A64037C0399355BA8CC00000000000000000
100
AcDbWipeout
 90
        0
 10
2847.277679304951
 20
-982.1748810335116
 30
0.0
 11
153.7869918511446
 21
0.0
 31
0.0
 12
0.0
 22
62.8830963167353
 32
0.0
 13
1.0
 23
1.0
340
0
 70
    15
280
     1
281
    50
282
    50
283
     0
360
0
 71
     2
 91
        5
 14
-0.4716634867167404
 24
-0.5000000000000009
 14
-0.4999999999999985
 24
0.2921005456490328
 14
0.4716634867167404
 24
0.4999999999999991
 14
0.5000000000000014
 24
-0.2921005456490346
 14
-0.4716634867167404
 24
-0.5000000000000009
  0
LWPOLYLINE
  5
A6
330
1F
100
AcDbEntity
  8
0_Pen_No__7
  6
Continuous
100
AcDbPolyline
 90
        4
 70
   129
 43
0.0
 10
2851.635466442333
 20
-919.2917847167763
 10
2847.277679304951
 20
-969.1015196213631
 10
2996.706884018713
 20
-982.1748810335116
 10
3001.064671156095
 20
-932.3651461289248
  0
WIPEOUT
  5
A7
330
1F
100
AcDbEntity
  8
0
  6
Wipeout_Contour
 62
   254
 48
10399.54291334285
370
     0
 92
      296
310
28010000060000000C0000000E000000120000000C00000016000000000000C20C00000014000000010000006C0000000700000004000000759EE39AFA74A2408EE0E28A48D28CC00000000000000000759EE39AFA74A2406CB2A2B1CF638EC00000000000000000DEB5EBD9AF52A340FCFC062866B18EC000000000000000
310
00DAE1CB09675BA340F2CFBBD1EB228DC000000000000000000C0000000E000000FE000000840000000600000005000000759EE39AFA74A2408EE0E28A48D28CC00000000000000000759EE39AFA74A2406CB2A2B1CF638EC00000000000000000DEB5EBD9AF52A340FCFC062866B18EC00000000000000000DAE1CB09675B
310
A340F2CFBBD1EB228DC00000000000000000759EE39AFA74A2408EE0E28A48D28CC00000000000000000
100
AcDbWipeout
 90
        0
 10
2362.489462960332
 20
-982.1748810335116
 30
0.0
 11
115.211783655383
 21
0.0
 31
0.0
 12
0.0
 22
59.88945987903367
 32
0.0
 13
1.0
 23
1.0
340
0
 70
    15
280
     1
281
    50
282
    50
283
     0
360
0
 71
     2
 91
        5
 14
-0.500000000000002
 24
-0.5
 14
-0.500000000000002
 24
0.3380605198067237
 14
0.4621758556362714
 24
0.5
 14
0.499999999999998
 24
-0.3316945086029129
 14
-0.500000000000002
 24
-0.5
  0
LWPOLYLINE
  5
A8
330
1F
100
AcDbEntity
  8
0_Pen_No__7
  6
Continuous
100
AcDbPolyline
 90
        4
 70
   129
 43
0.0
 10
2362.489462960332
 20
-922.285421154478
 10
2362.489462960332
 20
-972.4764130316448
 10
2473.343459478331
 20
-982.1748810335116
 10
2477.701246615715
 20
-932.3651461289248
  0
WIPEOUT
  5
A9
330
1F
100
AcDbEntity
  8
0
  6
Wipeout_Contour
 62
   254
 48
5877.307749607216
370
     0
 92
      296
310
28010000060000000C0000000E000000120000000C00000016000000000000C20C00000014000000010000006C0000000700000004000000D1A5901758D38540AFD02F11114D94400000000000000000D1A5901758D38540B0D02F11118593400000000000000000DCA5901758DB8740B0D02F111185934000000000000000
310
00DCA5901758DB8740AFD02F11114D944000000000000000000C0000000E000000FE000000840000000600000005000000D1A5901758D38540AFD02F11114D94400000000000000000D1A5901758D38540B0D02F11118593400000000000000000DCA5901758DB8740B0D02F11118593400000000000000000DCA5901758DB
310
8740AFD02F11114D94400000000000000000D1A5901758D38540AFD02F11114D94400000000000000000
100
AcDbWipeout
 90
        0
 10
698.418013696728
 20
1249.266667124855
 30
0.0
 11
65.00000000000125
 21
0.0
 31
0.0
 12
0.0
 22
49.99999999999977
 32
0.0
 13
1.0
 23
1.0
340
0
 70
    15
280
     1
281
    50
282
    50
283
     0
360
0
 71
     2
 91
        5
 14
-0.4999999999999991
 24
-0.4999999999999977
 14
-0.4999999999999991
 24
0.5000000000000022
 14
0.5000000000000009
 24
0.5000000000000022
 14
0.5000000000000009
 24
-0.4999999999999977
 14
-0.4999999999999991
 24
-0.4999999999999977
  0
LWPOLYLINE
  5
AA
330
1F
100
AcDbEntity
  8
0_Pen_No__7
  6
Continuous
100
AcDbPolyline
 90
        4
 70
   129
 43
0.0
 10
698.418013696728
 20
1299.266667124855
 10
698.418013696728
 20
1249.266667124855
 10
763.4180136967293
 20
1249.266667124855
 10
763.4180136967293
 20
1299.266667124855
  0
WIPEOUT
  5
AB
330
1F
100
AcDbEntity
  8
0
  6
Wipeout_Contour
 62
   254
 48
6337.729833423051
370
     0
 92
      296
310
28010000060000000C0000000E000000120000000C00000016000000000000C20C00000014000000010000006C0000000700000004000000DCA5901758438940ACD02F11114D94400000000000000000DCA5901758438940B0D02F11118593400000000000000000E952C80BAC9D9040B0D02F111185934000000000000000
310
00E952C80BAC9D9040ACD02F11114D944000000000000000000C0000000E000000FE000000840000000600000005000000DCA5901758438940ACD02F11114D94400000000000000000DCA5901758438940B0D02F11118593400000000000000000E952C80BAC9D9040B0D02F11118593400000000000000000E952C80BAC9D
310
9040ACD02F11114D94400000000000000000DCA5901758438940ACD02F11114D94400000000000000000
100
AcDbWipeout
 90
        0
 10
808.4180136967293
 20
1249.266667124855
 30
0.0
 11
254.9999999999989
 21
0.0
 31
0.0
 12
0.0
 22
49.99999999999909
 32
0.0
 13
1.0
 23
1.0
340
0
 70
    15
280
     1
281
    50
282
    50
283
     0
360
0
 71
     2
 91
        5
 14
-0.5
 24
-0.5
 14
-0.5
 24
0.5
 14
0.5
 24
0.5
 14
0.5
 24
-0.5
 14
-0.5
 24
-0.5
  0
LWPOLYLINE
  5
AC
330
1F
100
AcDbEntity
  8
0_Pen_No__7
  6
Continuous
100
AcDbPolyline
 90
        4
 70
   129
 43
0.0
 10
808.4180136967293
 20
1299.266667124854
 10
808.4180136967293
 20
1249.266667124855
 10
1063.418013696728
 20
1249.266667124855
 10
1063.418013696728
 20
1299.266667124854
  0
WIPEOUT
  5
AD
330
1F
100
AcDbEntity
  8
0
  6
Wipeout_Contour
 62
   254
 48
7110.410286209273
370
     0
 92
      296
310
28010000060000000C0000000E000000120000000C00000016000000000000C20C00000014000000010000006C0000000700000004000000E952C80BAC519140AFD02F11114D94400000000000000000E952C80BAC519140B0D02F11118593400000000000000000EC52C80BAC4D9540B0D02F111185934000000000000000
310
00EC52C80BAC4D9540AFD02F11114D944000000000000000000C0000000E000000FE000000840000000600000005000000E952C80BAC519140AFD02F11114D94400000000000000000E952C80BAC519140B0D02F11118593400000000000000000EC52C80BAC4D9540B0D02F11118593400000000000000000EC52C80BAC4D
310
9540AFD02F11114D94400000000000000000E952C80BAC519140AFD02F11114D94400000000000000000
100
AcDbWipeout
 90
        0
 10
1108.418013696728
 20
1249.266667124855
 30
0.0
 11
255.0000000000007
 21
0.0
 31
0.0
 12
0.0
 22
49.99999999999977
 32
0.0
 13
1.0
 23
1.0
340
0
 70
    15
280
     1
281
    50
282
    50
283
     0
360
0
 71
     2
 91
        5
 14
-0.4999999999999996
 24
-0.4999999999999977
 14
-0.4999999999999996
 24
0.5000000000000022
 14
0.5000000000000004
 24
0.5000000000000022
 14
0.5000000000000004
 24
-0.4999999999999977
 14
-0.4999999999999996
 24
-0.4999999999999977
  0
LWPOLYLINE
  5
AE
330
1F
100
AcDbEntity
  8
0_Pen_No__7
  6
Continuous
100
AcDbPolyline
 90
        4
 70
   129
 43
0.0
 10
1108.418013696728
 20
1299.266667124855
 10
1108.418013696728
 20
1249.266667124855
 10
1363.418013696729
 20
1249.266667124855
 10
1363.418013696729
 20
1299.266667124855
  0
WIPEOUT
  5
AF
330
1F
100
AcDbEntity
  8
0
  6
Wipeout_Contour
 62
   254
 48
7989.730389143322
370
     0
 92
      296
310
28010000060000000C0000000E000000120000000C00000016000000000000C20C00000014000000010000006C0000000700000004000000EC52C80BAC019640AFD02F11114D94400000000000000000EC52C80BAC019640B0D02F11118593400000000000000000EF52C80BACFD9940B0D02F111185934000000000000000
310
00EF52C80BACFD9940AFD02F11114D944000000000000000000C0000000E000000FE000000840000000600000005000000EC52C80BAC019640AFD02F11114D94400000000000000000EC52C80BAC019640B0D02F11118593400000000000000000EF52C80BACFD9940B0D02F11118593400000000000000000EF52C80BACFD
310
9940AFD02F11114D94400000000000000000EC52C80BAC019640AFD02F11114D94400000000000000000
100
AcDbWipeout
 90
        0
 10
1408.418013696729
 20
1249.266667124855
 30
0.0
 11
255.0000000000007
 21
0.0
 31
0.0
 12
0.0
 22
49.99999999999977
 32
0.0
 13
1.0
 23
1.0
340
0
 70
    15
280
     1
281
    50
282
    50
283
     0
360
0
 71
     2
 91
        5
 14
-0.5000000000000004
 24
-0.4999999999999977
 14
-0.5000000000000004
 24
0.5000000000000022
 14
0.4999999999999996
 24
0.5000000000000022
 14
0.4999999999999996
 24
-0.4999999999999977
 14
-0.5000000000000004
 24
-0.4999999999999977
  0
LWPOLYLINE
  5
B0
330
1F
100
AcDbEntity
  8
0_Pen_No__7
  6
Continuous
100
AcDbPolyline
 90
        4
 70
   129
 43
0.0
 10
1408.418013696729
 20
1299.266667124855
 10
1408.418013696729
 20
1249.266667124855
 10
1663.41801369673
 20
1249.266667124855
 10
1663.41801369673
 20
1299.266667124855
  0
WIPEOUT
  5
B1
330
1F
100
AcDbEntity
  8
0
  6
Wipeout_Contour
 62
   254
 48
8982.075192237498
370
     0
 92
      296
310
28010000060000000C0000000E000000120000000C00000016000000000000C20C00000014000000010000006C0000000700000004000000E752C80BACB19A40AFD02F11114D94400000000000000000E752C80BACB19A40B0D02F11118593400000000000000000EE52C80BAC079F40B0D02F111185934000000000000000
310
00EE52C80BAC079F40AFD02F11114D944000000000000000000C0000000E000000FE000000840000000600000005000000E752C80BACB19A40AFD02F11114D94400000000000000000E752C80BACB19A40B0D02F11118593400000000000000000EE52C80BAC079F40B0D02F11118593400000000000000000EE52C80BAC07
310
9F40AFD02F11114D94400000000000000000E752C80BACB19A40AFD02F11114D94400000000000000000
100
AcDbWipeout
 90
        0
 10
1708.418013696728
 20
1249.266667124855
 30
0.0
 11
277.5000000000016
 21
0.0
 31
0.0
 12
0.0
 22
49.99999999999977
 32
0.0
 13
1.0
 23
1.0
340
0
 70
    15
280
     1
281
    50
282
    50
283
     0
360
0
 71
     2
 91
        5
 14
-0.4999999999999996
 24
-0.4999999999999977
 14
-0.4999999999999996
 24
0.5000000000000022
 14
0.5000000000000004
 24
0.5000000000000022
 14
0.5000000000000004
 24
-0.4999999999999977
 14
-0.4999999999999996
 24
-0.4999999999999977
  0
LWPOLYLINE
  5
B2
330
1F
100
AcDbEntity
  8
0_Pen_No__7
  6
Continuous
100
AcDbPolyline
 90
        4
 70
   129
 43
0.0
 10
1708.418013696728
 20
1299.266667124855
 10
1708.418013696728
 20
1249.266667124855
 10
1985.918013696729
 20
1249.266667124855
 10
1985.918013696729
 20
1299.266667124855
  0
WIPEOUT
  5
B3
330
1F
100
AcDbEntity
  8
0
  6
Wipeout_Contour
 62
   254
 48
11231.64031277374
370
     0
 92
      296
310
28010000060000000C0000000E000000120000000C00000016000000000000C20C00000014000000010000006C0000000700000004000000759EE39AFA74A240B3D02F11114D94400000000000000000759EE39AFA74A240B0D02F11118593400000000000000000759EE39AFA9FA440B0D02F111185934000000000000000
310
00759EE39AFA9FA440B3D02F11114D944000000000000000000C0000000E000000FE000000840000000600000005000000759EE39AFA74A240B3D02F11114D94400000000000000000759EE39AFA74A240B0D02F11118593400000000000000000759EE39AFA9FA440B0D02F11118593400000000000000000759EE39AFA9F
310
A440B3D02F11114D94400000000000000000759EE39AFA74A240B3D02F11114D94400000000000000000
100
AcDbWipeout
 90
        0
 10
2362.489462960332
 20
1249.266667124855
 30
0.0
 11
277.5
 21
0.0
 31
0.0
 12
0.0
 22
50.00000000000068
 32
0.0
 13
1.0
 23
1.0
340
0
 70
    15
280
     1
281
    50
282
    50
283
     0
360
0
 71
     2
 91
        5
 14
-0.5
 24
-0.4999999999999977
 14
-0.5
 24
0.5000000000000022
 14
0.5
 24
0.5000000000000022
 14
0.5
 24
-0.4999999999999977
 14
-0.5
 24
-0.4999999999999977
  0
LWPOLYLINE
  5
B4
330
1F
100
AcDbEntity
  8
0_Pen_No__7
  6
Continuous
100
AcDbPolyline
 90
        4
 70
   129
 43
0.0
 10
2362.489462960332
 20
1299.266667124856
 10
2362.489462960332
 20
1249.266667124855
 10
2639.989462960332
 20
1249.266667124855
 10
2639.989462960332
 20
1299.266667124856
  0
WIPEOUT
  5
B5
330
1F
100
AcDbEntity
  8
0
  6
Wipeout_Contour
 62
   254
 48
12575.33997022647
370
     0
 92
      296
310
28010000060000000C0000000E000000120000000C00000016000000000000C20C00000014000000010000006C0000000700000004000000759EE39AFAF9A440AFD02F11114D94400000000000000000759EE39AFAF9A440B0D02F1111859340000000000000000076A5ABADB4E9A740B0D02F111185934000000000000000
310
0076A5ABADB4E9A740AFD02F11114D944000000000000000000C0000000E000000FE000000840000000600000005000000759EE39AFAF9A440AFD02F11114D94400000000000000000759EE39AFAF9A440B0D02F1111859340000000000000000076A5ABADB4E9A740B0D02F1111859340000000000000000076A5ABADB4E9
310
A740AFD02F11114D94400000000000000000759EE39AFAF9A440AFD02F11114D94400000000000000000
100
AcDbWipeout
 90
        0
 10
2684.989462960332
 20
1249.266667124855
 30
0.0
 11
375.8634245403814
 21
0.0
 31
0.0
 12
0.0
 22
49.99999999999977
 32
0.0
 13
1.0
 23
1.0
340
0
 70
    15
280
     1
281
    50
282
    50
283
     0
360
0
 71
     2
 91
        5
 14
-0.5000000000000006
 24
-0.4999999999999977
 14
-0.5000000000000006
 24
0.5000000000000022
 14
0.4999999999999994
 24
0.5000000000000022
 14
0.4999999999999994
 24
-0.4999999999999977
 14
-0.5000000000000006
 24
-0.4999999999999977
  0
LWPOLYLINE
  5
B6
330
1F
100
AcDbEntity
  8
0_Pen_No__7
  6
Continuous
100
AcDbPolyline
 90
        4
 70
   129
 43
0.0
 10
2684.989462960332
 20
1299.266667124855
 10
2684.989462960332
 20
1249.266667124855
 10
3060.852887500713
 20
1249.266667124855
 10
3060.852887500713
 20
1299.266667124855
  0
WIPEOUT
  5
B7
330
1F
100
AcDbEntity
  8
0
  6
Wipeout_Contour
 62
   254
 48
7061.533543637468
370
     0
 92
      296
310
28010000060000000C0000000E000000120000000C00000016000000000000C20C00000014000000010000006C00000007000000040000003237027992B69CC06A16FA2522A248400000000000000000228FC2D800C89CC040AB2EAECF60E1BF00000000000000008BCB515749729AC07CD9669B9C3B2BC000000000000000
310
009C7391F7DA609AC0B81AD93DBE18424000000000000000000C0000000E000000FE0000008400000006000000050000003237027992B69CC06A16FA2522A248400000000000000000228FC2D800C89CC040AB2EAECF60E1BF00000000000000008BCB515749729AC07CD9669B9C3B2BC000000000000000009C7391F7DA60
310
9AC0B81AD93DBE18424000000000000000003237027992B69CC06A16FA2522A248400000000000000000
100
AcDbWipeout
 90
        0
 10
-1842.000826873766
 20
-13.61642919188011
 30
0.0
 11
153.7869918511437
 21
0.0
 31
0.0
 12
0.0
 22
62.88309631673616
 32
0.0
 13
1.0
 23
1.0
340
0
 70
    15
280
     1
281
    50
282
    50
283
     0
360
0
 71
     2
 91
        5
 14
-0.4716634867167446
 24
-0.5
 14
-0.5
 24
0.2921005456490363
 14
0.4716634867167461
 24
0.5
 14
0.5
 24
-0.2921005456490363
 14
-0.4716634867167446
 24
-0.5
  0
LWPOLYLINE
  5
B8
330
1F
100
AcDbEntity
  8
0_Pen_No__7
  6
Continuous
100
AcDbPolyline
 90
        4
 70
   129
 43
0.0
 10
-1837.643039736384
 20
49.26666712485606
 10
-1842.000826873766
 20
-0.5430677797315653
 10
-1692.571622160004
 20
-13.61642919188011
 10
-1688.213835022622
 20
36.19330571270751
  0
WIPEOUT
  5
B9
330
1F
100
AcDbEntity
  8
0
  6
Wipeout_Contour
 62
   254
 48
5940.458407447639
370
     0
 92
      296
310
28010000060000000C0000000E000000120000000C00000016000000000000C20C00000014000000010000006C0000000700000004000000C4B92B294A5598C06A16FA2522A248400000000000000000BB11EC88B86698C040AB2EAECF60E1BF0000000000000000254E7B07011196C07CD9669B9C3B2BC000000000000000
310
002EF6BAA792FF95C0B81AD93DBE18424000000000000000000C0000000E000000FE000000840000000600000005000000C4B92B294A5598C06A16FA2522A248400000000000000000BB11EC88B86698C040AB2EAECF60E1BF0000000000000000254E7B07011196C07CD9669B9C3B2BC000000000000000002EF6BAA792FF
310
95C0B81AD93DBE1842400000000000000000C4B92B294A5598C06A16FA2522A248400000000000000000
100
AcDbWipeout
 90
        0
 10
-1561.680209816534
 20
-13.61642919188011
 30
0.0
 11
153.7869918511453
 21
0.0
 31
0.0
 12
0.0
 22
62.88309631673616
 32
0.0
 13
1.0
 23
1.0
340
0
 70
    15
280
     1
281
    50
282
    50
283
     0
360
0
 71
     2
 91
        5
 14
-0.4716634867167353
 24
-0.5
 14
-0.5000000000000008
 24
0.2921005456490363
 14
0.4716634867167339
 24
0.5
 14
0.4999999999999993
 24
-0.2921005456490363
 14
-0.4716634867167353
 24
-0.5
  0
LWPOLYLINE
  5
BA
330
1F
100
AcDbEntity
  8
0_Pen_No__7
  6
Continuous
100
AcDbPolyline
 90
        4
 70
   129
 43
0.0
 10
-1557.322422679151
 20
49.26666712485606
 10
-1561.680209816534
 20
-0.5430677797315653
 10
-1412.251005102772
 20
-13.61642919188011
 10
-1407.893217965389
 20
36.19330571270751
  0
HATCH
  5
BB
330
1F
100
AcDbEntity
  8
chh-09_Pen_No__9_Pen_No__2
  6
Continuous
100
AcDbHatch
 10
0.0
 20
0.0
 30
0.0
210
0.0
220
0.0
230
1.0
  2
SOLID
 70
     1
 71
     0
 91
        1
 92
        2
 72
     0
 73
     1
 93
        3
 10
3297.690022121816
 20
-1305.572449821225
 10
3297.690022121816
 20
-1277.572461844753
 10
3213.690058192406
 20
-1291.572455832971
 97
        0
 75
     0
 76
     1
 98
        0
  0
HATCH
  5
BD
330
1F
100
AcDbEntity
  8
chh-09_Pen_No__9_Pen_No__2
  6
Continuous
100
AcDbHatch
 10
0.0
 20
0.0
 30
0.0
210
0.0
220
0.0
230
1.0
  2
SOLID
 70
     1
 71
     0
 91
        1
 92
        2
 72
     0
 73
     1
 93
        3
 10
3088.706105408602
 20
1264.706762613229
 10
3088.706105408602
 20
1292.706750589702
 10
3004.70614147919
 20
1278.706756601483
 97
        0
 75
     0
 76
     1
 98
        0
  0
HATCH
  5
BE
330
1F
100
AcDbEntity
  8
chh-09_Pen_No__9_Pen_No__2
  6
Continuous
100
AcDbHatch
 10
0.0
 20
0.0
 30
0.0
210
0.0
220
0.0
230
1.0
  2
SOLID
 70
     1
 71
     0
 91
        1
 92
        2
 72
     0
 73
     1
 93
        3
 10
-3054.744851682167
 20
-1297.075159651566
 10
-3054.744851682167
 20
-1269.075171675094
 10
-3138.744815611579
 20
-1283.075165663312
 97
        0
 75
     0
 76
     1
 98
        0
  0
HATCH
  5
BF
330
1F
100
AcDbEntity
  8
chh-09_Pen_No__9_Pen_No__2
  6
Continuous
100
AcDbHatch
 10
0.0
 20
0.0
 30
0.0
210
0.0
220
0.0
230
1.0
  2
SOLID
 70
     1
 71
     0
 91
        1
 92
        2
 72
     0
 73
     1
 93
        3
 10
-403.0819802915241
 20
-1044.733296804555
 10
-375.0819923150524
 20
-1044.733296804555
 10
-389.0819863032705
 20
-960.7333328751438
 97
        0
 75
     0
 76
     1
 98
        0
  0
LINE
  5
C0
330
1F
100
AcDbEntity
  8
0_Pen_No__7
  6
Continuous
100
AcDbLine
 10
-1889.081986303272
 20
-150.7333328751441
 30
0.0
 11
-1636.581986303243
 21
-150.7333328751441
 31
0.0
  0
LINE
  5
C1
330
1F
100
AcDbEntity
  8
0_Pen_No__7
  6
Continuous
100
AcDbLine
 10
-1889.081986303271
 20
-200.733332875144
 30
0.0
 11
-1636.581986303243
 21
-200.7333328751448
 31
0.0
  0
LINE
  5
C2
330
1F
100
AcDbEntity
  8
0_Pen_No__7
  6
Continuous
100
AcDbLine
 10
-3139.081986303273
 20
-975.7333328751442
 30
0.0
 11
-2965.877748089633
 21
-975.7333328751442
 31
0.0
  0
LINE
  5
C3
330
1F
100
AcDbEntity
  8
0_Pen_No__7
  6
Continuous
100
AcDbLine
 10
2362.489462960332
 20
-975.7333328751442
 30
0.0
 11
2399.716227117431
 21
-975.7333328751442
 31
0.0
  0
LINE
  5
C4
330
1F
100
AcDbEntity
  8
0_Pen_No__7
  6
Continuous
100
AcDbLine
 10
-3139.081986303273
 20
-925.7333328751436
 30
0.0
 11
-3136.581986303271
 21
-925.7333328751436
 31
0.0
  0
LINE
  5
C5
330
1F
100
AcDbEntity
  8
0_Pen_No__7
  6
Continuous
100
AcDbLine
 10
600.9180136967298
 20
-925.7333328751436
 30
0.0
 11
603.4180136967292
 21
-925.7333328751436
 31
0.0
  0
LINE
  5
C6
330
1F
100
AcDbEntity
  8
0_Pen_No__7
  6
Continuous
100
AcDbLine
 10
2401.899274262838
 20
-925.7333328751436
 30
0.0
 11
2639.989462960332
 21
-925.7333328751436
 31
0.0
  0
LINE
  5
C7
330
1F
100
AcDbEntity
  8
0_Pen_No__7
  6
Continuous
100
AcDbLine
 10
-3139.081986303273
 20
1424.266667124856
 30
0.0
 11
1985.918013696729
 21
1424.266667124856
 31
0.0
  0
LINE
  5
C8
330
1F
100
AcDbEntity
  8
0_Pen_No__7
  6
Continuous
100
AcDbLine
 10
2362.489462960332
 20
1424.266667124856
 30
0.0
 11
3210.852887500712
 21
1424.266667124856
 31
0.0
  0
LINE
  5
C9
330
1F
100
AcDbEntity
  8
0_Pen_No__7
  6
Continuous
100
AcDbLine
 10
-3139.081986303273
 20
1374.266667124855
 30
0.0
 11
1985.918013696729
 21
1374.266667124855
 31
0.0
  0
LINE
  5
CA
330
1F
100
AcDbEntity
  8
0_Pen_No__7
  6
Continuous
100
AcDbLine
 10
2362.489462960332
 20
1374.266667124855
 30
0.0
 11
3210.852887500712
 21
1374.266667124855
 31
0.0
  0
LINE
  5
CB
330
1F
100
AcDbEntity
  8
0_Pen_No__7
  6
Continuous
100
AcDbLine
 10
-689.0819863032713
 20
1374.266667124855
 30
0.0
 11
-689.0819863032713
 21
1299.266667124855
 31
0.0
  0
LINE
  5
CC
330
1F
100
AcDbEntity
  8
0_Pen_No__7
  6
Continuous
100
AcDbLine
 10
-739.081986303272
 20
1374.266667124855
 30
0.0
 11
-739.081986303272
 21
1299.266667124855
 31
0.0
  0
LINE
  5
CD
330
1F
100
AcDbEntity
  8
0_Pen_No__7
  6
Continuous
100
AcDbLine
 10
-689.0819863032713
 20
524.2666671248558
 30
0.0
 11
-414.0819863032709
 21
524.2666671248558
 31
0.0
  0
LINE
  5
CE
330
1F
100
AcDbEntity
  8
0_Pen_No__7
  6
Continuous
100
AcDbLine
 10
-689.0819863032713
 20
574.2666671248564
 30
0.0
 11
-414.0819863032709
 21
574.2666671248564
 31
0.0
  0
LINE
  5
CF
330
1F
100
AcDbEntity
  8
0_Pen_No__7
  6
Continuous
100
AcDbLine
 10
-689.0819863032713
 20
-200.733332875144
 30
0.0
 11
-414.0819863032709
 21
-200.733332875144
 31
0.0
  0
LINE
  5
D0
330
1F
100
AcDbEntity
  8
0_Pen_No__7
  6
Continuous
100
AcDbLine
 10
-689.0819863032713
 20
-150.7333328751441
 30
0.0
 11
-414.0819863032709
 21
-150.7333328751441
 31
0.0
  0
LINE
  5
D1
330
1F
100
AcDbEntity
  8
0_Pen_No__7
  6
Continuous
100
AcDbLine
 10
-739.081986303272
 20
524.2666671248558
 30
0.0
 11
-991.5819863032714
 21
524.2666671248558
 31
0.0
  0
LINE
  5
D2
330
1F
100
AcDbEntity
  8
0_Pen_No__7
  6
Continuous
100
AcDbLine
 10
-739.081986303272
 20
574.2666671248564
 30
0.0
 11
-991.5819863032714
 21
574.2666671248564
 31
0.0
  0
LINE
  5
D3
330
1F
100
AcDbEntity
  8
0_Pen_No__7
  6
Continuous
100
AcDbLine
 10
-739.081986303272
 20
-200.733332875144
 30
0.0
 11
-991.5819863032714
 21
-200.733332875144
 31
0.0
  0
LINE
  5
D4
330
1F
100
AcDbEntity
  8
0_Pen_No__7
  6
Continuous
100
AcDbLine
 10
-739.081986303272
 20
-150.7333328751441
 30
0.0
 11
-991.5819863032714
 21
-150.7333328751441
 31
0.0
  0
LINE
  5
D5
330
1F
100
AcDbEntity
  8
0_Pen_No__7
  6
Continuous
100
AcDbLine
 10
-689.0819863032713
 20
1249.266667124855
 30
0.0
 11
-414.0819863032709
 21
1249.266667124855
 31
0.0
  0
LINE
  5
D6
330
1F
100
AcDbEntity
  8
0_Pen_No__7
  6
Continuous
100
AcDbLine
 10
-689.0819863032713
 20
1299.266667124856
 30
0.0
 11
-414.0819863032709
 21
1299.266667124856
 31
0.0
  0
LINE
  5
D7
330
1F
100
AcDbEntity
  8
0_Pen_No__7
  6
Continuous
100
AcDbLine
 10
-739.081986303272
 20
1249.266667124855
 30
0.0
 11
-1014.081986303271
 21
1249.266667124855
 31
0.0
  0
LINE
  5
D8
330
1F
100
AcDbEntity
  8
0_Pen_No__7
  6
Continuous
100
AcDbLine
 10
-739.081986303272
 20
1299.266667124856
 30
0.0
 11
-1014.081986303271
 21
1299.266667124856
 31
0.0
  0
LINE
  5
D9
330
1F
100
AcDbEntity
  8
0_Pen_No__7
  6
Continuous
100
AcDbLine
 10
1110.918013696729
 20
1374.266667124855
 30
0.0
 11
1110.918013696729
 21
1299.266667124855
 31
0.0
  0
LINE
  5
DA
330
1F
100
AcDbEntity
  8
0_Pen_No__7
  6
Continuous
100
AcDbLine
 10
1060.918013696729
 20
1374.266667124855
 30
0.0
 11
1060.918013696729
 21
1299.266667124854
 31
0.0
  0
LINE
  5
DB
330
1F
100
AcDbEntity
  8
0_Pen_No__7
  6
Continuous
100
AcDbLine
 10
1110.918013696729
 20
524.2666671248558
 30
0.0
 11
1363.418013696729
 21
524.2666671248558
 31
0.0
  0
LINE
  5
DC
330
1F
100
AcDbEntity
  8
0_Pen_No__7
  6
Continuous
100
AcDbLine
 10
1110.918013696729
 20
574.2666671248564
 30
0.0
 11
1363.418013696729
 21
574.2666671248564
 31
0.0
  0
LINE
  5
DD
330
1F
100
AcDbEntity
  8
0_Pen_No__7
  6
Continuous
100
AcDbLine
 10
1110.918013696729
 20
-200.733332875144
 30
0.0
 11
1363.418013696729
 21
-200.733332875144
 31
0.0
  0
LINE
  5
DE
330
1F
100
AcDbEntity
  8
0_Pen_No__7
  6
Continuous
100
AcDbLine
 10
1110.918013696729
 20
-150.7333328751441
 30
0.0
 11
1363.418013696729
 21
-150.7333328751441
 31
0.0
  0
LINE
  5
DF
330
1F
100
AcDbEntity
  8
0_Pen_No__7
  6
Continuous
100
AcDbLine
 10
1060.918013696729
 20
524.2666671248558
 30
0.0
 11
808.4180136967293
 21
524.2666671248558
 31
0.0
  0
LINE
  5
E0
330
1F
100
AcDbEntity
  8
0_Pen_No__7
  6
Continuous
100
AcDbLine
 10
1060.918013696729
 20
574.2666671248564
 30
0.0
 11
808.4180136967293
 21
574.2666671248564
 31
0.0
  0
LINE
  5
E1
330
1F
100
AcDbEntity
  8
0_Pen_No__7
  6
Continuous
100
AcDbLine
 10
1060.918013696729
 20
-200.733332875144
 30
0.0
 11
808.4180136967293
 21
-200.733332875144
 31
0.0
  0
LINE
  5
E2
330
1F
100
AcDbEntity
  8
0_Pen_No__7
  6
Continuous
100
AcDbLine
 10
1060.918013696729
 20
-150.7333328751441
 30
0.0
 11
808.4180136967293
 21
-150.7333328751441
 31
0.0
  0
LINE
  5
E3
330
1F
100
AcDbEntity
  8
0_Pen_No__7
  6
Continuous
100
AcDbLine
 10
1110.918013696729
 20
1249.266667124855
 30
0.0
 11
1363.418013696729
 21
1249.266667124855
 31
0.0
  0
LINE
  5
E4
330
1F
100
AcDbEntity
  8
0_Pen_No__7
  6
Continuous
100
AcDbLine
 10
1110.918013696729
 20
1299.266667124856
 30
0.0
 11
1385.918013696728
 21
1299.266667124856
 31
0.0
  0
LINE
  5
E5
330
1F
100
AcDbEntity
  8
0_Pen_No__7
  6
Continuous
100
AcDbLine
 10
1060.918013696729
 20
1249.266667124855
 30
0.0
 11
785.9180136967284
 21
1249.266667124855
 31
0.0
  0
LINE
  5
E6
330
1F
100
AcDbEntity
  8
0_Pen_No__7
  6
Continuous
100
AcDbLine
 10
1060.918013696729
 20
1299.266667124856
 30
0.0
 11
785.9180136967284
 21
1299.266667124856
 31
0.0
  0
LINE
  5
E7
330
1F
100
AcDbEntity
  8
0_Pen_No__7
  6
Continuous
100
AcDbLine
 10
2687.489462960332
 20
1374.266667124855
 30
0.0
 11
2687.489462960332
 21
1299.266667124855
 31
0.0
  0
LINE
  5
E8
330
1F
100
AcDbEntity
  8
0_Pen_No__7
  6
Continuous
100
AcDbLine
 10
2637.489462960332
 20
1374.266667124855
 30
0.0
 11
2637.489462960332
 21
1299.266667124856
 31
0.0
  0
LINE
  5
E9
330
1F
100
AcDbEntity
  8
0_Pen_No__7
  6
Continuous
100
AcDbLine
 10
2687.489462960332
 20
524.2666671248558
 30
0.0
 11
3060.852887500713
 21
524.2666671248558
 31
0.0
  0
LINE
  5
EA
330
1F
100
AcDbEntity
  8
0_Pen_No__7
  6
Continuous
100
AcDbLine
 10
2687.489462960332
 20
574.2666671248564
 30
0.0
 11
3060.852887500713
 21
574.2666671248564
 31
0.0
  0
LINE
  5
EB
330
1F
100
AcDbEntity
  8
0_Pen_No__7
  6
Continuous
100
AcDbLine
 10
2687.489462960332
 20
-200.733332875144
 30
0.0
 11
3060.852887500713
 21
-200.733332875144
 31
0.0
  0
LINE
  5
EC
330
1F
100
AcDbEntity
  8
0_Pen_No__7
  6
Continuous
100
AcDbLine
 10
2687.489462960332
 20
-150.7333328751441
 30
0.0
 11
3060.852887500713
 21
-150.7333328751441
 31
0.0
  0
LINE
  5
ED
330
1F
100
AcDbEntity
  8
0_Pen_No__7
  6
Continuous
100
AcDbLine
 10
2637.489462960332
 20
524.2666671248558
 30
0.0
 11
2362.489462960332
 21
524.2666671248558
 31
0.0
  0
LINE
  5
EE
330
1F
100
AcDbEntity
  8
0_Pen_No__7
  6
Continuous
100
AcDbLine
 10
2637.489462960332
 20
574.2666671248564
 30
0.0
 11
2362.489462960332
 21
574.2666671248564
 31
0.0
  0
LINE
  5
EF
330
1F
100
AcDbEntity
  8
0_Pen_No__7
  6
Continuous
100
AcDbLine
 10
2637.489462960332
 20
-200.733332875144
 30
0.0
 11
2362.489462960332
 21
-200.733332875144
 31
0.0
  0
LINE
  5
F0
330
1F
100
AcDbEntity
  8
0_Pen_No__7
  6
Continuous
100
AcDbLine
 10
2637.489462960332
 20
-150.7333328751441
 30
0.0
 11
2362.489462960332
 21
-150.7333328751441
 31
0.0
  0
LINE
  5
F1
330
1F
100
AcDbEntity
  8
0_Pen_No__7
  6
Continuous
100
AcDbLine
 10
2687.489462960332
 20
1249.266667124855
 30
0.0
 11
2962.489462960331
 21
1249.266667124855
 31
0.0
  0
LINE
  5
F2
330
1F
100
AcDbEntity
  8
0_Pen_No__7
  6
Continuous
100
AcDbLine
 10
2687.489462960332
 20
1299.266667124856
 30
0.0
 11
2962.489462960331
 21
1299.266667124856
 31
0.0
  0
LINE
  5
F3
330
1F
100
AcDbEntity
  8
0_Pen_No__7
  6
Continuous
100
AcDbLine
 10
2637.489462960332
 20
1249.266667124855
 30
0.0
 11
2362.489462960332
 21
1249.266667124855
 31
0.0
  0
LINE
  5
F4
330
1F
100
AcDbEntity
  8
0_Pen_No__7
  6
Continuous
100
AcDbLine
 10
2637.489462960332
 20
1299.266667124856
 30
0.0
 11
2362.489462960332
 21
1299.266667124856
 31
0.0
  0
LINE
  5
F5
330
1F
100
AcDbEntity
  8
0_Pen_No__7
  6
Continuous
100
AcDbLine
 10
-2489.081986303272
 20
1374.266667124855
 30
0.0
 11
-2489.081986303272
 21
1299.266667124855
 31
0.0
  0
LINE
  5
F6
330
1F
100
AcDbEntity
  8
0_Pen_No__7
  6
Continuous
100
AcDbLine
 10
-2539.081986303271
 20
1374.266667124855
 30
0.0
 11
-2539.081986303271
 21
1299.266667124855
 31
0.0
  0
LINE
  5
F7
330
1F
100
AcDbEntity
  8
0_Pen_No__7
  6
Continuous
100
AcDbLine
 10
-2489.081986303272
 20
524.2666671248558
 30
0.0
 11
-2214.081986303272
 21
524.2666671248558
 31
0.0
  0
LINE
  5
F8
330
1F
100
AcDbEntity
  8
0_Pen_No__7
  6
Continuous
100
AcDbLine
 10
-2489.081986303272
 20
574.2666671248564
 30
0.0
 11
-2214.081986303272
 21
574.2666671248564
 31
0.0
  0
LINE
  5
F9
330
1F
100
AcDbEntity
  8
0_Pen_No__7
  6
Continuous
100
AcDbLine
 10
-2489.081986303272
 20
-200.733332875144
 30
0.0
 11
-2214.081986303272
 21
-200.733332875144
 31
0.0
  0
LINE
  5
FA
330
1F
100
AcDbEntity
  8
0_Pen_No__7
  6
Continuous
100
AcDbLine
 10
-2489.081986303272
 20
-150.7333328751441
 30
0.0
 11
-2214.081986303272
 21
-150.7333328751441
 31
0.0
  0
LINE
  5
FB
330
1F
100
AcDbEntity
  8
0_Pen_No__7
  6
Continuous
100
AcDbLine
 10
-2539.081986303271
 20
524.2666671248558
 30
0.0
 11
-2791.581986303272
 21
524.2666671248558
 31
0.0
  0
LINE
  5
FC
330
1F
100
AcDbEntity
  8
0_Pen_No__7
  6
Continuous
100
AcDbLine
 10
-2539.081986303271
 20
574.2666671248564
 30
0.0
 11
-2791.581986303272
 21
574.2666671248564
 31
0.0
  0
LINE
  5
FD
330
1F
100
AcDbEntity
  8
0_Pen_No__7
  6
Continuous
100
AcDbLine
 10
-2539.081986303271
 20
-200.733332875144
 30
0.0
 11
-2791.581986303272
 21
-200.733332875144
 31
0.0
  0
LINE
  5
FE
330
1F
100
AcDbEntity
  8
0_Pen_No__7
  6
Continuous
100
AcDbLine
 10
-2539.081986303271
 20
-150.7333328751441
 30
0.0
 11
-2791.581986303272
 21
-150.7333328751441
 31
0.0
  0
LINE
  5
FF
330
1F
100
AcDbEntity
  8
0_Pen_No__7
  6
Continuous
100
AcDbLine
 10
-2489.081986303272
 20
1249.266667124855
 30
0.0
 11
-2214.081986303272
 21
1249.266667124855
 31
0.0
  0
LINE
  5
100
330
1F
100
AcDbEntity
  8
0_Pen_No__7
  6
Continuous
100
AcDbLine
 10
-2489.081986303272
 20
1299.266667124856
 30
0.0
 11
-2214.081986303272
 21
1299.266667124856
 31
0.0
  0
LINE
  5
101
330
1F
100
AcDbEntity
  8
0_Pen_No__7
  6
Continuous
100
AcDbLine
 10
-2539.081986303271
 20
1249.266667124855
 30
0.0
 11
-2791.581986303272
 21
1249.266667124855
 31
0.0
  0
LINE
  5
102
330
1F
100
AcDbEntity
  8
0_Pen_No__7
  6
Continuous
100
AcDbLine
 10
-2539.081986303271
 20
1299.266667124856
 30
0.0
 11
-2814.081986303271
 21
1299.266667124856
 31
0.0
  0
LINE
  5
103
330
1F
100
AcDbEntity
  8
0_Pen_No__7
  6
Continuous
100
AcDbLine
 10
-3089.081986303272
 20
1374.266667124855
 30
0.0
 11
-3089.081986303272
 21
1299.266667124855
 31
0.0
  0
LINE
  5
104
330
1F
100
AcDbEntity
  8
0_Pen_No__7
  6
Continuous
100
AcDbLine
 10
-3139.081986303273
 20
1374.266667124855
 30
0.0
 11
-3139.081986303273
 21
-925.7333328751436
 31
0.0
  0
LINE
  5
105
330
1F
100
AcDbEntity
  8
0_Pen_No__7
  6
Continuous
100
AcDbLine
 10
-3089.081986303272
 20
524.2666671248558
 30
0.0
 11
-2836.58198630327
 21
524.2666671248558
 31
0.0
  0
LINE
  5
106
330
1F
100
AcDbEntity
  8
0_Pen_No__7
  6
Continuous
100
AcDbLine
 10
-3089.081986303272
 20
574.2666671248555
 30
0.0
 11
-2836.58198630327
 21
574.2666671248555
 31
0.0
  0
LINE
  5
107
330
1F
100
AcDbEntity
  8
0_Pen_No__7
  6
Continuous
100
AcDbLine
 10
-3089.081986303272
 20
-200.733332875144
 30
0.0
 11
-2836.58198630327
 21
-200.733332875144
 31
0.0
  0
LINE
  5
108
330
1F
100
AcDbEntity
  8
0_Pen_No__7
  6
Continuous
100
AcDbLine
 10
-3089.081986303272
 20
-150.7333328751441
 30
0.0
 11
-2836.58198630327
 21
-150.7333328751441
 31
0.0
  0
LINE
  5
109
330
1F
100
AcDbEntity
  8
0_Pen_No__7
  6
Continuous
100
AcDbLine
 10
-3089.081986303272
 20
1249.266667124855
 30
0.0
 11
-2836.58198630327
 21
1249.266667124855
 31
0.0
  0
LINE
  5
10A
330
1F
100
AcDbEntity
  8
0_Pen_No__7
  6
Continuous
100
AcDbLine
 10
-3089.081986303272
 20
1299.266667124855
 30
0.0
 11
-2814.081986303271
 21
1299.266667124855
 31
0.0
  0
LINE
  5
10B
330
1F
100
AcDbEntity
  8
0_Pen_No__7
  6
Continuous
100
AcDbLine
 10
-1289.081986303271
 20
1374.266667124855
 30
0.0
 11
-1289.081986303271
 21
1299.266667124855
 31
0.0
  0
LINE
  5
10C
330
1F
100
AcDbEntity
  8
0_Pen_No__7
  6
Continuous
100
AcDbLine
 10
-1339.081986303272
 20
1374.266667124855
 30
0.0
 11
-1339.081986303272
 21
1299.266667124855
 31
0.0
  0
LINE
  5
10D
330
1F
100
AcDbEntity
  8
0_Pen_No__7
  6
Continuous
100
AcDbLine
 10
-1289.081986303271
 20
524.2666671248558
 30
0.0
 11
-1036.581986303271
 21
524.2666671248558
 31
0.0
  0
LINE
  5
10E
330
1F
100
AcDbEntity
  8
0_Pen_No__7
  6
Continuous
100
AcDbLine
 10
-1289.081986303271
 20
574.2666671248555
 30
0.0
 11
-1036.581986303271
 21
574.2666671248555
 31
0.0
  0
LINE
  5
10F
330
1F
100
AcDbEntity
  8
0_Pen_No__7
  6
Continuous
100
AcDbLine
 10
-1289.081986303271
 20
-200.733332875144
 30
0.0
 11
-1036.581986303271
 21
-200.733332875144
 31
0.0
  0
LINE
  5
110
330
1F
100
AcDbEntity
  8
0_Pen_No__7
  6
Continuous
100
AcDbLine
 10
-1289.081986303271
 20
-150.7333328751441
 30
0.0
 11
-1036.581986303271
 21
-150.7333328751441
 31
0.0
  0
LINE
  5
111
330
1F
100
AcDbEntity
  8
0_Pen_No__7
  6
Continuous
100
AcDbLine
 10
-1289.081986303271
 20
1249.266667124855
 30
0.0
 11
-1014.081986303271
 21
1249.266667124855
 31
0.0
  0
LINE
  5
112
330
1F
100
AcDbEntity
  8
0_Pen_No__7
  6
Continuous
100
AcDbLine
 10
-1289.081986303271
 20
1299.266667124855
 30
0.0
 11
-1014.081986303271
 21
1299.266667124855
 31
0.0
  0
LINE
  5
113
330
1F
100
AcDbEntity
  8
0_Pen_No__7
  6
Continuous
100
AcDbLine
 10
-2214.081986303272
 20
1374.266667124855
 30
0.0
 11
-2214.081986303272
 21
-925.7333328751436
 31
0.0
  0
LINE
  5
114
330
1F
100
AcDbEntity
  8
0_Pen_No__7
  6
Continuous
100
AcDbLine
 10
-2164.081986303271
 20
1374.266667124855
 30
0.0
 11
-2164.081986303271
 21
1299.266667124855
 31
0.0
  0
LINE
  5
115
330
1F
100
AcDbEntity
  8
0_Pen_No__7
  6
Continuous
100
AcDbLine
 10
-2114.081986303272
 20
1024.266667124859
 30
0.0
 11
-2114.081986303272
 21
-925.7333328751436
 31
0.0
  0
LINE
  5
116
330
1F
100
AcDbEntity
  8
0_Pen_No__7
  6
Continuous
100
AcDbLine
 10
-2064.0819863033
 20
-0.7333328751411017
 30
0.0
 11
-2064.081986303271
 21
-925.7333328751436
 31
0.0
  0
LINE
  5
117
330
1F
100
AcDbEntity
  8
0_Pen_No__7
  6
Continuous
100
AcDbLine
 10
-2164.081986303271
 20
1174.266667124856
 30
0.0
 11
-1939.081986303271
 21
1174.266667124857
 31
0.0
  0
LINE
  5
118
330
1F
100
AcDbEntity
  8
0_Pen_No__7
  6
Continuous
100
AcDbLine
 10
-2164.081986303271
 20
1024.266667124856
 30
0.0
 11
-1339.081986303272
 21
1024.266667124859
 31
0.0
  0
LINE
  5
119
330
1F
100
AcDbEntity
  8
0_Pen_No__7
  6
Continuous
100
AcDbLine
 10
-1389.081986303271
 20
1024.266667124859
 30
0.0
 11
-1389.081986303271
 21
-925.7333328751436
 31
0.0
  0
LINE
  5
11A
330
1F
100
AcDbEntity
  8
0_Pen_No__7
  6
Continuous
100
AcDbLine
 10
-1439.0819863033
 20
-0.7333328751411017
 30
0.0
 11
-1439.081986303271
 21
-925.7333328751436
 31
0.0
  0
LINE
  5
11B
330
1F
100
AcDbEntity
  8
0_Pen_No__7
  6
Continuous
100
AcDbLine
 10
-2114.081986303272
 20
49.26666712485606
 30
0.0
 11
-1389.081986303301
 21
49.26666712485606
 31
0.0
  0
LINE
  5
11C
330
1F
100
AcDbEntity
  8
0_Pen_No__7
  6
Continuous
100
AcDbLine
 10
-2114.081986303272
 20
-0.7333328751446544
 30
0.0
 11
-1389.081986303301
 21
-0.7333328751411017
 31
0.0
  0
LINE
  5
11D
330
1F
100
AcDbEntity
  8
0_Pen_No__7
  6
Continuous
100
AcDbLine
 10
-1939.081986303271
 20
1374.266667124855
 30
0.0
 11
-1939.081986303271
 21
1299.266667124855
 31
0.0
  0
LINE
  5
11E
330
1F
100
AcDbEntity
  8
0_Pen_No__7
  6
Continuous
100
AcDbLine
 10
-1939.081986303271
 20
-0.7333328751446544
 30
0.0
 11
-1939.081986303271
 21
-925.7333328751436
 31
0.0
  0
LINE
  5
11F
330
1F
100
AcDbEntity
  8
0_Pen_No__7
  6
Continuous
100
AcDbLine
 10
-1889.081986303271
 20
1374.266667124855
 30
0.0
 11
-1889.081986303271
 21
1299.266667124856
 31
0.0
  0
LINE
  5
120
330
1F
100
AcDbEntity
  8
0_Pen_No__7
  6
Continuous
100
AcDbLine
 10
-1889.081986303271
 20
-0.7333328751446544
 30
0.0
 11
-1889.081986303271
 21
-925.7333328751436
 31
0.0
  0
LINE
  5
121
330
1F
100
AcDbEntity
  8
0_Pen_No__7
  6
Continuous
100
AcDbLine
 10
-414.0819863032709
 20
1374.266667124855
 30
0.0
 11
-414.0819863032709
 21
1299.266667124855
 31
0.0
  0
LINE
  5
122
330
1F
100
AcDbEntity
  8
0_Pen_No__7
  6
Continuous
100
AcDbLine
 10
-364.0819863032719
 20
1374.266667124855
 30
0.0
 11
-364.0819863032719
 21
1299.266667124855
 31
0.0
  0
LINE
  5
123
330
1F
100
AcDbEntity
  8
0_Pen_No__7
  6
Continuous
100
AcDbLine
 10
-314.0819863032712
 20
1024.266667124859
 30
0.0
 11
-314.0819863032712
 21
-975.7333328751442
 31
0.0
  0
LINE
  5
124
330
1F
100
AcDbEntity
  8
0_Pen_No__7
  6
Continuous
100
AcDbLine
 10
-364.0819863032719
 20
1174.26666712486
 30
0.0
 11
-136.581986303271
 21
1174.26666712486
 31
0.0
  0
LINE
  5
125
330
1F
100
AcDbEntity
  8
0_Pen_No__7
  6
Continuous
100
AcDbLine
 10
-364.0819863032719
 20
1024.266667124859
 30
0.0
 11
650.9180136967286
 21
1024.266667124859
 31
0.0
  0
LINE
  5
126
330
1F
100
AcDbEntity
  8
0_Pen_No__7
  6
Continuous
100
AcDbLine
 10
650.9180136967286
 20
1374.266667124855
 30
0.0
 11
650.9180136967286
 21
1299.266667124856
 31
0.0
  0
LINE
  5
127
330
1F
100
AcDbEntity
  8
0_Pen_No__7
  6
Continuous
100
AcDbLine
 10
600.9180136967298
 20
1024.266667124859
 30
0.0
 11
600.9180136967298
 21
-975.7333328751442
 31
0.0
  0
LINE
  5
128
330
1F
100
AcDbEntity
  8
0_Pen_No__7
  6
Continuous
100
AcDbLine
 10
-2164.081986303271
 20
1299.266667124856
 30
0.0
 11
-1939.081986303243
 21
1299.26666712486
 31
0.0
  0
LINE
  5
129
330
1F
100
AcDbEntity
  8
0_Pen_No__7
  6
Continuous
100
AcDbLine
 10
-1889.081986303242
 20
1299.26666712486
 30
0.0
 11
-1339.081986303272
 21
1299.266667124853
 31
0.0
  0
LINE
  5
12A
330
1F
100
AcDbEntity
  8
0_Pen_No__7
  6
Continuous
100
AcDbLine
 10
-2164.081986303271
 20
1249.266667124855
 30
0.0
 11
-1939.081986303243
 21
1249.266667124855
 31
0.0
  0
LINE
  5
12B
330
1F
100
AcDbEntity
  8
0_Pen_No__7
  6
Continuous
100
AcDbLine
 10
-1889.081986303242
 20
1249.266667124855
 30
0.0
 11
-1339.081986303272
 21
1249.266667124852
 31
0.0
  0
LINE
  5
12C
330
1F
100
AcDbEntity
  8
0_Pen_No__7
  6
Continuous
100
AcDbLine
 10
-364.0819863032719
 20
1299.266667124856
 30
0.0
 11
460.9180136967291
 21
1299.266667124856
 31
0.0
  0
LINE
  5
12D
330
1F
100
AcDbEntity
  8
0_Pen_No__7
  6
Continuous
100
AcDbLine
 10
510.9180136967281
 20
1299.266667124856
 30
0.0
 11
650.9180136967286
 21
1299.266667124856
 31
0.0
  0
LINE
  5
12E
330
1F
100
AcDbEntity
  8
0_Pen_No__7
  6
Continuous
100
AcDbLine
 10
-364.0819863032719
 20
1249.266667124855
 30
0.0
 11
460.9180136967291
 21
1249.266667124855
 31
0.0
  0
LINE
  5
12F
330
1F
100
AcDbEntity
  8
0_Pen_No__7
  6
Continuous
100
AcDbLine
 10
510.9180136967281
 20
1249.266667124855
 30
0.0
 11
650.9180136967286
 21
1249.266667124855
 31
0.0
  0
LINE
  5
130
330
1F
100
AcDbEntity
  8
0_Pen_No__7
  6
Continuous
100
AcDbLine
 10
1735.918013696728
 20
1374.266667124855
 30
0.0
 11
1735.918013696728
 21
1299.266667124855
 31
0.0
  0
LINE
  5
131
330
1F
100
AcDbEntity
  8
0_Pen_No__7
  6
Continuous
100
AcDbLine
 10
1635.918013696728
 20
1374.266667124855
 30
0.0
 11
1635.918013696728
 21
1299.266667124855
 31
0.0
  0
LINE
  5
132
330
1F
100
AcDbEntity
  8
0_Pen_No__7
  6
Continuous
100
AcDbLine
 10
1735.918013696728
 20
524.2666671248558
 30
0.0
 11
1985.918013696729
 21
524.2666671248558
 31
0.0
  0
LINE
  5
133
330
1F
100
AcDbEntity
  8
0_Pen_No__7
  6
Continuous
100
AcDbLine
 10
1735.918013696728
 20
574.2666671248555
 30
0.0
 11
1985.918013696729
 21
574.2666671248555
 31
0.0
  0
LINE
  5
134
330
1F
100
AcDbEntity
  8
0_Pen_No__7
  6
Continuous
100
AcDbLine
 10
1735.918013696728
 20
-200.733332875144
 30
0.0
 11
1985.918013696729
 21
-200.733332875144
 31
0.0
  0
LINE
  5
135
330
1F
100
AcDbEntity
  8
0_Pen_No__7
  6
Continuous
100
AcDbLine
 10
1735.918013696728
 20
-150.7333328751441
 30
0.0
 11
1985.918013696729
 21
-150.7333328751441
 31
0.0
  0
LINE
  5
136
330
1F
100
AcDbEntity
  8
0_Pen_No__7
  6
Continuous
100
AcDbLine
 10
1735.918013696728
 20
1249.266667124855
 30
0.0
 11
1985.918013696729
 21
1249.266667124855
 31
0.0
  0
LINE
  5
137
330
1F
100
AcDbEntity
  8
0_Pen_No__7
  6
Continuous
100
AcDbLine
 10
1735.918013696728
 20
1299.266667124855
 30
0.0
 11
1985.918013696729
 21
1299.266667124855
 31
0.0
  0
LINE
  5
138
330
1F
100
AcDbEntity
  8
0_Pen_No__7
  6
Continuous
100
AcDbLine
 10
1635.91801369673
 20
524.2666671248558
 30
0.0
 11
1408.418013696729
 21
524.2666671248558
 31
0.0
  0
LINE
  5
139
330
1F
100
AcDbEntity
  8
0_Pen_No__7
  6
Continuous
100
AcDbLine
 10
1635.91801369673
 20
574.2666671248555
 30
0.0
 11
1408.418013696729
 21
574.2666671248555
 31
0.0
  0
LINE
  5
13A
330
1F
100
AcDbEntity
  8
0_Pen_No__7
  6
Continuous
100
AcDbLine
 10
1635.918013696728
 20
-200.733332875144
 30
0.0
 11
1408.418013696729
 21
-200.733332875144
 31
0.0
  0
LINE
  5
13B
330
1F
100
AcDbEntity
  8
0_Pen_No__7
  6
Continuous
100
AcDbLine
 10
1635.918013696728
 20
-150.7333328751441
 30
0.0
 11
1408.418013696729
 21
-150.7333328751441
 31
0.0
  0
LINE
  5
13C
330
1F
100
AcDbEntity
  8
0_Pen_No__7
  6
Continuous
100
AcDbLine
 10
1635.918013696728
 20
1249.266667124855
 30
0.0
 11
1408.418013696729
 21
1249.266667124855
 31
0.0
  0
LINE
  5
13D
330
1F
100
AcDbEntity
  8
0_Pen_No__7
  6
Continuous
100
AcDbLine
 10
1635.918013696728
 20
1299.266667124855
 30
0.0
 11
1385.918013696728
 21
1299.266667124855
 31
0.0
  0
LINE
  5
13E
330
1F
100
AcDbEntity
  8
0_Pen_No__7
  6
Continuous
100
AcDbLine
 10
3210.852887500712
 20
1424.266667124856
 30
0.0
 11
3210.852887500712
 21
1374.266667124855
 31
0.0
  0
LINE
  5
13F
330
1F
100
AcDbEntity
  8
0_Pen_No__7
  6
Continuous
100
AcDbLine
 10
3210.852887500712
 20
-925.7333328751436
 30
0.0
 11
3210.852887500712
 21
-975.7333328751442
 31
0.0
  0
LINE
  5
140
330
1F
100
AcDbEntity
  8
0_Pen_No__7
  6
Continuous
100
AcDbLine
 10
-3139.081986303273
 20
-975.7333328751442
 30
0.0
 11
-3139.081986303273
 21
-925.7333328751436
 31
0.0
  0
LINE
  5
141
330
1F
100
AcDbEntity
  8
0_Pen_No__7
  6
Continuous
100
AcDbLine
 10
-3139.081986303273
 20
1374.266667124855
 30
0.0
 11
-3139.081986303273
 21
1424.266667124856
 31
0.0
  0
LINE
  5
143
330
1F
100
AcDbEntity
  8
0_Pen_No__81
  6
DASHED2
100
AcDbLine
 10
-1914.081986303271
 20
-975.7333328751442
 30
0.0
 11
-1914.081986303271
 21
-0.7333328751482071
 31
0.0
  0
LINE
  5
145
330
1F
100
AcDbEntity
  8
0_Pen_No__81
  6
DASHED2
100
AcDbLine
 10
-1914.081986303271
 20
1174.266667124856
 30
0.0
 11
-1914.081986303271
 21
1424.266667124856
 31
0.0
  0
LINE
  5
146
330
1F
100
AcDbEntity
  8
0_Pen_No__81
  6
DASHED2
100
AcDbLine
 10
-714.0819863032716
 20
-975.7333328751442
 30
0.0
 11
-714.0819863032716
 21
1424.266667124856
 31
0.0
  0
LINE
  5
147
330
1F
100
AcDbEntity
  8
0_Pen_No__81
  6
DASHED2
100
AcDbLine
 10
485.9180136967295
 20
1174.26666712486
 30
0.0
 11
485.9180136967295
 21
1424.266667124856
 31
0.0
  0
LINE
  5
148
330
1F
100
AcDbEntity
  8
0_Pen_No__81
  6
DASHED2
100
AcDbLine
 10
1685.918013696729
 20
-975.7333328751442
 30
0.0
 11
1685.918013696729
 21
1424.266667124856
 31
0.0
  0
LINE
  5
149
330
1F
100
AcDbEntity
  8
0_Pen_No__7
  6
Continuous
100
AcDbLine
 10
460.9180136967291
 20
1174.266667124856
 30
0.0
 11
460.9180136967291
 21
1249.266667124855
 31
0.0
  0
LINE
  5
14A
330
1F
100
AcDbEntity
  8
0_Pen_No__7
  6
Continuous
100
AcDbLine
 10
510.9180136967281
 20
1174.266667124856
 30
0.0
 11
510.9180136967281
 21
1249.266667124855
 31
0.0
  0
LINE
  5
14B
330
1F
100
AcDbEntity
  8
0_Pen_No__7
  6
Continuous
100
AcDbLine
 10
700.9180136967293
 20
-925.7333328751436
 30
0.0
 11
700.9180136967293
 21
1249.266667124855
 31
0.0
  0
LINE
  5
14C
330
1F
100
AcDbEntity
  8
0_Pen_No__7
  6
Continuous
100
AcDbLine
 10
785.9180136967284
 20
1299.266667124856
 30
0.0
 11
700.9180136967293
 21
1299.266667124856
 31
0.0
  0
LINE
  5
14D
330
1F
100
AcDbEntity
  8
0_Pen_No__7
  6
Continuous
100
AcDbLine
 10
785.9180136967284
 20
1249.266667124855
 30
0.0
 11
700.9180136967293
 21
1249.266667124855
 31
0.0
  0
LINE
  5
14E
330
1F
100
AcDbEntity
  8
0_Pen_No__7
  6
Continuous
100
AcDbLine
 10
763.4180136967293
 20
574.2666671248555
 30
0.0
 11
700.9180136967293
 21
574.2666671248555
 31
0.0
  0
LINE
  5
14F
330
1F
100
AcDbEntity
  8
0_Pen_No__7
  6
Continuous
100
AcDbLine
 10
763.4180136967293
 20
524.2666671248558
 30
0.0
 11
700.9180136967293
 21
524.2666671248558
 31
0.0
  0
LINE
  5
150
330
1F
100
AcDbEntity
  8
0_Pen_No__7
  6
Continuous
100
AcDbLine
 10
763.4180136967293
 20
-150.7333328751441
 30
0.0
 11
700.9180136967293
 21
-150.7333328751441
 31
0.0
  0
LINE
  5
151
330
1F
100
AcDbEntity
  8
0_Pen_No__7
  6
Continuous
100
AcDbLine
 10
763.4180136967293
 20
-200.733332875144
 30
0.0
 11
700.9180136967293
 21
-200.733332875144
 31
0.0
  0
LINE
  5
152
330
1F
100
AcDbEntity
  8
0_Pen_No__7
  6
Continuous
100
AcDbLine
 10
-3089.081986303272
 20
-975.7333328751442
 30
0.0
 11
-3089.031986303272
 21
-975.7333328751442
 31
0.0
  0
LINE
  5
153
330
1F
100
AcDbEntity
  8
0_Pen_No__7
  6
Continuous
100
AcDbLine
 10
-3139.081986303273
 20
-975.7333328751442
 30
0.0
 11
-3139.031986303271
 21
-975.7333328751442
 31
0.0
  0
LINE
  5
154
330
1F
100
AcDbEntity
  8
0_Pen_No__7
  6
Continuous
100
AcDbLine
 10
-3124.081986303272
 20
-950.7333328751439
 30
0.0
 11
-3104.081986303272
 21
-950.7333328751439
 31
0.0
  0
LINE
  5
155
330
1F
100
AcDbEntity
  8
0_Pen_No__7
  6
Continuous
100
AcDbLine
 10
-3114.081986303272
 20
-940.7333328751441
 30
0.0
 11
-3114.081986303272
 21
-960.7333328751438
 31
0.0
  0
LINE
  5
156
330
1F
100
AcDbEntity
  8
0_Pen_No__7
  6
Continuous
100
AcDbLine
 10
-3124.081986303272
 20
-175.7333328751445
 30
0.0
 11
-3104.081986303272
 21
-175.7333328751445
 31
0.0
  0
LINE
  5
157
330
1F
100
AcDbEntity
  8
0_Pen_No__7
  6
Continuous
100
AcDbLine
 10
-3114.081986303272
 20
-165.7333328751438
 30
0.0
 11
-3114.081986303272
 21
-185.7333328751443
 31
0.0
  0
LINE
  5
158
330
1F
100
AcDbEntity
  8
0_Pen_No__7
  6
Continuous
100
AcDbLine
 10
-3124.081986303272
 20
549.2666671248561
 30
0.0
 11
-3104.081986303272
 21
549.2666671248561
 31
0.0
  0
LINE
  5
159
330
1F
100
AcDbEntity
  8
0_Pen_No__7
  6
Continuous
100
AcDbLine
 10
-3114.081986303272
 20
559.2666671248559
 30
0.0
 11
-3114.081986303272
 21
539.2666671248562
 31
0.0
  0
LINE
  5
15A
330
1F
100
AcDbEntity
  8
0_Pen_No__7
  6
Continuous
100
AcDbLine
 10
-3124.081986303272
 20
1274.266667124856
 30
0.0
 11
-3104.081986303272
 21
1274.266667124856
 31
0.0
  0
LINE
  5
15B
330
1F
100
AcDbEntity
  8
0_Pen_No__7
  6
Continuous
100
AcDbLine
 10
-3114.081986303272
 20
1284.266667124856
 30
0.0
 11
-3114.081986303272
 21
1264.266667124856
 31
0.0
  0
LINE
  5
15C
330
1F
100
AcDbEntity
  8
0_Pen_No__7
  6
Continuous
100
AcDbLine
 10
-2489.081986303272
 20
-975.7333328751442
 30
0.0
 11
-2489.031986303272
 21
-975.7333328751442
 31
0.0
  0
LINE
  5
15D
330
1F
100
AcDbEntity
  8
0_Pen_No__7
  6
Continuous
100
AcDbLine
 10
-2539.081986303271
 20
-975.7333328751442
 30
0.0
 11
-2539.031986303271
 21
-975.7333328751442
 31
0.0
  0
LINE
  5
15E
330
1F
100
AcDbEntity
  8
0_Pen_No__7
  6
Continuous
100
AcDbLine
 10
-2524.08198630327
 20
-950.7333328751439
 30
0.0
 11
-2504.081986303271
 21
-950.7333328751439
 31
0.0
  0
LINE
  5
15F
330
1F
100
AcDbEntity
  8
0_Pen_No__7
  6
Continuous
100
AcDbLine
 10
-2514.081986303273
 20
-940.7333328751441
 30
0.0
 11
-2514.081986303273
 21
-960.7333328751438
 31
0.0
  0
LINE
  5
160
330
1F
100
AcDbEntity
  8
0_Pen_No__7
  6
Continuous
100
AcDbLine
 10
-2524.08198630327
 20
-175.7333328751445
 30
0.0
 11
-2504.081986303271
 21
-175.7333328751445
 31
0.0
  0
LINE
  5
161
330
1F
100
AcDbEntity
  8
0_Pen_No__7
  6
Continuous
100
AcDbLine
 10
-2514.081986303273
 20
-165.7333328751438
 30
0.0
 11
-2514.081986303273
 21
-185.7333328751443
 31
0.0
  0
LINE
  5
162
330
1F
100
AcDbEntity
  8
0_Pen_No__7
  6
Continuous
100
AcDbLine
 10
-2524.08198630327
 20
549.2666671248561
 30
0.0
 11
-2504.081986303271
 21
549.2666671248561
 31
0.0
  0
LINE
  5
163
330
1F
100
AcDbEntity
  8
0_Pen_No__7
  6
Continuous
100
AcDbLine
 10
-2514.081986303273
 20
559.2666671248559
 30
0.0
 11
-2514.081986303273
 21
539.2666671248562
 31
0.0
  0
LINE
  5
164
330
1F
100
AcDbEntity
  8
0_Pen_No__7
  6
Continuous
100
AcDbLine
 10
-2524.08198630327
 20
1274.266667124856
 30
0.0
 11
-2504.081986303271
 21
1274.266667124856
 31
0.0
  0
LINE
  5
165
330
1F
100
AcDbEntity
  8
0_Pen_No__7
  6
Continuous
100
AcDbLine
 10
-2514.081986303273
 20
1284.266667124856
 30
0.0
 11
-2514.081986303273
 21
1264.266667124856
 31
0.0
  0
LINE
  5
166
330
1F
100
AcDbEntity
  8
0_Pen_No__7
  6
Continuous
100
AcDbLine
 10
-2164.081986303271
 20
-975.7333328751442
 30
0.0
 11
-2164.031986303271
 21
-975.7333328751442
 31
0.0
  0
LINE
  5
167
330
1F
100
AcDbEntity
  8
0_Pen_No__7
  6
Continuous
100
AcDbLine
 10
-2214.081986303272
 20
-975.7333328751442
 30
0.0
 11
-2214.031986303272
 21
-975.7333328751442
 31
0.0
  0
LINE
  5
168
330
1F
100
AcDbEntity
  8
0_Pen_No__7
  6
Continuous
100
AcDbLine
 10
-2199.081986303271
 20
-950.7333328751439
 30
0.0
 11
-2179.081986303272
 21
-950.7333328751439
 31
0.0
  0
LINE
  5
169
330
1F
100
AcDbEntity
  8
0_Pen_No__7
  6
Continuous
100
AcDbLine
 10
-2189.081986303271
 20
-940.7333328751441
 30
0.0
 11
-2189.081986303271
 21
-960.7333328751438
 31
0.0
  0
LINE
  5
16A
330
1F
100
AcDbEntity
  8
0_Pen_No__7
  6
Continuous
100
AcDbLine
 10
-2199.081986303271
 20
-175.7333328751445
 30
0.0
 11
-2179.081986303272
 21
-175.7333328751445
 31
0.0
  0
LINE
  5
16B
330
1F
100
AcDbEntity
  8
0_Pen_No__7
  6
Continuous
100
AcDbLine
 10
-2189.081986303271
 20
-165.7333328751438
 30
0.0
 11
-2189.081986303271
 21
-185.7333328751443
 31
0.0
  0
LINE
  5
16C
330
1F
100
AcDbEntity
  8
0_Pen_No__7
  6
Continuous
100
AcDbLine
 10
-2199.081986303271
 20
549.2666671248561
 30
0.0
 11
-2179.081986303272
 21
549.2666671248561
 31
0.0
  0
LINE
  5
16D
330
1F
100
AcDbEntity
  8
0_Pen_No__7
  6
Continuous
100
AcDbLine
 10
-2189.081986303271
 20
559.2666671248559
 30
0.0
 11
-2189.081986303271
 21
539.2666671248562
 31
0.0
  0
LINE
  5
16E
330
1F
100
AcDbEntity
  8
0_Pen_No__7
  6
Continuous
100
AcDbLine
 10
-2199.081986303271
 20
1274.266667124856
 30
0.0
 11
-2179.081986303272
 21
1274.266667124856
 31
0.0
  0
LINE
  5
16F
330
1F
100
AcDbEntity
  8
0_Pen_No__7
  6
Continuous
100
AcDbLine
 10
-2189.081986303271
 20
1284.266667124856
 30
0.0
 11
-2189.081986303271
 21
1264.266667124856
 31
0.0
  0
LINE
  5
170
330
1F
100
AcDbEntity
  8
0_Pen_No__7
  6
Continuous
100
AcDbLine
 10
-1289.081986303271
 20
-975.7333328751442
 30
0.0
 11
-1289.031986303271
 21
-975.7333328751442
 31
0.0
  0
LINE
  5
171
330
1F
100
AcDbEntity
  8
0_Pen_No__7
  6
Continuous
100
AcDbLine
 10
-1339.081986303272
 20
-975.7333328751442
 30
0.0
 11
-1339.031986303272
 21
-975.7333328751442
 31
0.0
  0
LINE
  5
172
330
1F
100
AcDbEntity
  8
0_Pen_No__7
  6
Continuous
100
AcDbLine
 10
-1324.081986303271
 20
-950.7333328751439
 30
0.0
 11
-1304.081986303272
 21
-950.7333328751439
 31
0.0
  0
LINE
  5
173
330
1F
100
AcDbEntity
  8
0_Pen_No__7
  6
Continuous
100
AcDbLine
 10
-1314.081986303271
 20
-940.7333328751441
 30
0.0
 11
-1314.081986303271
 21
-960.7333328751438
 31
0.0
  0
LINE
  5
174
330
1F
100
AcDbEntity
  8
0_Pen_No__7
  6
Continuous
100
AcDbLine
 10
-1324.081986303271
 20
-175.7333328751445
 30
0.0
 11
-1304.081986303272
 21
-175.7333328751445
 31
0.0
  0
LINE
  5
175
330
1F
100
AcDbEntity
  8
0_Pen_No__7
  6
Continuous
100
AcDbLine
 10
-1314.081986303271
 20
-165.7333328751438
 30
0.0
 11
-1314.081986303271
 21
-185.7333328751443
 31
0.0
  0
LINE
  5
176
330
1F
100
AcDbEntity
  8
0_Pen_No__7
  6
Continuous
100
AcDbLine
 10
-1324.081986303271
 20
549.2666671248561
 30
0.0
 11
-1304.081986303272
 21
549.2666671248561
 31
0.0
  0
LINE
  5
177
330
1F
100
AcDbEntity
  8
0_Pen_No__7
  6
Continuous
100
AcDbLine
 10
-1314.081986303271
 20
559.2666671248559
 30
0.0
 11
-1314.081986303271
 21
539.2666671248562
 31
0.0
  0
LINE
  5
178
330
1F
100
AcDbEntity
  8
0_Pen_No__7
  6
Continuous
100
AcDbLine
 10
-1324.081986303271
 20
1274.266667124856
 30
0.0
 11
-1304.081986303272
 21
1274.266667124856
 31
0.0
  0
LINE
  5
179
330
1F
100
AcDbEntity
  8
0_Pen_No__7
  6
Continuous
100
AcDbLine
 10
-1314.081986303271
 20
1284.266667124856
 30
0.0
 11
-1314.081986303271
 21
1264.266667124856
 31
0.0
  0
LINE
  5
17A
330
1F
100
AcDbEntity
  8
0_Pen_No__7
  6
Continuous
100
AcDbLine
 10
-689.0819863032713
 20
-975.7333328751442
 30
0.0
 11
-689.0319863032713
 21
-975.7333328751442
 31
0.0
  0
LINE
  5
17B
330
1F
100
AcDbEntity
  8
0_Pen_No__7
  6
Continuous
100
AcDbLine
 10
-739.081986303272
 20
-975.7333328751442
 30
0.0
 11
-739.031986303272
 21
-975.7333328751442
 31
0.0
  0
LINE
  5
17C
330
1F
100
AcDbEntity
  8
0_Pen_No__7
  6
Continuous
100
AcDbLine
 10
-724.0819863032714
 20
-950.7333328751439
 30
0.0
 11
-704.0819863032718
 21
-950.7333328751439
 31
0.0
  0
LINE
  5
17D
330
1F
100
AcDbEntity
  8
0_Pen_No__7
  6
Continuous
100
AcDbLine
 10
-714.0819863032716
 20
-940.7333328751441
 30
0.0
 11
-714.0819863032716
 21
-960.7333328751438
 31
0.0
  0
LINE
  5
17E
330
1F
100
AcDbEntity
  8
0_Pen_No__7
  6
Continuous
100
AcDbLine
 10
-724.0819863032714
 20
-175.7333328751445
 30
0.0
 11
-704.0819863032718
 21
-175.7333328751445
 31
0.0
  0
LINE
  5
17F
330
1F
100
AcDbEntity
  8
0_Pen_No__7
  6
Continuous
100
AcDbLine
 10
-714.0819863032716
 20
-165.7333328751438
 30
0.0
 11
-714.0819863032716
 21
-185.7333328751443
 31
0.0
  0
LINE
  5
180
330
1F
100
AcDbEntity
  8
0_Pen_No__7
  6
Continuous
100
AcDbLine
 10
-724.0819863032714
 20
549.2666671248561
 30
0.0
 11
-704.0819863032718
 21
549.2666671248561
 31
0.0
  0
LINE
  5
181
330
1F
100
AcDbEntity
  8
0_Pen_No__7
  6
Continuous
100
AcDbLine
 10
-714.0819863032716
 20
559.2666671248559
 30
0.0
 11
-714.0819863032716
 21
539.2666671248562
 31
0.0
  0
LINE
  5
182
330
1F
100
AcDbEntity
  8
0_Pen_No__7
  6
Continuous
100
AcDbLine
 10
-724.0819863032714
 20
1274.266667124856
 30
0.0
 11
-704.0819863032718
 21
1274.266667124856
 31
0.0
  0
LINE
  5
183
330
1F
100
AcDbEntity
  8
0_Pen_No__7
  6
Continuous
100
AcDbLine
 10
-714.0819863032716
 20
1284.266667124856
 30
0.0
 11
-714.0819863032716
 21
1264.266667124856
 31
0.0
  0
LINE
  5
184
330
1F
100
AcDbEntity
  8
0_Pen_No__7
  6
Continuous
100
AcDbLine
 10
-364.0819863032719
 20
-975.7333328751442
 30
0.0
 11
-364.031986303272
 21
-975.7333328751442
 31
0.0
  0
LINE
  5
185
330
1F
100
AcDbEntity
  8
0_Pen_No__7
  6
Continuous
100
AcDbLine
 10
-414.0819863032709
 20
-975.7333328751442
 30
0.0
 11
-414.031986303271
 21
-975.7333328751442
 31
0.0
  0
LINE
  5
186
330
1F
100
AcDbEntity
  8
0_Pen_No__7
  6
Continuous
100
AcDbLine
 10
-399.0819863032721
 20
-950.7333328751439
 30
0.0
 11
-379.0819863032707
 21
-950.7333328751439
 31
0.0
  0
LINE
  5
187
330
1F
100
AcDbEntity
  8
0_Pen_No__7
  6
Continuous
100
AcDbLine
 10
-389.0819863032705
 20
-940.7333328751441
 30
0.0
 11
-389.0819863032705
 21
-960.7333328751438
 31
0.0
  0
LINE
  5
188
330
1F
100
AcDbEntity
  8
0_Pen_No__7
  6
Continuous
100
AcDbLine
 10
-399.0819863032721
 20
-175.7333328751445
 30
0.0
 11
-379.0819863032707
 21
-175.7333328751445
 31
0.0
  0
LINE
  5
189
330
1F
100
AcDbEntity
  8
0_Pen_No__7
  6
Continuous
100
AcDbLine
 10
-389.0819863032705
 20
-165.7333328751438
 30
0.0
 11
-389.0819863032705
 21
-185.7333328751443
 31
0.0
  0
LINE
  5
18A
330
1F
100
AcDbEntity
  8
0_Pen_No__7
  6
Continuous
100
AcDbLine
 10
-399.0819863032721
 20
549.2666671248561
 30
0.0
 11
-379.0819863032707
 21
549.2666671248561
 31
0.0
  0
LINE
  5
18B
330
1F
100
AcDbEntity
  8
0_Pen_No__7
  6
Continuous
100
AcDbLine
 10
-389.0819863032705
 20
559.2666671248559
 30
0.0
 11
-389.0819863032705
 21
539.2666671248562
 31
0.0
  0
LINE
  5
18C
330
1F
100
AcDbEntity
  8
0_Pen_No__7
  6
Continuous
100
AcDbLine
 10
-399.0819863032721
 20
1274.266667124856
 30
0.0
 11
-379.0819863032707
 21
1274.266667124856
 31
0.0
  0
LINE
  5
18D
330
1F
100
AcDbEntity
  8
0_Pen_No__7
  6
Continuous
100
AcDbLine
 10
-389.0819863032705
 20
1284.266667124856
 30
0.0
 11
-389.0819863032705
 21
1264.266667124856
 31
0.0
  0
LINE
  5
18E
330
1F
100
AcDbEntity
  8
0_Pen_No__7
  6
Continuous
100
AcDbLine
 10
700.9180136967293
 20
-975.7333328751442
 30
0.0
 11
700.9680136967293
 21
-975.7333328751442
 31
0.0
  0
LINE
  5
18F
330
1F
100
AcDbEntity
  8
0_Pen_No__7
  6
Continuous
100
AcDbLine
 10
650.9180136967286
 20
-975.7333328751442
 30
0.0
 11
650.9680136967286
 21
-975.7333328751442
 31
0.0
  0
LINE
  5
190
330
1F
100
AcDbEntity
  8
0_Pen_No__7
  6
Continuous
100
AcDbLine
 10
665.9180136967292
 20
-950.7333328751439
 30
0.0
 11
685.9180136967287
 21
-950.7333328751439
 31
0.0
  0
LINE
  5
191
330
1F
100
AcDbEntity
  8
0_Pen_No__7
  6
Continuous
100
AcDbLine
 10
675.918013696729
 20
-940.7333328751441
 30
0.0
 11
675.918013696729
 21
-960.7333328751438
 31
0.0
  0
LINE
  5
192
330
1F
100
AcDbEntity
  8
0_Pen_No__7
  6
Continuous
100
AcDbLine
 10
665.9180136967292
 20
-175.7333328751445
 30
0.0
 11
685.9180136967287
 21
-175.7333328751445
 31
0.0
  0
LINE
  5
193
330
1F
100
AcDbEntity
  8
0_Pen_No__7
  6
Continuous
100
AcDbLine
 10
675.918013696729
 20
-165.7333328751438
 30
0.0
 11
675.918013696729
 21
-185.7333328751443
 31
0.0
  0
LINE
  5
194
330
1F
100
AcDbEntity
  8
0_Pen_No__7
  6
Continuous
100
AcDbLine
 10
665.9180136967292
 20
549.2666671248561
 30
0.0
 11
685.9180136967287
 21
549.2666671248561
 31
0.0
  0
LINE
  5
195
330
1F
100
AcDbEntity
  8
0_Pen_No__7
  6
Continuous
100
AcDbLine
 10
675.918013696729
 20
559.2666671248559
 30
0.0
 11
675.918013696729
 21
539.2666671248562
 31
0.0
  0
LINE
  5
196
330
1F
100
AcDbEntity
  8
0_Pen_No__7
  6
Continuous
100
AcDbLine
 10
665.9180136967292
 20
1274.266667124856
 30
0.0
 11
685.9180136967287
 21
1274.266667124856
 31
0.0
  0
LINE
  5
197
330
1F
100
AcDbEntity
  8
0_Pen_No__7
  6
Continuous
100
AcDbLine
 10
675.918013696729
 20
1284.266667124856
 30
0.0
 11
675.918013696729
 21
1264.266667124856
 31
0.0
  0
LINE
  5
198
330
1F
100
AcDbEntity
  8
0_Pen_No__7
  6
Continuous
100
AcDbLine
 10
1110.918013696729
 20
-975.7333328751442
 30
0.0
 11
1110.968013696729
 21
-975.7333328751442
 31
0.0
  0
LINE
  5
199
330
1F
100
AcDbEntity
  8
0_Pen_No__7
  6
Continuous
100
AcDbLine
 10
1060.918013696729
 20
-975.7333328751442
 30
0.0
 11
1060.968013696729
 21
-975.7333328751442
 31
0.0
  0
LINE
  5
19A
330
1F
100
AcDbEntity
  8
0_Pen_No__7
  6
Continuous
100
AcDbLine
 10
1075.918013696729
 20
-950.7333328751439
 30
0.0
 11
1095.918013696729
 21
-950.7333328751439
 31
0.0
  0
LINE
  5
19B
330
1F
100
AcDbEntity
  8
0_Pen_No__7
  6
Continuous
100
AcDbLine
 10
1085.918013696729
 20
-940.7333328751441
 30
0.0
 11
1085.918013696729
 21
-960.7333328751438
 31
0.0
  0
LINE
  5
19C
330
1F
100
AcDbEntity
  8
0_Pen_No__7
  6
Continuous
100
AcDbLine
 10
1075.918013696729
 20
-175.7333328751445
 30
0.0
 11
1095.918013696729
 21
-175.7333328751445
 31
0.0
  0
LINE
  5
19D
330
1F
100
AcDbEntity
  8
0_Pen_No__7
  6
Continuous
100
AcDbLine
 10
1085.918013696729
 20
-165.7333328751438
 30
0.0
 11
1085.918013696729
 21
-185.7333328751443
 31
0.0
  0
LINE
  5
19E
330
1F
100
AcDbEntity
  8
0_Pen_No__7
  6
Continuous
100
AcDbLine
 10
1075.918013696729
 20
549.2666671248561
 30
0.0
 11
1095.918013696729
 21
549.2666671248561
 31
0.0
  0
LINE
  5
19F
330
1F
100
AcDbEntity
  8
0_Pen_No__7
  6
Continuous
100
AcDbLine
 10
1085.918013696729
 20
559.2666671248559
 30
0.0
 11
1085.918013696729
 21
539.2666671248562
 31
0.0
  0
LINE
  5
1A0
330
1F
100
AcDbEntity
  8
0_Pen_No__7
  6
Continuous
100
AcDbLine
 10
1075.918013696729
 20
1274.266667124856
 30
0.0
 11
1095.918013696729
 21
1274.266667124856
 31
0.0
  0
LINE
  5
1A1
330
1F
100
AcDbEntity
  8
0_Pen_No__7
  6
Continuous
100
AcDbLine
 10
1085.918013696729
 20
1284.266667124856
 30
0.0
 11
1085.918013696729
 21
1264.266667124856
 31
0.0
  0
LINE
  5
1A2
330
1F
100
AcDbEntity
  8
0_Pen_No__7
  6
Continuous
100
AcDbLine
 10
1710.918013696729
 20
-975.7333328751442
 30
0.0
 11
1710.968013696729
 21
-975.7333328751442
 31
0.0
  0
LINE
  5
1A3
330
1F
100
AcDbEntity
  8
0_Pen_No__7
  6
Continuous
100
AcDbLine
 10
1660.918013696728
 20
-975.7333328751442
 30
0.0
 11
1660.968013696728
 21
-975.7333328751442
 31
0.0
  0
LINE
  5
1A4
330
1F
100
AcDbEntity
  8
0_Pen_No__7
  6
Continuous
100
AcDbLine
 10
1675.918013696729
 20
-950.7333328751439
 30
0.0
 11
1695.918013696728
 21
-950.7333328751439
 31
0.0
  0
LINE
  5
1A5
330
1F
100
AcDbEntity
  8
0_Pen_No__7
  6
Continuous
100
AcDbLine
 10
1685.918013696729
 20
-940.7333328751441
 30
0.0
 11
1685.918013696729
 21
-960.7333328751438
 31
0.0
  0
LINE
  5
1A6
330
1F
100
AcDbEntity
  8
0_Pen_No__7
  6
Continuous
100
AcDbLine
 10
1675.918013696729
 20
-175.7333328751445
 30
0.0
 11
1695.918013696728
 21
-175.7333328751445
 31
0.0
  0
LINE
  5
1A7
330
1F
100
AcDbEntity
  8
0_Pen_No__7
  6
Continuous
100
AcDbLine
 10
1685.918013696729
 20
-165.7333328751438
 30
0.0
 11
1685.918013696729
 21
-185.7333328751443
 31
0.0
  0
LINE
  5
1A8
330
1F
100
AcDbEntity
  8
0_Pen_No__7
  6
Continuous
100
AcDbLine
 10
1675.918013696729
 20
549.2666671248561
 30
0.0
 11
1695.918013696728
 21
549.2666671248561
 31
0.0
  0
LINE
  5
1A9
330
1F
100
AcDbEntity
  8
0_Pen_No__7
  6
Continuous
100
AcDbLine
 10
1685.918013696729
 20
559.2666671248559
 30
0.0
 11
1685.918013696729
 21
539.2666671248562
 31
0.0
  0
LINE
  5
1AA
330
1F
100
AcDbEntity
  8
0_Pen_No__7
  6
Continuous
100
AcDbLine
 10
1675.918013696729
 20
1274.266667124856
 30
0.0
 11
1695.918013696728
 21
1274.266667124856
 31
0.0
  0
LINE
  5
1AB
330
1F
100
AcDbEntity
  8
0_Pen_No__7
  6
Continuous
100
AcDbLine
 10
1685.918013696729
 20
1284.266667124856
 30
0.0
 11
1685.918013696729
 21
1264.266667124856
 31
0.0
  0
LINE
  5
1AC
330
1F
100
AcDbEntity
  8
0_Pen_No__7
  6
Continuous
100
AcDbLine
 10
2687.489462960332
 20
-975.7333328751442
 30
0.0
 11
2687.539462960332
 21
-975.7333328751442
 31
0.0
  0
LINE
  5
1AD
330
1F
100
AcDbEntity
  8
0_Pen_No__7
  6
Continuous
100
AcDbLine
 10
2637.489462960332
 20
-975.7333328751442
 30
0.0
 11
2637.539462960332
 21
-975.7333328751442
 31
0.0
  0
LINE
  5
1AE
330
1F
100
AcDbEntity
  8
0_Pen_No__7
  6
Continuous
100
AcDbLine
 10
2652.489462960332
 20
-950.7333328751439
 30
0.0
 11
2672.489462960332
 21
-950.7333328751439
 31
0.0
  0
LINE
  5
1AF
330
1F
100
AcDbEntity
  8
0_Pen_No__7
  6
Continuous
100
AcDbLine
 10
2662.489462960333
 20
-940.7333328751441
 30
0.0
 11
2662.489462960333
 21
-960.7333328751438
 31
0.0
  0
LINE
  5
1B0
330
1F
100
AcDbEntity
  8
0_Pen_No__7
  6
Continuous
100
AcDbLine
 10
2652.489462960332
 20
-175.7333328751445
 30
0.0
 11
2672.489462960332
 21
-175.7333328751445
 31
0.0
  0
LINE
  5
1B1
330
1F
100
AcDbEntity
  8
0_Pen_No__7
  6
Continuous
100
AcDbLine
 10
2662.489462960333
 20
-165.7333328751438
 30
0.0
 11
2662.489462960333
 21
-185.7333328751443
 31
0.0
  0
LINE
  5
1B2
330
1F
100
AcDbEntity
  8
0_Pen_No__7
  6
Continuous
100
AcDbLine
 10
2652.489462960332
 20
549.2666671248561
 30
0.0
 11
2672.489462960332
 21
549.2666671248561
 31
0.0
  0
LINE
  5
1B3
330
1F
100
AcDbEntity
  8
0_Pen_No__7
  6
Continuous
100
AcDbLine
 10
2662.489462960333
 20
559.2666671248559
 30
0.0
 11
2662.489462960333
 21
539.2666671248562
 31
0.0
  0
LINE
  5
1B4
330
1F
100
AcDbEntity
  8
0_Pen_No__7
  6
Continuous
100
AcDbLine
 10
2652.489462960332
 20
1274.266667124856
 30
0.0
 11
2672.489462960332
 21
1274.266667124856
 31
0.0
  0
LINE
  5
1B5
330
1F
100
AcDbEntity
  8
0_Pen_No__7
  6
Continuous
100
AcDbLine
 10
2662.489462960333
 20
1284.266667124856
 30
0.0
 11
2662.489462960333
 21
1264.266667124856
 31
0.0
  0
LINE
  5
1B6
330
1F
100
AcDbEntity
  8
0_Pen_No__7
  6
Continuous
100
AcDbLine
 10
-2789.081986303271
 20
-975.7333328751442
 30
0.0
 11
-2789.031986303271
 21
-975.7333328751442
 31
0.0
  0
LINE
  5
1B7
330
1F
100
AcDbEntity
  8
0_Pen_No__7
  6
Continuous
100
AcDbLine
 10
-2839.081986303272
 20
-975.7333328751442
 30
0.0
 11
-2839.031986303272
 21
-975.7333328751442
 31
0.0
  0
LINE
  5
1B8
330
1F
100
AcDbEntity
  8
0_Pen_No__7
  6
Continuous
100
AcDbLine
 10
-2824.081986303271
 20
-950.7333328751439
 30
0.0
 11
-2804.081986303272
 21
-950.7333328751439
 31
0.0
  0
LINE
  5
1B9
330
1F
100
AcDbEntity
  8
0_Pen_No__7
  6
Continuous
100
AcDbLine
 10
-2814.081986303271
 20
-940.7333328751441
 30
0.0
 11
-2814.081986303271
 21
-960.7333328751438
 31
0.0
  0
LINE
  5
1BA
330
1F
100
AcDbEntity
  8
0_Pen_No__7
  6
Continuous
100
AcDbLine
 10
-2824.081986303271
 20
-175.7333328751445
 30
0.0
 11
-2804.081986303272
 21
-175.7333328751445
 31
0.0
  0
LINE
  5
1BB
330
1F
100
AcDbEntity
  8
0_Pen_No__7
  6
Continuous
100
AcDbLine
 10
-2814.081986303271
 20
-165.7333328751438
 30
0.0
 11
-2814.081986303271
 21
-185.7333328751443
 31
0.0
  0
LINE
  5
1BC
330
1F
100
AcDbEntity
  8
0_Pen_No__7
  6
Continuous
100
AcDbLine
 10
-2824.081986303271
 20
549.2666671248561
 30
0.0
 11
-2804.081986303272
 21
549.2666671248561
 31
0.0
  0
LINE
  5
1BD
330
1F
100
AcDbEntity
  8
0_Pen_No__7
  6
Continuous
100
AcDbLine
 10
-2814.081986303271
 20
559.2666671248559
 30
0.0
 11
-2814.081986303271
 21
539.2666671248562
 31
0.0
  0
LINE
  5
1BE
330
1F
100
AcDbEntity
  8
0_Pen_No__7
  6
Continuous
100
AcDbLine
 10
-2824.081986303271
 20
1274.266667124856
 30
0.0
 11
-2804.081986303272
 21
1274.266667124856
 31
0.0
  0
LINE
  5
1BF
330
1F
100
AcDbEntity
  8
0_Pen_No__7
  6
Continuous
100
AcDbLine
 10
-2814.081986303271
 20
1284.266667124856
 30
0.0
 11
-2814.081986303271
 21
1264.266667124856
 31
0.0
  0
LINE
  5
1C0
330
1F
100
AcDbEntity
  8
0_Pen_No__7
  6
Continuous
100
AcDbLine
 10
-2974.081986303272
 20
1274.266667124856
 30
0.0
 11
-2954.081986303272
 21
1274.266667124856
 31
0.0
  0
LINE
  5
1C1
330
1F
100
AcDbEntity
  8
0_Pen_No__7
  6
Continuous
100
AcDbLine
 10
-2964.081986303272
 20
1284.266667124856
 30
0.0
 11
-2964.081986303272
 21
1264.266667124856
 31
0.0
  0
LINE
  5
1C2
330
1F
100
AcDbEntity
  8
0_Pen_No__7
  6
Continuous
100
AcDbLine
 10
-2674.081986303271
 20
1274.266667124856
 30
0.0
 11
-2654.081986303271
 21
1274.266667124856
 31
0.0
  0
LINE
  5
1C3
330
1F
100
AcDbEntity
  8
0_Pen_No__7
  6
Continuous
100
AcDbLine
 10
-2664.081986303271
 20
1284.266667124856
 30
0.0
 11
-2664.081986303271
 21
1264.266667124856
 31
0.0
  0
LINE
  5
1C4
330
1F
100
AcDbEntity
  8
0_Pen_No__7
  6
Continuous
100
AcDbLine
 10
-2361.581986303271
 20
1274.266667124856
 30
0.0
 11
-2341.581986303271
 21
1274.266667124856
 31
0.0
  0
LINE
  5
1C5
330
1F
100
AcDbEntity
  8
0_Pen_No__7
  6
Continuous
100
AcDbLine
 10
-2351.581986303271
 20
1284.266667124856
 30
0.0
 11
-2351.581986303271
 21
1264.266667124856
 31
0.0
  0
LINE
  5
1C6
330
1F
100
AcDbEntity
  8
0_Pen_No__7
  6
Continuous
100
AcDbLine
 10
-2974.081986303272
 20
1274.266667124856
 30
0.0
 11
-2954.081986303272
 21
1274.266667124856
 31
0.0
  0
LINE
  5
1C7
330
1F
100
AcDbEntity
  8
0_Pen_No__7
  6
Continuous
100
AcDbLine
 10
-2964.081986303272
 20
1284.266667124856
 30
0.0
 11
-2964.081986303272
 21
1264.266667124856
 31
0.0
  0
LINE
  5
1C8
330
1F
100
AcDbEntity
  8
0_Pen_No__7
  6
Continuous
100
AcDbLine
 10
-561.5819863032717
 20
1274.266667124856
 30
0.0
 11
-541.5819863032704
 21
1274.266667124856
 31
0.0
  0
LINE
  5
1C9
330
1F
100
AcDbEntity
  8
0_Pen_No__7
  6
Continuous
100
AcDbLine
 10
-551.581986303272
 20
1284.266667124856
 30
0.0
 11
-551.581986303272
 21
1264.266667124856
 31
0.0
  0
LINE
  5
1CA
330
1F
100
AcDbEntity
  8
0_Pen_No__7
  6
Continuous
100
AcDbLine
 10
-2974.748171497832
 20
-949.8617754476672
 30
0.0
 11
-2954.824277535998
 21
-951.6048903026207
 31
0.0
  0
LINE
  5
1CB
330
1F
100
AcDbEntity
  8
0_Pen_No__7
  6
Continuous
100
AcDbLine
 10
-2963.914667089438
 20
-940.7713858942266
 30
0.0
 11
-2965.657781944391
 21
-960.6952798560612
 31
0.0
  0
LINE
  5
1CC
330
1F
100
AcDbEntity
  8
0_Pen_No__7
  6
Continuous
100
AcDbLine
 10
-2672.248171497832
 20
-949.8617754476672
 30
0.0
 11
-2652.324277535997
 21
-951.6048903026207
 31
0.0
  0
LINE
  5
1CD
330
1F
100
AcDbEntity
  8
0_Pen_No__7
  6
Continuous
100
AcDbLine
 10
-2661.414667089438
 20
-940.7713858942266
 30
0.0
 11
-2663.157781944391
 21
-960.6952798560612
 31
0.0
  0
LINE
  5
1CE
330
1F
100
AcDbEntity
  8
0_Pen_No__7
  6
Continuous
100
AcDbLine
 10
-2374.748171497833
 20
-949.8617754476672
 30
0.0
 11
-2354.824277535998
 21
-951.6048903026207
 31
0.0
  0
LINE
  5
1CF
330
1F
100
AcDbEntity
  8
0_Pen_No__7
  6
Continuous
100
AcDbLine
 10
-2363.914667089439
 20
-940.7713858942266
 30
0.0
 11
-2365.65778194439
 21
-960.6952798560612
 31
0.0
  0
LINE
  5
1D0
330
1F
100
AcDbEntity
  8
0_Pen_No__7
  6
Continuous
100
AcDbLine
 10
-2061.581986303258
 20
1274.266667124856
 30
0.0
 11
-2041.581986303256
 21
1274.266667124856
 31
0.0
  0
LINE
  5
1D1
330
1F
100
AcDbEntity
  8
0_Pen_No__7
  6
Continuous
100
AcDbLine
 10
-2051.581986303256
 20
1284.266667124856
 30
0.0
 11
-2051.581986303256
 21
1264.266667124856
 31
0.0
  0
LINE
  5
1D2
330
1F
100
AcDbEntity
  8
0_Pen_No__7
  6
Continuous
100
AcDbLine
 10
-1774.08198630327
 20
1274.266667124856
 30
0.0
 11
-1754.081986303271
 21
1274.266667124856
 31
0.0
  0
LINE
  5
1D3
330
1F
100
AcDbEntity
  8
0_Pen_No__7
  6
Continuous
100
AcDbLine
 10
-1764.081986303271
 20
1284.266667124856
 30
0.0
 11
-1764.081986303271
 21
1264.266667124856
 31
0.0
  0
LINE
  5
1D4
330
1F
100
AcDbEntity
  8
0_Pen_No__7
  6
Continuous
100
AcDbLine
 10
-1174.081986303271
 20
1274.266667124856
 30
0.0
 11
-1154.081986303271
 21
1274.266667124856
 31
0.0
  0
LINE
  5
1D5
330
1F
100
AcDbEntity
  8
0_Pen_No__7
  6
Continuous
100
AcDbLine
 10
-1164.081986303271
 20
1284.266667124856
 30
0.0
 11
-1164.081986303271
 21
1264.266667124856
 31
0.0
  0
LINE
  5
1D6
330
1F
100
AcDbEntity
  8
0_Pen_No__7
  6
Continuous
100
AcDbLine
 10
-989.081986303272
 20
-975.7333328751442
 30
0.0
 11
-989.031986303272
 21
-975.7333328751442
 31
0.0
  0
LINE
  5
1D7
330
1F
100
AcDbEntity
  8
0_Pen_No__7
  6
Continuous
100
AcDbLine
 10
-1039.081986303271
 20
-975.7333328751442
 30
0.0
 11
-1039.031986303271
 21
-975.7333328751442
 31
0.0
  0
LINE
  5
1D8
330
1F
100
AcDbEntity
  8
0_Pen_No__7
  6
Continuous
100
AcDbLine
 10
-1024.08198630327
 20
-950.7333328751439
 30
0.0
 11
-1004.081986303271
 21
-950.7333328751439
 31
0.0
  0
LINE
  5
1D9
330
1F
100
AcDbEntity
  8
0_Pen_No__7
  6
Continuous
100
AcDbLine
 10
-1014.081986303271
 20
-940.7333328751441
 30
0.0
 11
-1014.081986303271
 21
-960.7333328751438
 31
0.0
  0
LINE
  5
1DA
330
1F
100
AcDbEntity
  8
0_Pen_No__7
  6
Continuous
100
AcDbLine
 10
-1024.08198630327
 20
-175.7333328751445
 30
0.0
 11
-1004.081986303271
 21
-175.7333328751445
 31
0.0
  0
LINE
  5
1DB
330
1F
100
AcDbEntity
  8
0_Pen_No__7
  6
Continuous
100
AcDbLine
 10
-1014.081986303271
 20
-165.7333328751438
 30
0.0
 11
-1014.081986303271
 21
-185.7333328751443
 31
0.0
  0
LINE
  5
1DC
330
1F
100
AcDbEntity
  8
0_Pen_No__7
  6
Continuous
100
AcDbLine
 10
-1024.08198630327
 20
549.2666671248561
 30
0.0
 11
-1004.081986303271
 21
549.2666671248561
 31
0.0
  0
LINE
  5
1DD
330
1F
100
AcDbEntity
  8
0_Pen_No__7
  6
Continuous
100
AcDbLine
 10
-1014.081986303271
 20
559.2666671248559
 30
0.0
 11
-1014.081986303271
 21
539.2666671248562
 31
0.0
  0
LINE
  5
1DE
330
1F
100
AcDbEntity
  8
0_Pen_No__7
  6
Continuous
100
AcDbLine
 10
-1024.08198630327
 20
1274.266667124856
 30
0.0
 11
-1004.081986303271
 21
1274.266667124856
 31
0.0
  0
LINE
  5
1DF
330
1F
100
AcDbEntity
  8
0_Pen_No__7
  6
Continuous
100
AcDbLine
 10
-1014.081986303271
 20
1284.266667124856
 30
0.0
 11
-1014.081986303271
 21
1264.266667124856
 31
0.0
  0
LINE
  5
1E0
330
1F
100
AcDbEntity
  8
0_Pen_No__7
  6
Continuous
100
AcDbLine
 10
1410.918013696728
 20
-975.7333328751442
 30
0.0
 11
1410.968013696728
 21
-975.7333328751442
 31
0.0
  0
LINE
  5
1E1
330
1F
100
AcDbEntity
  8
0_Pen_No__7
  6
Continuous
100
AcDbLine
 10
1360.918013696729
 20
-975.7333328751442
 30
0.0
 11
1360.968013696729
 21
-975.7333328751442
 31
0.0
  0
LINE
  5
1E2
330
1F
100
AcDbEntity
  8
0_Pen_No__7
  6
Continuous
100
AcDbLine
 10
1375.918013696728
 20
-950.7333328751439
 30
0.0
 11
1395.918013696728
 21
-950.7333328751439
 31
0.0
  0
LINE
  5
1E3
330
1F
100
AcDbEntity
  8
0_Pen_No__7
  6
Continuous
100
AcDbLine
 10
1385.918013696728
 20
-940.7333328751441
 30
0.0
 11
1385.918013696728
 21
-960.7333328751438
 31
0.0
  0
LINE
  5
1E4
330
1F
100
AcDbEntity
  8
0_Pen_No__7
  6
Continuous
100
AcDbLine
 10
1375.918013696728
 20
-175.7333328751445
 30
0.0
 11
1395.918013696728
 21
-175.7333328751445
 31
0.0
  0
LINE
  5
1E5
330
1F
100
AcDbEntity
  8
0_Pen_No__7
  6
Continuous
100
AcDbLine
 10
1385.918013696728
 20
-165.7333328751438
 30
0.0
 11
1385.918013696728
 21
-185.7333328751443
 31
0.0
  0
LINE
  5
1E6
330
1F
100
AcDbEntity
  8
0_Pen_No__7
  6
Continuous
100
AcDbLine
 10
1375.918013696728
 20
549.2666671248561
 30
0.0
 11
1395.918013696728
 21
549.2666671248561
 31
0.0
  0
LINE
  5
1E7
330
1F
100
AcDbEntity
  8
0_Pen_No__7
  6
Continuous
100
AcDbLine
 10
1385.918013696728
 20
559.2666671248559
 30
0.0
 11
1385.918013696728
 21
539.2666671248562
 31
0.0
  0
LINE
  5
1E8
330
1F
100
AcDbEntity
  8
0_Pen_No__7
  6
Continuous
100
AcDbLine
 10
1375.918013696728
 20
1274.266667124856
 30
0.0
 11
1395.918013696728
 21
1274.266667124856
 31
0.0
  0
LINE
  5
1E9
330
1F
100
AcDbEntity
  8
0_Pen_No__7
  6
Continuous
100
AcDbLine
 10
1385.918013696728
 20
1284.266667124856
 30
0.0
 11
1385.918013696728
 21
1264.266667124856
 31
0.0
  0
LINE
  5
1EA
330
1F
100
AcDbEntity
  8
0_Pen_No__7
  6
Continuous
100
AcDbLine
 10
810.9180136967287
 20
-975.7333328751442
 30
0.0
 11
810.9680136967287
 21
-975.7333328751442
 31
0.0
  0
LINE
  5
1EB
330
1F
100
AcDbEntity
  8
0_Pen_No__7
  6
Continuous
100
AcDbLine
 10
760.918013696728
 20
-975.7333328751442
 30
0.0
 11
760.968013696728
 21
-975.7333328751442
 31
0.0
  0
LINE
  5
1EC
330
1F
100
AcDbEntity
  8
0_Pen_No__7
  6
Continuous
100
AcDbLine
 10
775.9180136967286
 20
-950.7333328751439
 30
0.0
 11
795.9180136967282
 21
-950.7333328751439
 31
0.0
  0
LINE
  5
1ED
330
1F
100
AcDbEntity
  8
0_Pen_No__7
  6
Continuous
100
AcDbLine
 10
785.9180136967284
 20
-940.7333328751441
 30
0.0
 11
785.9180136967284
 21
-960.7333328751438
 31
0.0
  0
LINE
  5
1EE
330
1F
100
AcDbEntity
  8
0_Pen_No__7
  6
Continuous
100
AcDbLine
 10
775.9180136967286
 20
-175.7333328751445
 30
0.0
 11
795.9180136967282
 21
-175.7333328751445
 31
0.0
  0
LINE
  5
1EF
330
1F
100
AcDbEntity
  8
0_Pen_No__7
  6
Continuous
100
AcDbLine
 10
785.9180136967284
 20
-165.7333328751438
 30
0.0
 11
785.9180136967284
 21
-185.7333328751443
 31
0.0
  0
LINE
  5
1F0
330
1F
100
AcDbEntity
  8
0_Pen_No__7
  6
Continuous
100
AcDbLine
 10
775.9180136967286
 20
549.2666671248561
 30
0.0
 11
795.9180136967282
 21
549.2666671248561
 31
0.0
  0
LINE
  5
1F1
330
1F
100
AcDbEntity
  8
0_Pen_No__7
  6
Continuous
100
AcDbLine
 10
785.9180136967284
 20
559.2666671248559
 30
0.0
 11
785.9180136967284
 21
539.2666671248562
 31
0.0
  0
LINE
  5
1F2
330
1F
100
AcDbEntity
  8
0_Pen_No__7
  6
Continuous
100
AcDbLine
 10
775.9180136967286
 20
1274.266667124856
 30
0.0
 11
795.9180136967282
 21
1274.266667124856
 31
0.0
  0
LINE
  5
1F3
330
1F
100
AcDbEntity
  8
0_Pen_No__7
  6
Continuous
100
AcDbLine
 10
785.9180136967284
 20
1284.266667124856
 30
0.0
 11
785.9180136967284
 21
1264.266667124856
 31
0.0
  0
LINE
  5
1F4
330
1F
100
AcDbEntity
  8
0_Pen_No__7
  6
Continuous
100
AcDbLine
 10
-1474.081986303271
 20
1274.266667124856
 30
0.0
 11
-1454.081986303272
 21
1274.266667124856
 31
0.0
  0
LINE
  5
1F5
330
1F
100
AcDbEntity
  8
0_Pen_No__7
  6
Continuous
100
AcDbLine
 10
-1464.081986303272
 20
1284.266667124856
 30
0.0
 11
-1464.081986303272
 21
1264.266667124856
 31
0.0
  0
LINE
  5
1F6
330
1F
100
AcDbEntity
  8
0_Pen_No__7
  6
Continuous
100
AcDbLine
 10
-886.581986303271
 20
1274.266667124856
 30
0.0
 11
-866.5819863032714
 21
1274.266667124856
 31
0.0
  0
LINE
  5
1F7
330
1F
100
AcDbEntity
  8
0_Pen_No__7
  6
Continuous
100
AcDbLine
 10
-876.5819863032713
 20
1284.266667124856
 30
0.0
 11
-876.5819863032713
 21
1264.266667124856
 31
0.0
  0
LINE
  5
1F8
330
1F
100
AcDbEntity
  8
0_Pen_No__7
  6
Continuous
100
AcDbLine
 10
-261.5819863032568
 20
1274.266667124856
 30
0.0
 11
-241.5819863032572
 21
1274.266667124856
 31
0.0
  0
LINE
  5
1F9
330
1F
100
AcDbEntity
  8
0_Pen_No__7
  6
Continuous
100
AcDbLine
 10
-251.581986303257
 20
1284.266667124856
 30
0.0
 11
-251.581986303257
 21
1264.266667124856
 31
0.0
  0
LINE
  5
1FA
330
1F
100
AcDbEntity
  8
0_Pen_No__7
  6
Continuous
100
AcDbLine
 10
38.41801369672793
 20
1274.266667124856
 30
0.0
 11
58.41801369672928
 21
1274.266667124856
 31
0.0
  0
LINE
  5
1FB
330
1F
100
AcDbEntity
  8
0_Pen_No__7
  6
Continuous
100
AcDbLine
 10
48.41801369672949
 20
1284.266667124856
 30
0.0
 11
48.41801369672949
 21
1264.266667124856
 31
0.0
  0
LINE
  5
1FC
330
1F
100
AcDbEntity
  8
0_Pen_No__7
  6
Continuous
100
AcDbLine
 10
325.9180136967294
 20
1274.266667124856
 30
0.0
 11
345.9180136967289
 21
1274.266667124856
 31
0.0
  0
LINE
  5
1FD
330
1F
100
AcDbEntity
  8
0_Pen_No__7
  6
Continuous
100
AcDbLine
 10
335.9180136967291
 20
1284.266667124856
 30
0.0
 11
335.9180136967291
 21
1264.266667124856
 31
0.0
  0
LINE
  5
1FE
330
1F
100
AcDbEntity
  8
0_Pen_No__7
  6
Continuous
100
AcDbLine
 10
570.9180136967286
 20
1274.266667124856
 30
0.0
 11
590.9180136967282
 21
1274.266667124856
 31
0.0
  0
LINE
  5
1FF
330
1F
100
AcDbEntity
  8
0_Pen_No__7
  6
Continuous
100
AcDbLine
 10
580.9180136967284
 20
1284.266667124856
 30
0.0
 11
580.9180136967284
 21
1264.266667124856
 31
0.0
  0
LINE
  5
200
330
1F
100
AcDbEntity
  8
0_Pen_No__7
  6
Continuous
100
AcDbLine
 10
-2049.748171497832
 20
-949.8617754476672
 30
0.0
 11
-2029.824277535997
 21
-951.6048903026207
 31
0.0
  0
LINE
  5
201
330
1F
100
AcDbEntity
  8
0_Pen_No__7
  6
Continuous
100
AcDbLine
 10
-2038.914667089438
 20
-940.7713858942266
 30
0.0
 11
-2040.657781944391
 21
-960.6952798560612
 31
0.0
  0
LINE
  5
202
330
1F
100
AcDbEntity
  8
0_Pen_No__7
  6
Continuous
100
AcDbLine
 10
-1777.248171497802
 20
-949.8617754476672
 30
0.0
 11
-1757.324277535968
 21
-951.6048903026207
 31
0.0
  0
LINE
  5
203
330
1F
100
AcDbEntity
  8
0_Pen_No__7
  6
Continuous
100
AcDbLine
 10
-1766.414667089408
 20
-940.7713858942266
 30
0.0
 11
-1768.157781944362
 21
-960.6952798560612
 31
0.0
  0
LINE
  5
204
330
1F
100
AcDbEntity
  8
0_Pen_No__7
  6
Continuous
100
AcDbLine
 10
-1477.248171497803
 20
-949.8617754476672
 30
0.0
 11
-1457.324277535969
 21
-951.6048903026207
 31
0.0
  0
LINE
  5
205
330
1F
100
AcDbEntity
  8
0_Pen_No__7
  6
Continuous
100
AcDbLine
 10
-1466.414667089409
 20
-940.7713858942266
 30
0.0
 11
-1468.157781944363
 21
-960.6952798560612
 31
0.0
  0
LINE
  5
206
330
1F
100
AcDbEntity
  8
0_Pen_No__7
  6
Continuous
100
AcDbLine
 10
-1174.748171497832
 20
-949.8617754476672
 30
0.0
 11
-1154.824277535997
 21
-951.6048903026207
 31
0.0
  0
LINE
  5
207
330
1F
100
AcDbEntity
  8
0_Pen_No__7
  6
Continuous
100
AcDbLine
 10
-1163.914667089438
 20
-940.7713858942266
 30
0.0
 11
-1165.657781944391
 21
-960.6952798560612
 31
0.0
  0
LINE
  5
208
330
1F
100
AcDbEntity
  8
0_Pen_No__7
  6
Continuous
100
AcDbLine
 10
-874.7481714978326
 20
-949.8617754476672
 30
0.0
 11
-854.8242775359979
 21
-951.6048903026207
 31
0.0
  0
LINE
  5
209
330
1F
100
AcDbEntity
  8
0_Pen_No__7
  6
Continuous
100
AcDbLine
 10
-863.9146670894386
 20
-940.7713858942266
 30
0.0
 11
-865.6577819443901
 21
-960.6952798560612
 31
0.0
  0
LINE
  5
20A
330
1F
100
AcDbEntity
  8
0_Pen_No__7
  6
Continuous
100
AcDbLine
 10
-574.7481714978319
 20
-949.8617754476672
 30
0.0
 11
-554.8242775359971
 21
-951.6048903026207
 31
0.0
  0
LINE
  5
20B
330
1F
100
AcDbEntity
  8
0_Pen_No__7
  6
Continuous
100
AcDbLine
 10
-563.9146670894378
 20
-940.7713858942266
 30
0.0
 11
-565.6577819443912
 21
-960.6952798560612
 31
0.0
  0
LINE
  5
20C
330
1F
100
AcDbEntity
  8
0_Pen_No__7
  6
Continuous
100
AcDbLine
 10
925.2518285021681
 20
-949.8617754476672
 30
0.0
 11
945.1757224640029
 21
-951.6048903026207
 31
0.0
  0
LINE
  5
20D
330
1F
100
AcDbEntity
  8
0_Pen_No__7
  6
Continuous
100
AcDbLine
 10
936.0853329105622
 20
-940.7713858942266
 30
0.0
 11
934.3422180556088
 21
-960.6952798560612
 31
0.0
  0
LINE
  5
20E
330
1F
100
AcDbEntity
  8
0_Pen_No__7
  6
Continuous
100
AcDbLine
 10
1225.251828502169
 20
-949.8617754476672
 30
0.0
 11
1245.175722464003
 21
-951.6048903026207
 31
0.0
  0
LINE
  5
20F
330
1F
100
AcDbEntity
  8
0_Pen_No__7
  6
Continuous
100
AcDbLine
 10
1236.085332910561
 20
-940.7713858942266
 30
0.0
 11
1234.342218055609
 21
-960.6952798560612
 31
0.0
  0
LINE
  5
210
330
1F
100
AcDbEntity
  8
0_Pen_No__7
  6
Continuous
100
AcDbLine
 10
1525.251828502168
 20
-949.8617754476672
 30
0.0
 11
1545.175722464002
 21
-951.6048903026207
 31
0.0
  0
LINE
  5
211
330
1F
100
AcDbEntity
  8
0_Pen_No__7
  6
Continuous
100
AcDbLine
 10
1536.085332910562
 20
-940.7713858942266
 30
0.0
 11
1534.342218055608
 21
-960.6952798560612
 31
0.0
  0
LINE
  5
212
330
1F
100
AcDbEntity
  8
0_Pen_No__7
  6
Continuous
100
AcDbLine
 10
1918.011805021099
 20
-949.8617754476672
 30
0.0
 11
1937.935698982934
 21
-951.6048903026207
 31
0.0
  0
LINE
  5
213
330
1F
100
AcDbEntity
  8
0_Pen_No__7
  6
Continuous
100
AcDbLine
 10
1928.845309429493
 20
-940.7713858942266
 30
0.0
 11
1927.10219457454
 21
-960.6952798560612
 31
0.0
  0
LINE
  5
214
330
1F
100
AcDbEntity
  8
0_Pen_No__7
  6
Continuous
100
AcDbLine
 10
2914.209228249605
 20
-949.8617754476672
 30
0.0
 11
2934.13312221144
 21
-951.6048903026207
 31
0.0
  0
LINE
  5
215
330
1F
100
AcDbEntity
  8
0_Pen_No__7
  6
Continuous
100
AcDbLine
 10
2925.042732657999
 20
-940.7713858942266
 30
0.0
 11
2923.299617803047
 21
-960.6952798560612
 31
0.0
  0
LINE
  5
216
330
1F
100
AcDbEntity
  8
0_Pen_No__7
  6
Continuous
100
AcDbLine
 10
2390.845803709225
 20
-949.8617754476672
 30
0.0
 11
2410.769697671059
 21
-951.6048903026207
 31
0.0
  0
LINE
  5
217
330
1F
100
AcDbEntity
  8
0_Pen_No__7
  6
Continuous
100
AcDbLine
 10
2401.679308117619
 20
-940.7713858942266
 30
0.0
 11
2399.936193262665
 21
-960.6952798560612
 31
0.0
  0
LINE
  5
218
330
1F
100
AcDbEntity
  8
0_Pen_No__7
  6
Continuous
100
AcDbLine
 10
720.918013696729
 20
1274.266667124856
 30
0.0
 11
740.9180136967285
 21
1274.266667124856
 31
0.0
  0
LINE
  5
219
330
1F
100
AcDbEntity
  8
0_Pen_No__7
  6
Continuous
100
AcDbLine
 10
730.9180136967287
 20
1284.266667124856
 30
0.0
 11
730.9180136967287
 21
1264.266667124856
 31
0.0
  0
LINE
  5
21A
330
1F
100
AcDbEntity
  8
0_Pen_No__7
  6
Continuous
100
AcDbLine
 10
913.4180136967298
 20
1274.266667124855
 30
0.0
 11
933.4180136967293
 21
1274.266667124855
 31
0.0
  0
LINE
  5
21B
330
1F
100
AcDbEntity
  8
0_Pen_No__7
  6
Continuous
100
AcDbLine
 10
923.4180136967295
 20
1284.266667124856
 30
0.0
 11
923.4180136967295
 21
1264.266667124855
 31
0.0
  0
LINE
  5
21C
330
1F
100
AcDbEntity
  8
0_Pen_No__7
  6
Continuous
100
AcDbLine
 10
1170.918013696728
 20
1274.266667124856
 30
0.0
 11
1190.91801369673
 21
1274.266667124856
 31
0.0
  0
LINE
  5
21D
330
1F
100
AcDbEntity
  8
0_Pen_No__7
  6
Continuous
100
AcDbLine
 10
1180.918013696728
 20
1284.266667124856
 30
0.0
 11
1180.918013696728
 21
1264.266667124856
 31
0.0
  0
LINE
  5
21E
330
1F
100
AcDbEntity
  8
0_Pen_No__7
  6
Continuous
100
AcDbLine
 10
1525.918013696729
 20
1274.266667124856
 30
0.0
 11
1545.918013696728
 21
1274.266667124856
 31
0.0
  0
LINE
  5
21F
330
1F
100
AcDbEntity
  8
0_Pen_No__7
  6
Continuous
100
AcDbLine
 10
1535.918013696728
 20
1284.266667124856
 30
0.0
 11
1535.918013696728
 21
1264.266667124856
 31
0.0
  0
LINE
  5
220
330
1F
100
AcDbEntity
  8
0_Pen_No__7
  6
Continuous
100
AcDbLine
 10
1926.683473269276
 20
1274.266667124856
 30
0.0
 11
1946.683473269276
 21
1274.266667124856
 31
0.0
  0
LINE
  5
221
330
1F
100
AcDbEntity
  8
0_Pen_No__7
  6
Continuous
100
AcDbLine
 10
1936.683473269275
 20
1284.266667124856
 30
0.0
 11
1936.683473269275
 21
1264.266667124856
 31
0.0
  0
LINE
  5
222
330
1F
100
AcDbEntity
  8
0_Pen_No__7
  6
Continuous
100
AcDbLine
 10
2424.989462960332
 20
1274.266667124856
 30
0.0
 11
2444.989462960332
 21
1274.266667124856
 31
0.0
  0
LINE
  5
223
330
1F
100
AcDbEntity
  8
0_Pen_No__7
  6
Continuous
100
AcDbLine
 10
2434.989462960332
 20
1284.266667124856
 30
0.0
 11
2434.989462960332
 21
1264.266667124856
 31
0.0
  0
LINE
  5
224
330
1F
100
AcDbEntity
  8
0_Pen_No__7
  6
Continuous
100
AcDbLine
 10
2914.171175230523
 20
1274.266667124856
 30
0.0
 11
2934.171175230523
 21
1274.266667124856
 31
0.0
  0
LINE
  5
225
330
1F
100
AcDbEntity
  8
0_Pen_No__7
  6
Continuous
100
AcDbLine
 10
2924.171175230523
 20
1284.266667124856
 30
0.0
 11
2924.171175230523
 21
1264.266667124856
 31
0.0
  0
LINE
  5
226
330
1F
100
AcDbEntity
  8
0_Pen_No__7
  6
Continuous
100
AcDbLine
 10
615.937928568116
 20
549.2666671248561
 30
0.0
 11
635.9379285681156
 21
549.2666671248561
 31
0.0
  0
LINE
  5
227
330
1F
100
AcDbEntity
  8
0_Pen_No__7
  6
Continuous
100
AcDbLine
 10
625.9379285681158
 20
559.2666671248559
 30
0.0
 11
625.9379285681158
 21
539.2666671248562
 31
0.0
  0
LINE
  5
228
330
1F
100
AcDbEntity
  8
0_Pen_No__7
  6
Continuous
100
AcDbLine
 10
615.2474108470442
 20
-175.7333328751445
 30
0.0
 11
635.2474108470437
 21
-175.7333328751445
 31
0.0
  0
LINE
  5
229
330
1F
100
AcDbEntity
  8
0_Pen_No__7
  6
Continuous
100
AcDbLine
 10
625.247410847044
 20
-165.7333328751438
 30
0.0
 11
625.247410847044
 21
-185.7333328751443
 31
0.0
  0
LINE
  5
22A
330
1F
100
AcDbEntity
  8
0_Pen_No__7
  6
Continuous
100
AcDbLine
 10
617.3387737358122
 20
-950.7333328751439
 30
0.0
 11
637.3387737358117
 21
-950.7333328751439
 31
0.0
  0
LINE
  5
22B
330
1F
100
AcDbEntity
  8
0_Pen_No__7
  6
Continuous
100
AcDbLine
 10
627.338773735812
 20
-940.7333328751441
 30
0.0
 11
627.338773735812
 21
-960.7333328751438
 31
0.0
  0
LINE
  5
22C
330
1F
100
AcDbEntity
  8
0_Pen_No__7
  6
Continuous
100
AcDbLine
 10
-349.0620714318839
 20
549.2666671248561
 30
0.0
 11
-329.0620714318842
 21
549.2666671248561
 31
0.0
  0
LINE
  5
22D
330
1F
100
AcDbEntity
  8
0_Pen_No__7
  6
Continuous
100
AcDbLine
 10
-339.062071431884
 20
559.2666671248559
 30
0.0
 11
-339.062071431884
 21
539.2666671248554
 31
0.0
  0
LINE
  5
22E
330
1F
100
AcDbEntity
  8
0_Pen_No__7
  6
Continuous
100
AcDbLine
 10
-349.7525891529557
 20
-175.7333328751445
 30
0.0
 11
-329.7525891529561
 21
-175.7333328751445
 31
0.0
  0
LINE
  5
22F
330
1F
100
AcDbEntity
  8
0_Pen_No__7
  6
Continuous
100
AcDbLine
 10
-339.7525891529559
 20
-165.7333328751447
 30
0.0
 11
-339.7525891529559
 21
-185.7333328751452
 31
0.0
  0
LINE
  5
230
330
1F
100
AcDbEntity
  8
0_Pen_No__7
  6
Continuous
100
AcDbLine
 10
-347.6612262641877
 20
-950.7333328751439
 30
0.0
 11
-327.6612262641864
 21
-950.7333328751439
 31
0.0
  0
LINE
  5
231
330
1F
100
AcDbEntity
  8
0_Pen_No__7
  6
Continuous
100
AcDbLine
 10
-337.6612262641879
 20
-940.7333328751441
 30
0.0
 11
-337.6612262641879
 21
-960.7333328751455
 31
0.0
  0
LINE
  5
232
330
1F
100
AcDbEntity
  8
0_Pen_No__7
  6
Continuous
100
AcDbLine
 10
-349.0620714318839
 20
995.8267210476901
 30
0.0
 11
-329.0620714318842
 21
995.8267210476901
 31
0.0
  0
LINE
  5
233
330
1F
100
AcDbEntity
  8
0_Pen_No__7
  6
Continuous
100
AcDbLine
 10
-339.062071431884
 20
1005.82672104769
 30
0.0
 11
-339.062071431884
 21
985.8267210476903
 31
0.0
  0
LINE
  5
234
330
1F
100
AcDbEntity
  8
0_Pen_No__7
  6
Continuous
100
AcDbLine
 10
615.937928568116
 20
995.8267210476901
 30
0.0
 11
635.9379285681156
 21
995.8267210476901
 31
0.0
  0
LINE
  5
235
330
1F
100
AcDbEntity
  8
0_Pen_No__7
  6
Continuous
100
AcDbLine
 10
625.9379285681158
 20
1005.82672104769
 30
0.0
 11
625.9379285681158
 21
985.8267210476903
 31
0.0
  0
LINE
  5
236
330
1F
100
AcDbEntity
  8
0_Pen_No__7
  6
Continuous
100
AcDbLine
 10
475.9180136967297
 20
1069.266667124859
 30
0.0
 11
495.9180136967293
 21
1069.266667124859
 31
0.0
  0
LINE
  5
237
330
1F
100
AcDbEntity
  8
0_Pen_No__7
  6
Continuous
100
AcDbLine
 10
485.9180136967295
 20
1079.266667124859
 30
0.0
 11
485.9180136967295
 21
1059.266667124859
 31
0.0
  0
LINE
  5
238
330
1F
100
AcDbEntity
  8
0_Pen_No__7
  6
Continuous
100
AcDbLine
 10
175.918013696729
 20
1069.266667124859
 30
0.0
 11
195.9180136967286
 21
1069.266667124859
 31
0.0
  0
LINE
  5
239
330
1F
100
AcDbEntity
  8
0_Pen_No__7
  6
Continuous
100
AcDbLine
 10
185.9180136967288
 20
1079.266667124859
 30
0.0
 11
185.9180136967288
 21
1059.266667124859
 31
0.0
  0
LINE
  5
23A
330
1F
100
AcDbEntity
  8
0_Pen_No__7
  6
Continuous
100
AcDbLine
 10
-124.0819863032717
 20
1069.266667124859
 30
0.0
 11
-104.0819863032704
 21
1069.266667124859
 31
0.0
  0
LINE
  5
23B
330
1F
100
AcDbEntity
  8
0_Pen_No__7
  6
Continuous
100
AcDbLine
 10
-114.0819863032719
 20
1079.266667124859
 30
0.0
 11
-114.0819863032719
 21
1059.266667124859
 31
0.0
  0
LINE
  5
23C
330
1F
100
AcDbEntity
  8
0_Pen_No__7
  6
Continuous
100
AcDbLine
 10
-1624.081986303272
 20
1049.266667124856
 30
0.0
 11
-1604.081986303272
 21
1049.266667124856
 31
0.0
  0
LINE
  5
23D
330
1F
100
AcDbEntity
  8
0_Pen_No__7
  6
Continuous
100
AcDbLine
 10
-1614.081986303272
 20
1059.266667124857
 30
0.0
 11
-1614.081986303272
 21
1039.266667124856
 31
0.0
  0
LINE
  5
23E
330
1F
100
AcDbEntity
  8
0_Pen_No__7
  6
Continuous
100
AcDbLine
 10
-1924.081986303271
 20
1049.266667124856
 30
0.0
 11
-1904.081986303271
 21
1049.266667124856
 31
0.0
  0
LINE
  5
23F
330
1F
100
AcDbEntity
  8
0_Pen_No__7
  6
Continuous
100
AcDbLine
 10
-1914.081986303271
 20
1059.266667124857
 30
0.0
 11
-1914.081986303271
 21
1039.266667124856
 31
0.0
  0
LINE
  5
240
330
1F
100
AcDbEntity
  8
0_Pen_No__7
  6
Continuous
100
AcDbLine
 10
-2149.081986303287
 20
25.75700557166272
 30
0.0
 11
-2129.081986303285
 21
25.75700557166272
 31
0.0
  0
LINE
  5
241
330
1F
100
AcDbEntity
  8
0_Pen_No__7
  6
Continuous
100
AcDbLine
 10
-2139.081986303287
 20
35.75700557166339
 30
0.0
 11
-2139.081986303287
 21
15.75700557166293
 31
0.0
  0
LINE
  5
242
330
1F
100
AcDbEntity
  8
0_Pen_No__7
  6
Continuous
100
AcDbLine
 10
-2149.08198630327
 20
511.7666671248555
 30
0.0
 11
-2129.081986303271
 21
511.7666671248555
 31
0.0
  0
LINE
  5
243
330
1F
100
AcDbEntity
  8
0_Pen_No__7
  6
Continuous
100
AcDbLine
 10
-2139.081986303271
 20
521.7666671248553
 30
0.0
 11
-2139.081986303271
 21
501.7666671248558
 31
0.0
  0
LINE
  5
244
330
1F
100
AcDbEntity
  8
0_Pen_No__7
  6
Continuous
100
AcDbLine
 10
-1374.081986303286
 20
25.75700557166272
 30
0.0
 11
-1354.081986303286
 21
25.75700557166272
 31
0.0
  0
LINE
  5
245
330
1F
100
AcDbEntity
  8
0_Pen_No__7
  6
Continuous
100
AcDbLine
 10
-1364.081986303286
 20
35.75700557166339
 30
0.0
 11
-1364.081986303286
 21
15.75700557166293
 31
0.0
  0
LINE
  5
246
330
1F
100
AcDbEntity
  8
0_Pen_No__7
  6
Continuous
100
AcDbLine
 10
-1374.081986303272
 20
511.7666671248555
 30
0.0
 11
-1354.081986303272
 21
511.7666671248555
 31
0.0
  0
LINE
  5
247
330
1F
100
AcDbEntity
  8
0_Pen_No__7
  6
Continuous
100
AcDbLine
 10
-1364.081986303272
 20
521.7666671248553
 30
0.0
 11
-1364.081986303272
 21
501.7666671248558
 31
0.0
  0
LINE
  5
248
330
1F
100
AcDbEntity
  8
0_Pen_No__7
  6
Continuous
100
AcDbLine
 10
-2064.081986303296
 20
-150.7333328751441
 30
0.0
 11
-1939.081986303271
 21
-150.7333328751441
 31
0.0
  0
LINE
  5
249
330
1F
100
AcDbEntity
  8
0_Pen_No__7
  6
Continuous
100
AcDbLine
 10
-2064.081986303294
 20
-200.733332875144
 30
0.0
 11
-1939.081986303271
 21
-200.733332875144
 31
0.0
  0
LINE
  5
24A
330
1F
100
AcDbEntity
  8
0_Pen_No__7
  6
Continuous
100
AcDbLine
 10
-1924.081986303242
 20
25.75700557166272
 30
0.0
 11
-1904.081986303243
 21
25.75700557166272
 31
0.0
  0
LINE
  5
24B
330
1F
100
AcDbEntity
  8
0_Pen_No__7
  6
Continuous
100
AcDbLine
 10
-1914.081986303243
 20
35.75700557166339
 30
0.0
 11
-1914.081986303243
 21
15.75700557166293
 31
0.0
  0
LINE
  5
24C
330
1F
100
AcDbEntity
  8
0_Pen_No__7
  6
Continuous
100
AcDbLine
 10
-1624.081986303243
 20
25.75700557166272
 30
0.0
 11
-1604.081986303242
 21
25.75700557166272
 31
0.0
  0
LINE
  5
24D
330
1F
100
AcDbEntity
  8
0_Pen_No__7
  6
Continuous
100
AcDbLine
 10
-1614.081986303242
 20
35.75700557166339
 30
0.0
 11
-1614.081986303242
 21
15.75700557166293
 31
0.0
  0
LINE
  5
24E
330
1F
100
AcDbEntity
  8
0_Pen_No__7
  6
Continuous
100
AcDbLine
 10
-1924.081986303242
 20
-174.2429944283366
 30
0.0
 11
-1904.081986303243
 21
-174.2429944283366
 31
0.0
  0
LINE
  5
24F
330
1F
100
AcDbEntity
  8
0_Pen_No__7
  6
Continuous
100
AcDbLine
 10
-1914.081986303243
 20
-164.2429944283368
 30
0.0
 11
-1914.081986303243
 21
-184.2429944283364
 31
0.0
  0
LINE
  5
250
330
1F
100
AcDbEntity
  8
0_Pen_No__7
  6
Continuous
100
AcDbLine
 10
-1624.081986303243
 20
-174.2429944283366
 30
0.0
 11
-1604.081986303242
 21
-174.2429944283366
 31
0.0
  0
LINE
  5
251
330
1F
100
AcDbEntity
  8
0_Pen_No__7
  6
Continuous
100
AcDbLine
 10
-1614.081986303242
 20
-164.2429944283368
 30
0.0
 11
-1614.081986303242
 21
-184.2429944283364
 31
0.0
  0
LINE
  5
252
330
1F
100
AcDbEntity
  8
0_Pen_No__7
  6
Continuous
100
AcDbLine
 10
-1924.081986303228
 20
-949.2429944283369
 30
0.0
 11
-1904.081986303227
 21
-949.2429944283369
 31
0.0
  0
LINE
  5
253
330
1F
100
AcDbEntity
  8
0_Pen_No__7
  6
Continuous
100
AcDbLine
 10
-1914.081986303228
 20
-939.2429944283372
 30
0.0
 11
-1914.081986303228
 21
-959.2429944283367
 31
0.0
  0
LINE
  5
254
330
1F
100
AcDbEntity
  8
0_Pen_No__7
  6
Continuous
100
AcDbLine
 10
-1624.081986303227
 20
-949.2429944283369
 30
0.0
 11
-1604.081986303228
 21
-949.2429944283369
 31
0.0
  0
LINE
  5
255
330
1F
100
AcDbEntity
  8
0_Pen_No__7
  6
Continuous
100
AcDbLine
 10
-1614.081986303228
 20
-939.2429944283372
 30
0.0
 11
-1614.081986303228
 21
-959.2429944283367
 31
0.0
  0
LINE
  5
256
330
1F
100
AcDbEntity
  8
0_Pen_No__7
  6
Continuous
100
AcDbLine
 10
-1775.069277929112
 20
18.69667639396422
 30
0.0
 11
-1755.145383967276
 21
16.95356153901173
 31
0.0
  0
LINE
  5
257
330
1F
100
AcDbEntity
  8
0_Pen_No__7
  6
Continuous
100
AcDbLine
 10
-1764.235773520718
 20
27.78706594740576
 30
0.0
 11
-1765.97888837567
 21
7.863171985570183
 31
0.0
  0
LINE
  5
258
330
1F
100
AcDbEntity
  8
0_Pen_No__7
  6
Continuous
100
AcDbLine
 10
-1494.748660871879
 20
18.69667639396422
 30
0.0
 11
-1474.824766910044
 21
16.95356153901173
 31
0.0
  0
LINE
  5
259
330
1F
100
AcDbEntity
  8
0_Pen_No__7
  6
Continuous
100
AcDbLine
 10
-1483.915156463485
 20
27.78706594740576
 30
0.0
 11
-1485.658271318438
 21
7.863171985570183
 31
0.0
  0
LINE
  5
25A
330
1F
100
AcDbEntity
  8
0_Pen_No__7
  6
Continuous
100
AcDbLine
 10
3160.852887500714
 20
1374.266667124855
 30
0.0
 11
3160.852887500714
 21
-925.7333328751436
 31
0.0
  0
LINE
  5
25B
330
1F
100
AcDbEntity
  8
0_Pen_No__7
  6
Continuous
100
AcDbLine
 10
3210.852887500712
 20
1374.266667124855
 30
0.0
 11
3210.852887500712
 21
-925.7333328751436
 31
0.0
  0
LINE
  5
25C
330
1F
100
AcDbEntity
  8
0_Pen_No__7
  6
Continuous
100
AcDbLine
 10
3060.852887500713
 20
1374.266667124855
 30
0.0
 11
3060.852887500713
 21
-925.7333328751436
 31
0.0
  0
LINE
  5
25D
330
1F
100
AcDbEntity
  8
0_Pen_No__7
  6
Continuous
100
AcDbLine
 10
3110.852887500713
 20
1374.266667124855
 30
0.0
 11
3110.852887500713
 21
-925.7333328751436
 31
0.0
  0
LINE
  5
25E
330
1F
100
AcDbEntity
  8
0_Pen_No__7
  6
Continuous
100
AcDbLine
 10
-1374.081986303286
 20
997.7763286780474
 30
0.0
 11
-1354.081986303286
 21
997.7763286780474
 31
0.0
  0
LINE
  5
25F
330
1F
100
AcDbEntity
  8
0_Pen_No__7
  6
Continuous
100
AcDbLine
 10
-1364.081986303286
 20
987.7763286780477
 30
0.0
 11
-1364.081986303286
 21
1007.776328678048
 31
0.0
  0
LINE
  5
260
330
1F
100
AcDbEntity
  8
0_Pen_No__7
  6
Continuous
100
AcDbLine
 10
-2149.081986303287
 20
997.7763286780474
 30
0.0
 11
-2129.081986303285
 21
997.7763286780474
 31
0.0
  0
LINE
  5
261
330
1F
100
AcDbEntity
  8
0_Pen_No__7
  6
Continuous
100
AcDbLine
 10
-2139.081986303287
 20
987.7763286780477
 30
0.0
 11
-2139.081986303287
 21
1007.776328678048
 31
0.0
  0
LINE
  5
262
330
1F
100
AcDbEntity
  8
0_Pen_No__7
  6
Continuous
100
AcDbLine
 10
-1924.081986303271
 20
1272.776328678048
 30
0.0
 11
-1904.081986303271
 21
1272.776328678048
 31
0.0
  0
LINE
  5
263
330
1F
100
AcDbEntity
  8
0_Pen_No__7
  6
Continuous
100
AcDbLine
 10
-1914.081986303271
 20
1262.776328678047
 30
0.0
 11
-1914.081986303271
 21
1282.776328678048
 31
0.0
  0
LINE
  5
264
330
1F
100
AcDbEntity
  8
0_Pen_No__7
  6
Continuous
100
AcDbLine
 10
-1624.081986303272
 20
1272.776328678048
 30
0.0
 11
-1604.081986303272
 21
1272.776328678048
 31
0.0
  0
LINE
  5
265
330
1F
100
AcDbEntity
  8
0_Pen_No__7
  6
Continuous
100
AcDbLine
 10
-1614.081986303272
 20
1262.776328678047
 30
0.0
 11
-1614.081986303272
 21
1282.776328678048
 31
0.0
  0
LINE
  5
266
330
1F
100
AcDbEntity
  8
0_Pen_No__7
  6
Continuous
100
AcDbLine
 10
-124.0819863032717
 20
1274.266667124858
 30
0.0
 11
-104.0819863032704
 21
1274.266667124858
 31
0.0
  0
LINE
  5
267
330
1F
100
AcDbEntity
  8
0_Pen_No__7
  6
Continuous
100
AcDbLine
 10
-114.0819863032719
 20
1264.266667124858
 30
0.0
 11
-114.0819863032719
 21
1284.266667124857
 31
0.0
  0
LINE
  5
268
330
1F
100
AcDbEntity
  8
0_Pen_No__7
  6
Continuous
100
AcDbLine
 10
175.918013696729
 20
1274.266667124858
 30
0.0
 11
195.9180136967286
 21
1274.266667124858
 31
0.0
  0
LINE
  5
269
330
1F
100
AcDbEntity
  8
0_Pen_No__7
  6
Continuous
100
AcDbLine
 10
185.9180136967288
 20
1264.266667124858
 30
0.0
 11
185.9180136967288
 21
1284.266667124857
 31
0.0
  0
LINE
  5
26A
330
1F
100
AcDbEntity
  8
0_Pen_No__7
  6
Continuous
100
AcDbLine
 10
475.9180136967297
 20
1274.266667124858
 30
0.0
 11
495.9180136967293
 21
1274.266667124858
 31
0.0
  0
LINE
  5
26B
330
1F
100
AcDbEntity
  8
0_Pen_No__7
  6
Continuous
100
AcDbLine
 10
485.9180136967295
 20
1264.266667124858
 30
0.0
 11
485.9180136967295
 21
1284.266667124857
 31
0.0
  0
LINE
  5
26C
330
1F
100
AcDbEntity
  8
chh-09_Pen_No__9_Pen_No__1
  6
Continuous
100
AcDbLine
 10
3210.852887500712
 20
-1011.669063865463
 30
0.0
 11
3210.852887500712
 21
-1388.934246838789
 31
0.0
  0
LINE
  5
26E
330
1F
100
AcDbEntity
  8
chh-06_Pen_No__7_Pen_No__1
  6
Continuous
100
AcDbLine
 10
-3141.581986303272
 20
-1005.199092272791
 30
0.0
 11
-3141.581986303272
 21
-1320.047130432164
 31
0.0
  0
LINE
  5
270
330
1F
100
AcDbEntity
  8
0_Pen_No__7
  6
Continuous
100
AcDbLine
 10
-1591.581986303243
 20
-150.7333328751441
 30
0.0
 11
-1439.081986303296
 21
-150.7333328751441
 31
0.0
  0
LINE
  5
271
330
1F
100
AcDbEntity
  8
0_Pen_No__7
  6
Continuous
100
AcDbLine
 10
-1591.581986303243
 20
-200.7333328751448
 30
0.0
 11
-1439.081986303294
 21
-200.7333328751448
 31
0.0
  0
LINE
  5
272
330
1F
100
AcDbEntity
  8
0_Pen_No__7
  6
Continuous
100
AcDbLine
 10
-1889.081986303271
 20
1174.266667124857
 30
0.0
 11
-1636.581986303271
 21
1174.266667124859
 31
0.0
  0
LINE
  5
273
330
1F
100
AcDbEntity
  8
0_Pen_No__7
  6
Continuous
100
AcDbLine
 10
-1591.581986303271
 20
1174.266667124859
 30
0.0
 11
-1339.081986303272
 21
1174.26666712486
 31
0.0
  0
LINE
  5
274
330
1F
100
AcDbEntity
  8
0_Pen_No__7
  6
Continuous
100
AcDbLine
 10
-91.58198630327108
 20
1174.26666712486
 30
0.0
 11
163.4180136967297
 21
1174.26666712486
 31
0.0
  0
LINE
  5
275
330
1F
100
AcDbEntity
  8
0_Pen_No__7
  6
Continuous
100
AcDbLine
 10
208.4180136967279
 20
1174.26666712486
 30
0.0
 11
463.4180136967286
 21
1174.26666712486
 31
0.0
  0
LINE
  5
276
330
1F
100
AcDbEntity
  8
0_Pen_No__7
  6
Continuous
100
AcDbLine
 10
508.4180136967286
 20
1174.26666712486
 30
0.0
 11
650.9180136967286
 21
1174.26666712486
 31
0.0
  0
LINE
  5
277
330
1F
100
AcDbEntity
  8
0_Pen_No__7
  6
Continuous
100
AcDbLine
 10
-3091.581986303271
 20
-925.7333328751436
 30
0.0
 11
-3037.885495744518
 21
-925.7333328751436
 31
0.0
  0
LINE
  5
278
330
1F
100
AcDbEntity
  8
0_Pen_No__7
  6
Continuous
100
AcDbLine
 10
-2791.581986303272
 20
-925.7333328751436
 30
0.0
 11
-2735.385495744518
 21
-925.7333328751436
 31
0.0
  0
LINE
  5
279
330
1F
100
AcDbEntity
  8
0_Pen_No__7
  6
Continuous
100
AcDbLine
 10
-2491.581986303272
 20
-925.7333328751436
 30
0.0
 11
-2437.885495744518
 21
-925.7333328751436
 31
0.0
  0
LINE
  5
27A
330
1F
100
AcDbEntity
  8
0_Pen_No__7
  6
Continuous
100
AcDbLine
 10
-2963.694700944215
 20
-925.7333328751436
 30
0.0
 11
-2836.58198630327
 21
-925.7333328751436
 31
0.0
  0
LINE
  5
27B
330
1F
100
AcDbEntity
  8
0_Pen_No__7
  6
Continuous
100
AcDbLine
 10
-2891.686953289314
 20
-975.7333328751442
 30
0.0
 11
-2663.377748089631
 21
-975.7333328751442
 31
0.0
  0
LINE
  5
27C
330
1F
100
AcDbEntity
  8
0_Pen_No__7
  6
Continuous
100
AcDbLine
 10
-2661.194700944212
 20
-925.7333328751436
 30
0.0
 11
-2536.581986303272
 21
-925.7333328751436
 31
0.0
  0
LINE
  5
27D
330
1F
100
AcDbEntity
  8
0_Pen_No__7
  6
Continuous
100
AcDbLine
 10
-2589.186953289312
 20
-975.7333328751442
 30
0.0
 11
-2365.877748089628
 21
-975.7333328751442
 31
0.0
  0
LINE
  5
27E
330
1F
100
AcDbEntity
  8
0_Pen_No__7
  6
Continuous
100
AcDbLine
 10
-2363.69470094421
 20
-925.7333328751436
 30
0.0
 11
-2211.58198630327
 21
-925.7333328751436
 31
0.0
  0
LINE
  5
27F
330
1F
100
AcDbEntity
  8
0_Pen_No__7
  6
Continuous
100
AcDbLine
 10
-2166.581986303272
 20
-925.7333328751436
 30
0.0
 11
-2112.885495744517
 21
-925.7333328751436
 31
0.0
  0
LINE
  5
280
330
1F
100
AcDbEntity
  8
0_Pen_No__7
  6
Continuous
100
AcDbLine
 10
-2038.694700944207
 20
-925.7333328751436
 30
0.0
 11
-1936.581986303242
 21
-925.7333328751436
 31
0.0
  0
LINE
  5
281
330
1F
100
AcDbEntity
  8
0_Pen_No__7
  6
Continuous
100
AcDbLine
 10
-1891.581986303242
 20
-925.7333328751436
 30
0.0
 11
-1840.38549574449
 21
-925.7333328751436
 31
0.0
  0
LINE
  5
282
330
1F
100
AcDbEntity
  8
0_Pen_No__7
  6
Continuous
100
AcDbLine
 10
-1766.194700944181
 20
-925.7333328751436
 30
0.0
 11
-1636.581986303243
 21
-925.7333328751436
 31
0.0
  0
LINE
  5
283
330
1F
100
AcDbEntity
  8
0_Pen_No__7
  6
Continuous
100
AcDbLine
 10
-1591.581986303243
 20
-925.7333328751436
 30
0.0
 11
-1540.385495744491
 21
-925.7333328751436
 31
0.0
  0
LINE
  5
284
330
1F
100
AcDbEntity
  8
0_Pen_No__7
  6
Continuous
100
AcDbLine
 10
-1466.194700944179
 20
-925.7333328751436
 30
0.0
 11
-1336.58198630327
 21
-925.7333328751436
 31
0.0
  0
LINE
  5
285
330
1F
100
AcDbEntity
  8
0_Pen_No__7
  6
Continuous
100
AcDbLine
 10
-1291.581986303272
 20
-925.7333328751436
 30
0.0
 11
-1237.885495744517
 21
-925.7333328751436
 31
0.0
  0
LINE
  5
286
330
1F
100
AcDbEntity
  8
0_Pen_No__7
  6
Continuous
100
AcDbLine
 10
-1163.69470094421
 20
-925.7333328751436
 30
0.0
 11
-1036.581986303271
 21
-925.7333328751436
 31
0.0
  0
LINE
  5
287
330
1F
100
AcDbEntity
  8
0_Pen_No__7
  6
Continuous
100
AcDbLine
 10
-991.5819863032714
 20
-925.7333328751436
 30
0.0
 11
-937.8854957445183
 21
-925.7333328751436
 31
0.0
  0
LINE
  5
288
330
1F
100
AcDbEntity
  8
0_Pen_No__7
  6
Continuous
100
AcDbLine
 10
-863.694700944213
 20
-925.7333328751436
 30
0.0
 11
-736.5819863032707
 21
-925.7333328751436
 31
0.0
  0
LINE
  5
289
330
1F
100
AcDbEntity
  8
0_Pen_No__7
  6
Continuous
100
AcDbLine
 10
-691.5819863032707
 20
-925.7333328751436
 30
0.0
 11
-637.8854957445176
 21
-925.7333328751436
 31
0.0
  0
LINE
  5
28A
330
1F
100
AcDbEntity
  8
0_Pen_No__7
  6
Continuous
100
AcDbLine
 10
-563.6947009442158
 20
-925.7333328751436
 30
0.0
 11
-411.5819863032714
 21
-925.7333328751436
 31
0.0
  0
LINE
  5
28B
330
1F
100
AcDbEntity
  8
0_Pen_No__7
  6
Continuous
100
AcDbLine
 10
698.4180136967299
 20
-925.7333328751436
 30
0.0
 11
763.4180136967293
 21
-925.7333328751436
 31
0.0
  0
LINE
  5
28C
330
1F
100
AcDbEntity
  8
0_Pen_No__7
  6
Continuous
100
AcDbLine
 10
648.4180136967292
 20
-925.7333328751436
 30
0.0
 11
653.4180136967282
 21
-925.7333328751436
 31
0.0
  0
LINE
  5
28D
330
1F
100
AcDbEntity
  8
0_Pen_No__7
  6
Continuous
100
AcDbLine
 10
-366.5819863032714
 20
-925.7333328751436
 30
0.0
 11
-361.5819863032706
 21
-925.7333328751436
 31
0.0
  0
LINE
  5
28E
330
1F
100
AcDbEntity
  8
0_Pen_No__7
  6
Continuous
100
AcDbLine
 10
-316.5819863032707
 20
-925.7333328751436
 30
0.0
 11
-314.0819863032712
 21
-925.7333328751436
 31
0.0
  0
LINE
  5
28F
330
1F
100
AcDbEntity
  8
0_Pen_No__7
  6
Continuous
100
AcDbLine
 10
808.4180136967293
 20
-925.7333328751436
 30
0.0
 11
862.1145042554833
 21
-925.7333328751436
 31
0.0
  0
LINE
  5
290
330
1F
100
AcDbEntity
  8
0_Pen_No__7
  6
Continuous
100
AcDbLine
 10
936.3052990557798
 20
-925.7333328751436
 30
0.0
 11
1063.418013696728
 21
-925.7333328751436
 31
0.0
  0
LINE
  5
291
330
1F
100
AcDbEntity
  8
0_Pen_No__7
  6
Continuous
100
AcDbLine
 10
1108.41801369673
 20
-925.7333328751436
 30
0.0
 11
1162.114504255484
 21
-925.7333328751436
 31
0.0
  0
LINE
  5
292
330
1F
100
AcDbEntity
  8
0_Pen_No__7
  6
Continuous
100
AcDbLine
 10
1236.305299055785
 20
-925.7333328751436
 30
0.0
 11
1363.418013696729
 21
-925.7333328751436
 31
0.0
  0
LINE
  5
293
330
1F
100
AcDbEntity
  8
0_Pen_No__7
  6
Continuous
100
AcDbLine
 10
1408.418013696729
 20
-925.7333328751436
 30
0.0
 11
1462.114504255483
 21
-925.7333328751436
 31
0.0
  0
LINE
  5
294
330
1F
100
AcDbEntity
  8
0_Pen_No__7
  6
Continuous
100
AcDbLine
 10
1536.305299055786
 20
-925.7333328751436
 30
0.0
 11
1663.41801369673
 21
-925.7333328751436
 31
0.0
  0
LINE
  5
295
330
1F
100
AcDbEntity
  8
0_Pen_No__7
  6
Continuous
100
AcDbLine
 10
1708.41801369673
 20
-925.7333328751436
 30
0.0
 11
1854.874480774414
 21
-925.7333328751436
 31
0.0
  0
LINE
  5
296
330
1F
100
AcDbEntity
  8
0_Pen_No__7
  6
Continuous
100
AcDbLine
 10
1929.065275574713
 20
-925.7333328751436
 30
0.0
 11
1985.918013696729
 21
-925.7333328751436
 31
0.0
  0
LINE
  5
297
330
1F
100
AcDbEntity
  8
0_Pen_No__7
  6
Continuous
100
AcDbLine
 10
2684.989462960332
 20
-925.7333328751436
 30
0.0
 11
2851.071904002919
 21
-925.7333328751436
 31
0.0
  0
LINE
  5
298
330
1F
100
AcDbEntity
  8
0_Pen_No__7
  6
Continuous
100
AcDbLine
 10
2925.262698803219
 20
-925.7333328751436
 30
0.0
 11
3210.852887500712
 21
-925.7333328751436
 31
0.0
  0
LINE
  5
299
330
1F
100
AcDbEntity
  8
0_Pen_No__7
  6
Continuous
100
AcDbLine
 10
1635.918013696728
 20
1249.266667124855
 30
0.0
 11
1635.918013696728
 21
-925.7333328751436
 31
0.0
  0
LINE
  5
29A
330
1F
100
AcDbEntity
  8
0_Pen_No__7
  6
Continuous
100
AcDbLine
 10
1735.918013696728
 20
1249.266667124855
 30
0.0
 11
1735.918013696728
 21
-925.7333328751436
 31
0.0
  0
LINE
  5
29B
330
1F
100
AcDbEntity
  8
0_Pen_No__7
  6
Continuous
100
AcDbLine
 10
2687.489462960332
 20
1249.266667124855
 30
0.0
 11
2687.489462960332
 21
-925.7333328751436
 31
0.0
  0
LINE
  5
29C
330
1F
100
AcDbEntity
  8
0_Pen_No__7
  6
Continuous
100
AcDbLine
 10
2637.489462960332
 20
1249.266667124855
 30
0.0
 11
2637.489462960332
 21
-925.7333328751436
 31
0.0
  0
LINE
  5
29D
330
1F
100
AcDbEntity
  8
0_Pen_No__7
  6
Continuous
100
AcDbLine
 10
1110.918013696729
 20
1249.266667124855
 30
0.0
 11
1110.918013696729
 21
-925.7333328751436
 31
0.0
  0
LINE
  5
29E
330
1F
100
AcDbEntity
  8
0_Pen_No__7
  6
Continuous
100
AcDbLine
 10
1060.918013696729
 20
1249.266667124855
 30
0.0
 11
1060.918013696729
 21
-925.7333328751436
 31
0.0
  0
LINE
  5
29F
330
1F
100
AcDbEntity
  8
0_Pen_No__7
  6
Continuous
100
AcDbLine
 10
700.9180136967293
 20
1299.266667124855
 30
0.0
 11
700.9180136967293
 21
1374.266667124855
 31
0.0
  0
LINE
  5
2A0
330
1F
100
AcDbEntity
  8
0_Pen_No__7
  6
Continuous
100
AcDbLine
 10
650.9180136967286
 20
1249.266667124855
 30
0.0
 11
650.9180136967286
 21
-925.7333328751436
 31
0.0
  0
LINE
  5
2A1
330
1F
100
AcDbEntity
  8
0_Pen_No__7
  6
Continuous
100
AcDbLine
 10
510.9180136967281
 20
1299.266667124856
 30
0.0
 11
510.9180136967281
 21
1374.266667124855
 31
0.0
  0
LINE
  5
2A2
330
1F
100
AcDbEntity
  8
0_Pen_No__7
  6
Continuous
100
AcDbLine
 10
460.9180136967291
 20
1299.266667124856
 30
0.0
 11
460.9180136967291
 21
1374.266667124855
 31
0.0
  0
LINE
  5
2A3
330
1F
100
AcDbEntity
  8
0_Pen_No__7
  6
Continuous
100
AcDbLine
 10
-364.0819863032719
 20
1249.266667124855
 30
0.0
 11
-364.0819863032719
 21
-925.7333328751436
 31
0.0
  0
LINE
  5
2A4
330
1F
100
AcDbEntity
  8
0_Pen_No__7
  6
Continuous
100
AcDbLine
 10
-414.0819863032709
 20
1249.266667124855
 30
0.0
 11
-414.0819863032709
 21
-925.7333328751436
 31
0.0
  0
LINE
  5
2A5
330
1F
100
AcDbEntity
  8
0_Pen_No__7
  6
Continuous
100
AcDbLine
 10
-689.0819863032713
 20
1249.266667124855
 30
0.0
 11
-689.0819863032713
 21
-925.7333328751436
 31
0.0
  0
LINE
  5
2A6
330
1F
100
AcDbEntity
  8
0_Pen_No__7
  6
Continuous
100
AcDbLine
 10
-739.081986303272
 20
1249.266667124855
 30
0.0
 11
-739.081986303272
 21
-925.7333328751436
 31
0.0
  0
LINE
  5
2A7
330
1F
100
AcDbEntity
  8
0_Pen_No__7
  6
Continuous
100
AcDbLine
 10
-1339.081986303272
 20
1249.266667124855
 30
0.0
 11
-1339.081986303272
 21
-925.7333328751436
 31
0.0
  0
LINE
  5
2A8
330
1F
100
AcDbEntity
  8
0_Pen_No__7
  6
Continuous
100
AcDbLine
 10
-1289.081986303271
 20
1249.266667124855
 30
0.0
 11
-1289.081986303271
 21
-925.7333328751436
 31
0.0
  0
LINE
  5
2A9
330
1F
100
AcDbEntity
  8
0_Pen_No__7
  6
Continuous
100
AcDbLine
 10
-1889.081986303271
 20
1249.266667124855
 30
0.0
 11
-1889.081986303271
 21
1174.26666712486
 31
0.0
  0
LINE
  5
2AA
330
1F
100
AcDbEntity
  8
0_Pen_No__7
  6
Continuous
100
AcDbLine
 10
-1939.081986303271
 20
1249.266667124855
 30
0.0
 11
-1939.081986303271
 21
1174.266667124857
 31
0.0
  0
LINE
  5
2AB
330
1F
100
AcDbEntity
  8
0_Pen_No__7
  6
Continuous
100
AcDbLine
 10
-2164.081986303271
 20
1249.266667124855
 30
0.0
 11
-2164.081986303271
 21
-925.7333328751436
 31
0.0
  0
LINE
  5
2AC
330
1F
100
AcDbEntity
  8
0_Pen_No__7
  6
Continuous
100
AcDbLine
 10
-2489.081986303272
 20
1249.266667124855
 30
0.0
 11
-2489.081986303272
 21
-925.7333328751436
 31
0.0
  0
LINE
  5
2AD
330
1F
100
AcDbEntity
  8
0_Pen_No__7
  6
Continuous
100
AcDbLine
 10
-2539.081986303271
 20
1249.266667124855
 30
0.0
 11
-2539.081986303271
 21
-925.7333328751436
 31
0.0
  0
LINE
  5
2AE
330
1F
100
AcDbEntity
  8
0_Pen_No__7
  6
Continuous
100
AcDbLine
 10
-3089.081986303272
 20
1249.266667124855
 30
0.0
 11
-3089.081986303272
 21
-925.7333328751436
 31
0.0
  0
LINE
  5
2AF
330
1F
100
AcDbEntity
  8
0_Pen_No__7
  6
Continuous
100
AcDbLine
 10
-2291.686953289314
 20
-975.7333328751442
 30
0.0
 11
-2040.877748089625
 21
-975.7333328751442
 31
0.0
  0
LINE
  5
2B0
330
1F
100
AcDbEntity
  8
0_Pen_No__7
  6
Continuous
100
AcDbLine
 10
-1966.686953289313
 20
-975.7333328751442
 30
0.0
 11
-1768.377748089594
 21
-975.7333328751442
 31
0.0
  0
LINE
  5
2B1
330
1F
100
AcDbEntity
  8
0_Pen_No__7
  6
Continuous
100
AcDbLine
 10
-1694.186953289282
 20
-975.7333328751442
 30
0.0
 11
-1468.377748089597
 21
-975.7333328751442
 31
0.0
  0
LINE
  5
2B2
330
1F
100
AcDbEntity
  8
0_Pen_No__7
  6
Continuous
100
AcDbLine
 10
-1394.186953289285
 20
-975.7333328751442
 30
0.0
 11
-1165.877748089629
 21
-975.7333328751442
 31
0.0
  0
LINE
  5
2B3
330
1F
100
AcDbEntity
  8
0_Pen_No__7
  6
Continuous
100
AcDbLine
 10
-1091.686953289313
 20
-975.7333328751442
 30
0.0
 11
-865.8777480896122
 21
-975.7333328751442
 31
0.0
  0
LINE
  5
2B4
330
1F
100
AcDbEntity
  8
0_Pen_No__7
  6
Continuous
100
AcDbLine
 10
-791.6869532893139
 20
-975.7333328751442
 30
0.0
 11
-565.8777480896239
 21
-975.7333328751442
 31
0.0
  0
LINE
  5
2B5
330
1F
100
AcDbEntity
  8
0_Pen_No__7
  6
Continuous
100
AcDbLine
 10
-491.6869532893114
 20
-975.7333328751442
 30
0.0
 11
934.1222519103735
 21
-975.7333328751442
 31
0.0
  0
LINE
  5
2B6
330
1F
100
AcDbEntity
  8
0_Pen_No__7
  6
Continuous
100
AcDbLine
 10
1008.313046710688
 20
-975.7333328751442
 30
0.0
 11
1234.12225191037
 21
-975.7333328751442
 31
0.0
  0
LINE
  5
2B7
330
1F
100
AcDbEntity
  8
0_Pen_No__7
  6
Continuous
100
AcDbLine
 10
1308.313046710689
 20
-975.7333328751442
 30
0.0
 11
1534.122251910367
 21
-975.7333328751442
 31
0.0
  0
LINE
  5
2B8
330
1F
100
AcDbEntity
  8
0_Pen_No__7
  6
Continuous
100
AcDbLine
 10
1608.313046710688
 20
-975.7333328751442
 30
0.0
 11
1926.882228429306
 21
-975.7333328751442
 31
0.0
  0
LINE
  5
2B9
330
1F
100
AcDbEntity
  8
0_Pen_No__7
  6
Continuous
100
AcDbLine
 10
2473.907021917745
 20
-975.7333328751442
 30
0.0
 11
2923.079651657812
 21
-975.7333328751442
 31
0.0
  0
LINE
  5
2BA
330
1F
100
AcDbEntity
  8
0_Pen_No__7
  6
Continuous
100
AcDbLine
 10
2997.270446458127
 20
-975.7333328751442
 30
0.0
 11
3210.852887500712
 21
-975.7333328751442
 31
0.0
  0
LWPOLYLINE
  5
2BB
330
1F
100
AcDbEntity
  8
0_Pen_No__7
  6
Continuous
100
AcDbPolyline
 90
        4
 70
   129
 43
0.0
 10
-3136.581986303271
 20
-975.7333328751442
 10
-3091.581986303271
 20
-975.7333328751442
 10
-3091.581986303271
 20
1299.266667124855
 10
-3136.581986303271
 20
1299.266667124855
  0
LWPOLYLINE
  5
2BC
330
1F
100
AcDbEntity
  8
0_Pen_No__7
  6
Continuous
100
AcDbPolyline
 90
        4
 70
   129
 43
0.0
 10
-2536.581986303272
 20
-975.7333328751442
 10
-2491.581986303272
 20
-975.7333328751442
 10
-2491.581986303272
 20
1299.266667124855
 10
-2536.581986303272
 20
1299.266667124855
  0
LWPOLYLINE
  5
2BD
330
1F
100
AcDbEntity
  8
0_Pen_No__7
  6
Continuous
100
AcDbPolyline
 90
        4
 70
   129
 43
0.0
 10
-2211.58198630327
 20
-975.7333328751442
 10
-2166.581986303272
 20
-975.7333328751442
 10
-2166.581986303272
 20
1299.266667124855
 10
-2211.58198630327
 20
1299.266667124855
  0
LWPOLYLINE
  5
2BE
330
1F
100
AcDbEntity
  8
0_Pen_No__7
  6
Continuous
100
AcDbPolyline
 90
        4
 70
   129
 43
0.0
 10
-1336.58198630327
 20
-975.7333328751442
 10
-1291.581986303272
 20
-975.7333328751442
 10
-1291.581986303272
 20
1299.266667124855
 10
-1336.58198630327
 20
1299.266667124855
  0
LWPOLYLINE
  5
2BF
330
1F
100
AcDbEntity
  8
0_Pen_No__7
  6
Continuous
100
AcDbPolyline
 90
        4
 70
   129
 43
0.0
 10
-736.5819863032707
 20
-975.7333328751442
 10
-691.5819863032707
 20
-975.7333328751442
 10
-691.5819863032707
 20
1299.266667124855
 10
-736.5819863032707
 20
1299.266667124855
  0
LWPOLYLINE
  5
2C0
330
1F
100
AcDbEntity
  8
0_Pen_No__7
  6
Continuous
100
AcDbPolyline
 90
        4
 70
   129
 43
0.0
 10
-411.5819863032714
 20
-975.7333328751442
 10
-366.5819863032714
 20
-975.7333328751442
 10
-366.5819863032714
 20
1299.266667124855
 10
-411.5819863032714
 20
1299.266667124855
  0
LWPOLYLINE
  5
2C1
330
1F
100
AcDbEntity
  8
0_Pen_No__7
  6
Continuous
100
AcDbPolyline
 90
        4
 70
   129
 43
0.0
 10
653.4180136967282
 20
-975.7333328751442
 10
698.418013696728
 20
-975.7333328751442
 10
698.418013696728
 20
1299.266667124855
 10
653.4180136967282
 20
1299.266667124855
  0
LWPOLYLINE
  5
2C2
330
1F
100
AcDbEntity
  8
0_Pen_No__7
  6
Continuous
100
AcDbPolyline
 90
        4
 70
   129
 43
0.0
 10
1063.418013696728
 20
-975.7333328751442
 10
1108.418013696728
 20
-975.7333328751442
 10
1108.418013696728
 20
1299.266667124855
 10
1063.418013696728
 20
1299.266667124855
  0
LWPOLYLINE
  5
2C3
330
1F
100
AcDbEntity
  8
0_Pen_No__7
  6
Continuous
100
AcDbPolyline
 90
        4
 70
   129
 43
0.0
 10
1663.41801369673
 20
-975.7333328751442
 10
1708.418013696728
 20
-975.7333328751442
 10
1708.418013696728
 20
1299.266667124855
 10
1663.41801369673
 20
1299.266667124855
  0
LWPOLYLINE
  5
2C4
330
1F
100
AcDbEntity
  8
0_Pen_No__7
  6
Continuous
100
AcDbPolyline
 90
        4
 70
   129
 43
0.0
 10
2639.989462960332
 20
-975.7333328751442
 10
2684.989462960332
 20
-975.7333328751442
 10
2684.989462960332
 20
1299.266667124855
 10
2639.989462960332
 20
1299.266667124855
  0
LWPOLYLINE
  5
2C5
330
1F
100
AcDbEntity
  8
0_Pen_No__7
  6
Continuous
100
AcDbPolyline
 90
        4
 70
   129
 43
0.0
 10
-2836.58198630327
 20
-975.7333328751442
 10
-2791.581986303272
 20
-975.7333328751442
 10
-2791.581986303272
 20
1299.266667124855
 10
-2836.58198630327
 20
1299.266667124855
  0
LWPOLYLINE
  5
2C6
330
1F
100
AcDbEntity
  8
0_Pen_No__7
  6
Continuous
100
AcDbPolyline
 90
        4
 70
   129
 43
0.0
 10
-3091.581986303271
 20
1299.266667124855
 10
-2836.58198630327
 20
1299.266667124855
 10
-2836.58198630327
 20
1249.266667124855
 10
-3091.581986303271
 20
1249.266667124855
  0
LWPOLYLINE
  5
2C7
330
1F
100
AcDbEntity
  8
0_Pen_No__7
  6
Continuous
100
AcDbPolyline
 90
        4
 70
   129
 43
0.0
 10
-2791.581986303272
 20
1299.266667124855
 10
-2536.581986303272
 20
1299.266667124855
 10
-2536.581986303272
 20
1249.266667124855
 10
-2791.581986303272
 20
1249.266667124855
  0
LWPOLYLINE
  5
2C8
330
1F
100
AcDbEntity
  8
0_Pen_No__7
  6
Continuous
100
AcDbPolyline
 90
        4
 70
   129
 43
0.0
 10
-2491.581986303272
 20
1299.266667124855
 10
-2211.58198630327
 20
1299.266667124855
 10
-2211.58198630327
 20
1249.266667124855
 10
-2491.581986303272
 20
1249.266667124855
  0
LWPOLYLINE
  5
2C9
330
1F
100
AcDbEntity
  8
0_Pen_No__7
  6
Continuous
100
AcDbPolyline
 90
        4
 70
   129
 43
0.0
 10
-3091.581986303271
 20
1299.266667124855
 10
-2836.58198630327
 20
1299.266667124855
 10
-2836.58198630327
 20
1249.266667124855
 10
-3091.581986303271
 20
1249.266667124855
  0
LWPOLYLINE
  5
2CA
330
1F
100
AcDbEntity
  8
0_Pen_No__7
  6
Continuous
100
AcDbPolyline
 90
        4
 70
   129
 43
0.0
 10
-691.5819863032707
 20
1299.266667124855
 10
-411.5819863032714
 20
1299.266667124855
 10
-411.5819863032714
 20
1249.266667124855
 10
-691.5819863032707
 20
1249.266667124855
  0
LWPOLYLINE
  5
2CB
330
1F
100
AcDbEntity
  8
0_Pen_No__7
  6
Continuous
100
AcDbPolyline
 90
        4
 70
   129
 43
0.0
 10
-3037.321933305104
 20
-919.2917847167763
 10
-2887.892728591342
 20
-932.3651461289248
 10
-2892.250515728726
 20
-982.1748810335116
 10
-3041.679720442488
 20
-969.1015196213631
  0
LWPOLYLINE
  5
2CC
330
1F
100
AcDbEntity
  8
0_Pen_No__7
  6
Continuous
100
AcDbPolyline
 90
        4
 70
   129
 43
0.0
 10
-2734.821933305104
 20
-919.2917847167763
 10
-2585.392728591342
 20
-932.3651461289248
 10
-2589.750515728726
 20
-982.1748810335116
 10
-2739.179720442487
 20
-969.1015196213631
  0
LWPOLYLINE
  5
2CD
330
1F
100
AcDbEntity
  8
0_Pen_No__7
  6
Continuous
100
AcDbPolyline
 90
        4
 70
   129
 43
0.0
 10
-2437.321933305105
 20
-919.2917847167763
 10
-2287.892728591343
 20
-932.3651461289248
 10
-2292.250515728726
 20
-982.1748810335116
 10
-2441.679720442488
 20
-969.1015196213631
  0
LWPOLYLINE
  5
2CE
330
1F
100
AcDbEntity
  8
0_Pen_No__7
  6
Continuous
100
AcDbPolyline
 90
        4
 70
   129
 43
0.0
 10
-2161.581986303272
 20
-0.7333328751446544
 10
-2161.581986303272
 20
1024.266667124856
 10
-2116.581986303272
 20
1024.266667124856
 10
-2116.581986303272
 20
-0.7333328751446544
  0
LWPOLYLINE
  5
2CF
330
1F
100
AcDbEntity
  8
0_Pen_No__7
  6
Continuous
100
AcDbPolyline
 90
        4
 70
   129
 43
0.0
 10
-1386.581986303271
 20
-0.7333328751446544
 10
-1386.581986303271
 20
1024.266667124856
 10
-1341.581986303271
 20
1024.266667124856
 10
-1341.581986303271
 20
-0.7333328751446544
  0
LWPOLYLINE
  5
2D0
330
1F
100
AcDbEntity
  8
0_Pen_No__7
  6
Continuous
100
AcDbPolyline
 90
        4
 70
   129
 43
0.0
 10
-361.5819863032706
 20
-975.7333328751442
 10
-361.5819863032706
 20
1024.266667124859
 10
-316.5819863032707
 20
1024.266667124859
 10
-316.5819863032707
 20
-975.7333328751442
  0
LWPOLYLINE
  5
2D1
330
1F
100
AcDbEntity
  8
0_Pen_No__7
  6
Continuous
100
AcDbPolyline
 90
        4
 70
   129
 43
0.0
 10
603.4180136967292
 20
-975.7333328751442
 10
603.4180136967292
 20
1024.266667124859
 10
648.4180136967292
 20
1024.266667124859
 10
648.4180136967292
 20
-975.7333328751442
  0
LWPOLYLINE
  5
2D2
330
1F
100
AcDbEntity
  8
0_Pen_No__7
  6
Continuous
100
AcDbPolyline
 90
        4
 70
   129
 43
0.0
 10
463.4180136967286
 20
1044.266667124859
 10
463.4180136967286
 20
1299.266667124858
 10
508.4180136967286
 20
1299.266667124858
 10
508.4180136967286
 20
1044.266667124859
  0
LWPOLYLINE
  5
2D3
330
1F
100
AcDbEntity
  8
0_Pen_No__7
  6
Continuous
100
AcDbPolyline
 90
        4
 70
   129
 43
0.0
 10
-1936.581986303272
 20
1024.266667124857
 10
-1936.581986303272
 20
1299.266667124856
 10
-1891.581986303272
 20
1299.266667124856
 10
-1891.581986303272
 20
1024.266667124857
  0
LWPOLYLINE
  5
2D4
330
1F
100
AcDbEntity
  8
0_Pen_No__7
  6
Continuous
100
AcDbPolyline
 90
        4
 70
   129
 43
0.0
 10
-1936.581986303242
 20
-975.7333328751442
 10
-1936.581986303242
 20
49.26666712485606
 10
-1891.581986303242
 20
49.26666712485606
 10
-1891.581986303242
 20
-975.7333328751442
  0
LWPOLYLINE
  5
2D5
330
1F
100
AcDbEntity
  8
0_Pen_No__7
  6
Continuous
100
AcDbPolyline
 90
        4
 70
   129
 43
0.0
 10
-2166.581986303272
 20
1299.266667124855
 10
-1936.581986303272
 20
1299.266667124855
 10
-1936.581986303272
 20
1249.266667124855
 10
-2166.581986303272
 20
1249.266667124855
  0
LWPOLYLINE
  5
2D6
330
1F
100
AcDbEntity
  8
0_Pen_No__7
  6
Continuous
100
AcDbPolyline
 90
        4
 70
   129
 43
0.0
 10
-1891.581986303272
 20
1299.266667124856
 10
-1636.581986303271
 20
1299.266667124856
 10
-1636.581986303271
 20
1249.266667124855
 10
-1891.581986303272
 20
1249.266667124855
  0
LWPOLYLINE
  5
2D7
330
1F
100
AcDbEntity
  8
0_Pen_No__7
  6
Continuous
100
AcDbPolyline
 90
        4
 70
   129
 43
0.0
 10
-1291.581986303272
 20
1299.266667124855
 10
-1036.581986303271
 20
1299.266667124855
 10
-1036.581986303271
 20
1249.266667124855
 10
-1291.581986303272
 20
1249.266667124855
  0
LWPOLYLINE
  5
2D8
330
1F
100
AcDbEntity
  8
0_Pen_No__7
  6
Continuous
100
AcDbPolyline
 90
        4
 70
   129
 43
0.0
 10
-1636.581986303243
 20
-975.7333328751442
 10
-1636.581986303243
 20
49.26666712485606
 10
-1591.581986303243
 20
49.26666712485606
 10
-1591.581986303243
 20
-975.7333328751442
  0
LWPOLYLINE
  5
2D9
330
1F
100
AcDbEntity
  8
0_Pen_No__7
  6
Continuous
100
AcDbPolyline
 90
        4
 70
   129
 43
0.0
 10
-1036.581986303271
 20
-975.7333328751442
 10
-991.5819863032714
 20
-975.7333328751442
 10
-991.5819863032714
 20
1299.266667124855
 10
-1036.581986303271
 20
1299.266667124855
  0
LWPOLYLINE
  5
2DA
330
1F
100
AcDbEntity
  8
0_Pen_No__7
  6
Continuous
100
AcDbPolyline
 90
        4
 70
   129
 43
0.0
 10
1363.418013696729
 20
-975.7333328751442
 10
1408.418013696729
 20
-975.7333328751442
 10
1408.418013696729
 20
1299.266667124855
 10
1363.418013696729
 20
1299.266667124855
  0
LWPOLYLINE
  5
2DB
330
1F
100
AcDbEntity
  8
0_Pen_No__7
  6
Continuous
100
AcDbPolyline
 90
        4
 70
   129
 43
0.0
 10
763.4180136967293
 20
-975.7333328751442
 10
808.4180136967293
 20
-975.7333328751442
 10
808.4180136967293
 20
1299.266667124855
 10
763.4180136967293
 20
1299.266667124855
  0
LWPOLYLINE
  5
2DC
330
1F
100
AcDbEntity
  8
0_Pen_No__7
  6
Continuous
100
AcDbPolyline
 90
        4
 70
   129
 43
0.0
 10
163.4180136967297
 20
1044.266667124859
 10
163.4180136967297
 20
1299.266667124858
 10
208.4180136967279
 20
1299.266667124858
 10
208.4180136967279
 20
1044.266667124859
  0
LWPOLYLINE
  5
2DD
330
1F
100
AcDbEntity
  8
0_Pen_No__7
  6
Continuous
100
AcDbPolyline
 90
        4
 70
   129
 43
0.0
 10
-136.581986303271
 20
1044.266667124859
 10
-136.581986303271
 20
1299.266667124858
 10
-91.58198630327108
 20
1299.266667124858
 10
-91.58198630327108
 20
1044.266667124859
  0
LWPOLYLINE
  5
2DE
330
1F
100
AcDbEntity
  8
0_Pen_No__7
  6
Continuous
100
AcDbPolyline
 90
        4
 70
   129
 43
0.0
 10
-1636.581986303271
 20
1024.266667124857
 10
-1636.581986303271
 20
1299.266667124856
 10
-1591.581986303271
 20
1299.266667124856
 10
-1591.581986303271
 20
1024.266667124857
  0
LWPOLYLINE
  5
2DF
330
1F
100
AcDbEntity
  8
0_Pen_No__7
  6
Continuous
100
AcDbPolyline
 90
        4
 70
   129
 43
0.0
 10
-1591.581986303271
 20
1299.266667124855
 10
-1336.58198630327
 20
1299.266667124855
 10
-1336.58198630327
 20
1249.266667124855
 10
-1591.581986303271
 20
1249.266667124855
  0
LWPOLYLINE
  5
2E0
330
1F
100
AcDbEntity
  8
0_Pen_No__7
  6
Continuous
100
AcDbPolyline
 90
        4
 70
   129
 43
0.0
 10
-991.5819863032714
 20
1299.266667124855
 10
-736.5819863032707
 20
1299.266667124855
 10
-736.5819863032707
 20
1249.266667124855
 10
-991.5819863032714
 20
1249.266667124855
  0
LWPOLYLINE
  5
2E1
330
1F
100
AcDbEntity
  8
0_Pen_No__7
  6
Continuous
100
AcDbPolyline
 90
        4
 70
   129
 43
0.0
 10
-366.5819863032714
 20
1299.266667124855
 10
-136.581986303271
 20
1299.266667124855
 10
-136.581986303271
 20
1249.266667124855
 10
-366.5819863032714
 20
1249.266667124855
  0
LWPOLYLINE
  5
2E2
330
1F
100
AcDbEntity
  8
0_Pen_No__7
  6
Continuous
100
AcDbPolyline
 90
        4
 70
   129
 43
0.0
 10
-91.58198630327108
 20
1299.266667124855
 10
163.4180136967297
 20
1299.266667124855
 10
163.4180136967297
 20
1249.266667124855
 10
-91.58198630327108
 20
1249.266667124855
  0
LWPOLYLINE
  5
2E3
330
1F
100
AcDbEntity
  8
0_Pen_No__7
  6
Continuous
100
AcDbPolyline
 90
        4
 70
   129
 43
0.0
 10
208.4180136967279
 20
1299.266667124856
 10
463.4180136967286
 20
1299.266667124856
 10
463.4180136967286
 20
1249.266667124855
 10
208.4180136967279
 20
1249.266667124855
  0
LWPOLYLINE
  5
2E4
330
1F
100
AcDbEntity
  8
0_Pen_No__7
  6
Continuous
100
AcDbPolyline
 90
        4
 70
   129
 43
0.0
 10
508.4180136967286
 20
1299.266667124856
 10
653.4180136967282
 20
1299.266667124856
 10
653.4180136967282
 20
1249.266667124855
 10
508.4180136967286
 20
1249.266667124855
  0
LWPOLYLINE
  5
2E5
330
1F
100
AcDbEntity
  8
0_Pen_No__7
  6
Continuous
100
AcDbPolyline
 90
        4
 70
   129
 43
0.0
 10
-2112.321933305103
 20
-919.2917847167763
 10
-1962.892728591342
 20
-932.3651461289248
 10
-1967.250515728725
 20
-982.1748810335116
 10
-2116.679720442487
 20
-969.1015196213631
  0
LWPOLYLINE
  5
2E6
330
1F
100
AcDbEntity
  8
0_Pen_No__7
  6
Continuous
100
AcDbPolyline
 90
        4
 70
   129
 43
0.0
 10
-1839.821933305074
 20
-919.2917847167763
 10
-1690.392728591314
 20
-932.3651461289248
 10
-1694.750515728696
 20
-982.1748810335116
 10
-1844.179720442458
 20
-969.1015196213631
  0
LWPOLYLINE
  5
2E7
330
1F
100
AcDbEntity
  8
0_Pen_No__7
  6
Continuous
100
AcDbPolyline
 90
        4
 70
   129
 43
0.0
 10
-1539.821933305075
 20
-919.2917847167763
 10
-1390.392728591313
 20
-932.3651461289248
 10
-1394.750515728697
 20
-982.1748810335116
 10
-1544.179720442459
 20
-969.1015196213631
  0
LWPOLYLINE
  5
2E8
330
1F
100
AcDbEntity
  8
0_Pen_No__7
  6
Continuous
100
AcDbPolyline
 90
        4
 70
   129
 43
0.0
 10
-1237.321933305104
 20
-919.2917847167763
 10
-1087.892728591342
 20
-932.3651461289248
 10
-1092.250515728725
 20
-982.1748810335116
 10
-1241.679720442487
 20
-969.1015196213631
  0
LWPOLYLINE
  5
2E9
330
1F
100
AcDbEntity
  8
0_Pen_No__7
  6
Continuous
100
AcDbPolyline
 90
        4
 70
   129
 43
0.0
 10
-937.3219333051045
 20
-919.2917847167763
 10
-787.8927285913425
 20
-932.3651461289248
 10
-792.250515728726
 20
-982.1748810335116
 10
-941.6797204424862
 20
-969.1015196213631
  0
LWPOLYLINE
  5
2EA
330
1F
100
AcDbEntity
  8
0_Pen_No__7
  6
Continuous
100
AcDbPolyline
 90
        4
 70
   129
 43
0.0
 10
-637.3219333051038
 20
-919.2917847167763
 10
-487.8927285913418
 20
-932.3651461289248
 10
-492.2505157287252
 20
-982.1748810335116
 10
-641.6797204424872
 20
-969.1015196213631
  0
LWPOLYLINE
  5
2EB
330
1F
100
AcDbEntity
  8
0_Pen_No__7
  6
Continuous
100
AcDbPolyline
 90
        4
 70
   129
 43
0.0
 10
862.6780666948962
 20
-919.2917847167763
 10
1012.107271408658
 20
-932.3651461289248
 10
1007.749484271275
 20
-982.1748810335116
 10
858.3202795575128
 20
-969.1015196213631
  0
LWPOLYLINE
  5
2EC
330
1F
100
AcDbEntity
  8
0_Pen_No__7
  6
Continuous
100
AcDbPolyline
 90
        4
 70
   129
 43
0.0
 10
1162.678066694897
 20
-919.2917847167763
 10
1312.107271408657
 20
-932.3651461289248
 10
1307.749484271275
 20
-982.1748810335116
 10
1158.320279557513
 20
-969.1015196213631
  0
LWPOLYLINE
  5
2ED
330
1F
100
AcDbEntity
  8
0_Pen_No__7
  6
Continuous
100
AcDbPolyline
 90
        4
 70
   129
 43
0.0
 10
1462.678066694896
 20
-919.2917847167763
 10
1612.107271408658
 20
-932.3651461289248
 10
1607.749484271274
 20
-982.1748810335116
 10
1458.320279557512
 20
-969.1015196213631
  0
LWPOLYLINE
  5
2EE
330
1F
100
AcDbEntity
  8
0_Pen_No__7
  6
Continuous
100
AcDbPolyline
 90
        4
 70
   129
 43
0.0
 10
1855.438043213827
 20
-919.2917847167763
 10
2004.867247927589
 20
-932.3651461289248
 10
2000.509460790206
 20
-982.1748810335116
 10
1851.080256076444
 20
-969.1015196213631
  0
LWPOLYLINE
  5
2EF
330
1F
100
AcDbEntity
  8
0_Pen_No__7
  6
Continuous
100
AcDbPolyline
 90
        4
 70
   129
 43
0.0
 10
2851.635466442333
 20
-919.2917847167763
 10
3001.064671156095
 20
-932.3651461289248
 10
2996.706884018713
 20
-982.1748810335116
 10
2847.277679304951
 20
-969.1015196213631
  0
LWPOLYLINE
  5
2F0
330
1F
100
AcDbEntity
  8
0_Pen_No__7
  6
Continuous
100
AcDbPolyline
 90
        4
 70
   129
 43
0.0
 10
2362.489462960332
 20
-922.285421154478
 10
2477.701246615715
 20
-932.3651461289248
 10
2473.343459478331
 20
-982.1748810335116
 10
2362.489462960332
 20
-972.4764130316448
  0
LWPOLYLINE
  5
2F1
330
1F
100
AcDbEntity
  8
0_Pen_No__7
  6
Continuous
100
AcDbPolyline
 90
        4
 70
   129
 43
0.0
 10
698.418013696728
 20
1299.266667124855
 10
763.4180136967293
 20
1299.266667124855
 10
763.4180136967293
 20
1249.266667124855
 10
698.418013696728
 20
1249.266667124855
  0
LWPOLYLINE
  5
2F2
330
1F
100
AcDbEntity
  8
0_Pen_No__7
  6
Continuous
100
AcDbPolyline
 90
        4
 70
   129
 43
0.0
 10
808.4180136967293
 20
1299.266667124854
 10
1063.418013696728
 20
1299.266667124854
 10
1063.418013696728
 20
1249.266667124855
 10
808.4180136967293
 20
1249.266667124855
  0
LWPOLYLINE
  5
2F3
330
1F
100
AcDbEntity
  8
0_Pen_No__7
  6
Continuous
100
AcDbPolyline
 90
        4
 70
   129
 43
0.0
 10
1108.418013696728
 20
1299.266667124855
 10
1363.418013696729
 20
1299.266667124855
 10
1363.418013696729
 20
1249.266667124855
 10
1108.418013696728
 20
1249.266667124855
  0
LWPOLYLINE
  5
2F4
330
1F
100
AcDbEntity
  8
0_Pen_No__7
  6
Continuous
100
AcDbPolyline
 90
        4
 70
   129
 43
0.0
 10
1408.418013696729
 20
1299.266667124855
 10
1663.41801369673
 20
1299.266667124855
 10
1663.41801369673
 20
1249.266667124855
 10
1408.418013696729
 20
1249.266667124855
  0
LWPOLYLINE
  5
2F5
330
1F
100
AcDbEntity
  8
0_Pen_No__7
  6
Continuous
100
AcDbPolyline
 90
        4
 70
   129
 43
0.0
 10
1708.41801369673
 20
1299.266667124855
 10
1985.918013696729
 20
1299.266667124855
 10
1985.918013696729
 20
1249.266667124855
 10
1708.41801369673
 20
1249.266667124855
  0
LWPOLYLINE
  5
2F6
330
1F
100
AcDbEntity
  8
0_Pen_No__7
  6
Continuous
100
AcDbPolyline
 90
        4
 70
   129
 43
0.0
 10
2362.489462960332
 20
1299.266667124856
 10
2639.989462960332
 20
1299.266667124856
 10
2639.989462960332
 20
1249.266667124855
 10
2362.489462960332
 20
1249.266667124855
  0
LWPOLYLINE
  5
2F7
330
1F
100
AcDbEntity
  8
0_Pen_No__7
  6
Continuous
100
AcDbPolyline
 90
        4
 70
   129
 43
0.0
 10
2684.989462960332
 20
1299.266667124855
 10
3060.852887500713
 20
1299.266667124855
 10
3060.852887500713
 20
1249.266667124855
 10
2684.989462960332
 20
1249.266667124855
  0
LWPOLYLINE
  5
2F8
330
1F
100
AcDbEntity
  8
0_Pen_No__7
  6
Continuous
100
AcDbPolyline
 90
        4
 70
   129
 43
0.0
 10
-1837.643039736384
 20
49.26666712485606
 10
-1688.213835022622
 20
36.19330571270751
 10
-1692.571622160004
 20
-13.61642919188011
 10
-1842.000826873766
 20
-0.5430677797315653
  0
LWPOLYLINE
  5
2F9
330
1F
100
AcDbEntity
  8
0_Pen_No__7
  6
Continuous
100
AcDbPolyline
 90
        4
 70
   129
 43
0.0
 10
-1557.322422679151
 20
49.26666712485606
 10
-1407.893217965389
 20
36.19330571270751
 10
-1412.251005102772
 20
-13.61642919188011
 10
-1561.680209816534
 20
-0.5430677797315653
  0
LWPOLYLINE
  5
2FA
330
1F
100
AcDbEntity
  8
0_Pen_No__7
  6
Continuous
100
AcDbPolyline
 90
        4
 70
   129
 43
0.0
 10
3110.852887500713
 20
1049.266667124855
 10
3160.852887500714
 20
1049.266667124855
 10
3160.852887500714
 20
849.266667124855
 10
3110.852887500713
 20
849.266667124855
  0
LWPOLYLINE
  5
2FB
330
1F
100
AcDbEntity
  8
0_Pen_No__7
  6
Continuous
100
AcDbPolyline
 90
        4
 70
   129
 43
0.0
 10
3110.852887500712
 20
-400.7333328751441
 10
3160.852887500712
 20
-400.7333328751441
 10
3160.852887500712
 20
-600.7333328751442
 10
3110.852887500712
 20
-600.7333328751442
  0
LWPOLYLINE
  5
2FC
330
1F
100
AcDbEntity
  8
0_Pen_No__7
  6
Continuous
100
AcDbPolyline
 90
        4
 70
   129
 43
0.0
 10
3110.852887500713
 20
332.4429524620687
 10
3160.852887500714
 20
332.4429524620687
 10
3160.852887500714
 20
132.4429524620685
 10
3110.852887500713
 20
132.4429524620685
  0
LWPOLYLINE
  5
2FD
330
1F
100
AcDbEntity
  8
chh-09_Pen_No__9_Pen_No__2
  6
Continuous
100
AcDbPolyline
 90
        2
 70
   128
 43
0.0
 10
3527.015711045475
 20
-1291.57245583299
 10
3297.690022121816
 20
-1291.57245583299
  0
LWPOLYLINE
  5
2FE
330
1F
100
AcDbEntity
  8
chh-09_Pen_No__9_Pen_No__2
  6
Continuous
100
AcDbPolyline
 90
        2
 70
   128
 43
0.0
 10
3524.515711045476
 20
1278.706756601466
 10
3088.706105408602
 20
1278.706756601466
  0
LWPOLYLINE
  5
2FF
330
1F
100
AcDbEntity
  8
chh-09_Pen_No__9_Pen_No__2
  6
Continuous
100
AcDbPolyline
 90
        2
 70
   128
 43
0.0
 10
-2825.419162758509
 20
-1283.07516566333
 10
-3054.744851682167
 20
-1283.07516566333
  0
LWPOLYLINE
  5
300
330
1F
100
AcDbEntity
  8
chh-09_Pen_No__9_Pen_No__2
  6
Continuous
100
AcDbPolyline
 90
        2
 70
   128
 43
0.0
 10
-389.0819863032883
 20
-1593.888054261502
 10
-389.0819863032883
 20
-1044.733296804555
  0
LWPOLYLINE
  5
301
330
1F
100
AcDbEntity
  8
chh-09_Pen_No__9_Pen_No__2
  6
Continuous
100
AcDbPolyline
 90
        2
 70
   128
 43
0.0
 10
-389.0819863032883
 20
-1593.888054261502
 10
-1665.937010554228
 20
-1593.888054261502
  0
LWPOLYLINE
  5
302
330
1F
100
AcDbEntity
  8
chh-08_Pen_No__8_Pen_No__81
  6
Continuous
100
AcDbPolyline
 90
        6
 70
   128
 43
0.0
 10
1985.918013696729
 20
-1114.946410645955
 10
1985.918013696729
 20
831.1473649855845
 10
1887.781479652356
 20
831.1473649855845
 10
2084.054547741118
 20
896.5717210151638
 10
1985.918013696729
 20
896.5717210151638
 10
1985.918013696729
 20
1736.389807569278
  0
LWPOLYLINE
  5
304
330
1F
100
AcDbEntity
  8
chh-08_Pen_No__8_Pen_No__81
  6
Continuous
100
AcDbPolyline
 90
        6
 70
   128
 43
0.0
 10
2362.489462960332
 20
-1114.946410645955
 10
2362.489462960332
 20
831.1473649855845
 10
2264.352928915959
 20
831.1473649855845
 10
2460.62599700472
 20
896.5717210151638
 10
2362.489462960332
 20
896.5717210151638
 10
2362.489462960332
 20
1736.389807569278
  0
DIMENSION
  5
333
330
1F
100
AcDbEntity
  8
0
  6
Continuous
100
AcDbDimension
  2
*D1
 10
-3114.081986303272
 20
1890.124532164723
 30
0.0
 11
-2816.44148479456
 21
1925.124532164723
 31
0.0
 70
    32
 71
     5
 42
-1.0
  3
GENERATED_STYLE__1
100
AcDbAlignedDimension
 13
-3114.081986303272
 23
1621.266667124856
 33
0.0
 14
-2514.081986303273
 24
1621.266667124856
 34
0.0
100
AcDbRotatedDimension
  0
DIMENSION
  5
344
330
1F
100
AcDbEntity
  8
0
  6
Continuous
100
AcDbDimension
  2
*D3
 10
-3114.081986303272
 20
1890.124532164723
 30
0.0
 11
-2216.441484794559
 21
1925.124532164723
 31
0.0
 70
    32
 71
     5
 42
-1.0
  3
GENERATED_STYLE__1
100
AcDbAlignedDimension
 13
-2514.081986303273
 23
1621.266667124856
 33
0.0
 14
-1914.081986303271
 24
1621.266667124856
 34
0.0
100
AcDbRotatedDimension
  0
DIMENSION
  5
34F
330
1F
100
AcDbEntity
  8
0
  6
Continuous
100
AcDbDimension
  2
*D4
 10
-1914.081986303271
 20
1890.124532164723
 30
0.0
 11
-1616.441484794558
 21
1925.124532164723
 31
0.0
 70
    32
 71
     5
 42
-1.0
  3
GENERATED_STYLE__1
100
AcDbAlignedDimension
 13
-1914.081986303271
 23
1621.266667124856
 33
0.0
 14
-1314.081986303271
 24
1621.266667124856
 34
0.0
100
AcDbRotatedDimension
  0
DIMENSION
  5
35A
330
1F
100
AcDbEntity
  8
0
  6
Continuous
100
AcDbDimension
  2
*D5
 10
-1914.081986303271
 20
1890.124532164723
 30
0.0
 11
-1016.441484794559
 21
1925.124532164723
 31
0.0
 70
    32
 71
     5
 42
-1.0
  3
GENERATED_STYLE__1
100
AcDbAlignedDimension
 13
-1314.081986303271
 23
1621.266667124856
 33
0.0
 14
-714.0819863032716
 24
1621.266667124856
 34
0.0
100
AcDbRotatedDimension
  0
DIMENSION
  5
366
330
1F
100
AcDbEntity
  8
0
  6
Continuous
100
AcDbDimension
  2
*D6
 10
-3483.229823505976
 20
549.2666671248561
 30
0.0
 11
-3518.229823505975
 21
909.4071686335687
 31
0.0
 70
    32
  1
\A1;800
 71
     5
 42
-1.0
  3
GENERATED_STYLE__2
100
AcDbAlignedDimension
 13
-3242.667819673938
 23
549.2666671248561
 33
0.0
 14
-3242.667819673938
 24
1274.266667124856
 34
0.0
 50
90.0
100
AcDbRotatedDimension
  0
DIMENSION
  5
372
330
1F
100
AcDbEntity
  8
0
  6
Continuous
100
AcDbDimension
  2
*D7
 10
-3483.229823505976
 20
-950.7333328751439
 30
0.0
 11
-3518.229823505975
 21
-565.5928313664314
 31
0.0
 70
    32
  1
\A1;800
 71
     5
 42
-1.0
  3
GENERATED_STYLE__2
100
AcDbAlignedDimension
 13
-3242.667819673938
 23
-950.7333328751439
 33
0.0
 14
-3242.667819673938
 24
-175.7333328751445
 34
0.0
 50
90.0
100
AcDbRotatedDimension
  0
DIMENSION
  5
37D
330
1F
100
AcDbEntity
  8
0
  6
Continuous
100
AcDbDimension
  2
*D8
 10
-3483.229823505976
 20
-950.7333328751439
 30
0.0
 11
-3518.229823505975
 21
184.4071686335686
 31
0.0
 70
    32
  1
\A1;800
 71
     5
 42
-1.0
  3
GENERATED_STYLE__2
100
AcDbAlignedDimension
 13
-3242.667819673938
 23
-175.7333328751445
 33
0.0
 14
-3242.667819673938
 24
549.2666671248561
 34
0.0
 50
90.0
100
AcDbRotatedDimension
  0
MTEXT
  5
37E
330
1F
100
AcDbEntity
  8
0_Pen_No__7
  6
Continuous
100
AcDbMText
 10
319.5640361760243
 20
1547.402449602135
 30
0.0
 40
50.0
 41
0.0
 71
     4
 72
     1
  1
{Sheet joint}
  7
GENERATED_STYLE_1
 73
     1
 44
1.0
  0
MTEXT
  5
37F
330
1F
100
AcDbEntity
  8
0_Pen_No__7
  6
Continuous
100
AcDbMText
 10
1361.103549118475
 20
1547.402449602135
 30
0.0
 40
50.0
 41
0.0
 71
     4
 72
     1
  1
{Sheet joint}
  7
GENERATED_STYLE_1
 73
     1
 44
1.0
  0
MTEXT
  5
380
330
1F
100
AcDbEntity
  8
0_Pen_No__7
  6
Continuous
100
AcDbMText
 10
-880.4359638239767
 20
1547.402449602135
 30
0.0
 40
50.0
 41
0.0
 71
     4
 72
     1
  1
{Sheet joint}
  7
GENERATED_STYLE_1
 73
     1
 44
1.0
  0
MTEXT
  5
381
330
1F
100
AcDbEntity
  8
0_Pen_No__7
  6
Continuous
100
AcDbMText
 10
-2080.435963823976
 20
1547.402449602136
 30
0.0
 40
50.0
 41
0.0
 71
     4
 72
     1
  1
{Sheet joint}
  7
GENERATED_STYLE_1
 73
     1
 44
1.0
  0
MTEXT
  5
382
330
1F
100
AcDbEntity
  8
Defpoints_Pen_No__211_Pen_No__115
  6
Continuous
100
AcDbMText
 10
-3497.852245636137
 20
-2402.954754641049
 30
0.0
 40
62.49999999999999
 41
0.0
 71
     1
 72
     1
  1
{SC002 Shadowclad Framing Layout with Cavity Battens}
  7
GENERATED_STYLE_1
 73
     1
 44
1.0
  0
MTEXT
  5
385
330
1F
100
AcDbEntity
  8
chh-txt_Pen_No__7_Pen_No__7
  6
Continuous
100
AcDbMText
 10
3584.234674425123
 20
-1306.186961296098
 30
0.0
 40
50.0
 41
0.0
 71
     7
 72
     1
  1
{External corner}
  7
GENERATED_STYLE_2
 73
     1
 44
1.0
  0
MTEXT
  5
387
330
1F
100
AcDbEntity
  8
chh-06_Pen_No__7_Pen_No__7
  6
Continuous
100
AcDbMText
 10
-19.46470289340974
 20
563.6459754984201
 30
0.0
 40
50.0
 41
0.0
 71
     4
 72
     1
  1
{Door}
  7
GENERATED_STYLE_1
 73
     1
 44
1.0
  0
MTEXT
  5
389
330
1F
100
AcDbEntity
  8
chh-06_Pen_No__7_Pen_No__7
  6
Continuous
100
AcDbMText
 10
-2013.778548600923
 20
568.9651534304678
 30
0.0
 40
50.0
 41
0.0
 71
     4
 72
     1
  1
{Window}
  7
GENERATED_STYLE_1
 73
     1
 44
1.0
  0
MTEXT
  5
38A
330
1F
100
AcDbEntity
  8
chh-06_Pen_No__7_Pen_No__7
  6
Continuous
100
AcDbMText
 10
3579.634674425123
 20
1216.175412660608
 30
0.0
 40
50.0
 41
0.0
 71
     7
 72
     1
  1
{Soffit Line}
  7
GENERATED_STYLE_2
 73
     1
 44
1.0
  0
MTEXT
  5
38B
330
1F
100
AcDbEntity
  8
chh-txt_Pen_No__7_Pen_No__7
  6
Continuous
100
AcDbMText
 10
-2312.857415209171
 20
2095.525014617812
 30
0.0
 40
50.0
 41
0.0
 71
     7
 72
     1
  1
{Framing Centres}
  7
GENERATED_STYLE_2
 73
     1
 44
1.0
  0
MTEXT
  5
38C
330
1F
100
AcDbEntity
  8
chh-txt_Pen_No__7_Pen_No__7
  6
Continuous
100
AcDbMText
 10
-3688.062953506612
 20
-501.5784147409868
 30
0.0
 40
50.0
 41
0.0
 71
     7
 72
     1
  1
{Maximum nog spacing}
  7
GENERATED_STYLE_2
 11
6.123233995736766E-17
 21
1.0
 31
0.0
 73
     1
 44
1.0
  0
MTEXT
  5
38D
330
1F
100
AcDbEntity
  8
chh-txt_Pen_No__7_Pen_No__7
  6
Continuous
100
AcDbMText
 10
-2784.549731784693
 20
-1297.689671126439
 30
0.0
 40
50.0
 41
0.0
 71
     7
 72
     1
  1
{Internal corner}
  7
GENERATED_STYLE_2
 73
     1
 44
1.0
  0
MTEXT
  5
38E
330
1F
100
AcDbEntity
  8
chh-txt_Pen_No__7_Pen_No__7
  6
Continuous
100
AcDbMText
 10
-2784.549731784693
 20
-1737.346748217338
 30
0.0
 40
50.0
 41
1026.778892675213
 71
     7
 72
     1
  1
{Batten fixing - 40 x 2.5mm flat head nails @ max 800mm ctrs}
  7
GENERATED_STYLE_2
 73
     1
 44
0.9211290250547098
  0
ENDSEC
  0
SECTION
  2
OBJECTS
  0
DICTIONARY
  5
C
330
0
100
AcDbDictionary
281
     1
  3
ACAD_GROUP
350
D
  3
ACAD_LAYOUT
350
1A
  3
ACAD_MLEADERSTYLE
350
397
  3
ACAD_MLINESTYLE
350
17
  3
ACAD_PLOTSETTINGS
350
19
  3
ACAD_PLOTSTYLENAME
350
E
  3
ACAD_SCALELIST
350
311
  3
ACAD_TABLESTYLE
350
396
  3
ACAD_VISUALSTYLE
350
2A
  3
AcDbVariableDictionary
350
394
  3
WATERMARKS
350
392
  0
DICTIONARY
  5
D
102
{ACAD_REACTORS
330
C
102
}
330
C
100
AcDbDictionary
281
     1
  0
DICTIONARY
  5
1A
102
{ACAD_REACTORS
330
C
102
}
330
C
100
AcDbDictionary
281
     1
  3
Layout1
350
1E
  3
Layout2
350
26
  3
Model
350
22
  0
DICTIONARY
  5
397
102
{ACAD_REACTORS
330
C
102
}
330
C
100
AcDbDictionary
281
     1
  0
DICTIONARY
  5
17
102
{ACAD_REACTORS
330
C
102
}
330
C
100
AcDbDictionary
281
     1
  3
Standard
350
18
  0
DICTIONARY
  5
19
102
{ACAD_REACTORS
330
C
102
}
330
C
100
AcDbDictionary
281
     1
  0
ACDBDICTIONARYWDFLT
  5
E
102
{ACAD_REACTORS
330
C
102
}
330
C
100
AcDbDictionary
281
     1
  3
Normal
350
F
100
AcDbDictionaryWithDefault
340
F
  0
DICTIONARY
  5
311
102
{ACAD_REACTORS
330
C
102
}
330
C
100
AcDbDictionary
281
     1
  3
A0
350
312
  3
A1
350
313
  3
A2
350
314
  3
A3
350
315
  3
A4
350
316
  3
A5
350
317
  3
A6
350
318
  3
A7
350
319
  3
A8
350
31A
  3
A9
350
31B
  3
B0
350
31C
  3
B1
350
31D
  3
B2
350
31E
  3
B3
350
31F
  3
B4
350
320
  3
B5
350
321
  3
B6
350
322
  3
B7
350
323
  3
B8
350
324
  3
B9
350
325
  3
C0
350
326
  3
C1
350
327
  3
C2
350
328
  3
C3
350
329
  3
C4
350
32A
  3
C5
350
32B
  3
C6
350
32C
  3
C7
350
32D
  3
C8
350
32E
  3
C9
350
32F
  3
D0
350
330
  3
D1
350
331
  3
D2
350
332
  0
DICTIONARY
  5
396
102
{ACAD_REACTORS
330
C
102
}
330
C
100
AcDbDictionary
281
     1
  0
DICTIONARY
  5
2A
102
{ACAD_REACTORS
330
C
102
}
330
C
100
AcDbDictionary
281
     1
  3
2dWireframe
350
2F
  3
3D Hidden
350
31
  3
3dWireframe
350
30
  3
Basic
350
32
  3
Brighten
350
36
  3
ColorChange
350
3A
  3
Conceptual
350
34
  3
Dim
350
35
  3
Facepattern
350
39
  3
Flat
350
2B
  3
FlatWithEdges
350
2C
  3
Gouraud
350
2D
  3
GouraudWithEdges
350
2E
  3
Linepattern
350
38
  3
Realistic
350
33
  3
Thicken
350
37
  0
DICTIONARY
  5
394
102
{ACAD_REACTORS
330
C
102
}
330
C
100
AcDbDictionary
281
     1
  3
CANNOSCALE
350
395
  0
DICTIONARY
  5
392
102
{ACAD_REACTORS
330
C
102
}
330
C
100
AcDbDictionary
281
     1
  3
AC_WATERMARK
350
393
  0
LAYOUT
  5
1E
102
{ACAD_REACTORS
330
1A
102
}
330
1A
100
AcDbPlotSettings
  1

  2
none_device
  4

  6

 40
0.0
 41
0.0
 42
0.0
 43
0.0
 44
0.0
 45
0.0
 46
0.0
 47
0.0
 48
0.0
 49
0.0
140
0.0
141
0.0
142
1.0
143
1.0
 70
   688
 72
     0
 73
     0
 74
     5
  7

 75
    16
 76
     0
 77
     2
 78
   300
147
1.0
148
0.0
149
0.0
100
AcDbLayout
  1
Layout1
 70
     1
 71
     1
 10
0.0
 20
0.0
 11
12.0
 21
9.0
 12
0.0
 22
0.0
 32
0.0
 14
1.000000000000000E+20
 24
1.000000000000000E+20
 34
1.000000000000000E+20
 15
-1.000000000000000E+20
 25
-1.000000000000000E+20
 35
-1.000000000000000E+20
146
0.0
 13
0.0
 23
0.0
 33
0.0
 16
1.0
 26
0.0
 36
0.0
 17
0.0
 27
1.0
 37
0.0
 76
     0
330
1B
  0
LAYOUT
  5
26
102
{ACAD_REACTORS
330
1A
102
}
330
1A
100
AcDbPlotSettings
  1

  2
none_device
  4

  6

 40
0.0
 41
0.0
 42
0.0
 43
0.0
 44
0.0
 45
0.0
 46
0.0
 47
0.0
 48
0.0
 49
0.0
140
0.0
141
0.0
142
1.0
143
1.0
 70
   688
 72
     0
 73
     0
 74
     5
  7

 75
    16
 76
     0
 77
     2
 78
   300
147
1.0
148
0.0
149
0.0
100
AcDbLayout
  1
Layout2
 70
     1
 71
     2
 10
0.0
 20
0.0
 11
0.0
 21
0.0
 12
0.0
 22
0.0
 32
0.0
 14
0.0
 24
0.0
 34
0.0
 15
0.0
 25
0.0
 35
0.0
146
0.0
 13
0.0
 23
0.0
 33
0.0
 16
1.0
 26
0.0
 36
0.0
 17
0.0
 27
1.0
 37
0.0
 76
     0
330
23
  0
LAYOUT
  5
22
102
{ACAD_REACTORS
330
1A
102
}
330
1A
100
AcDbPlotSettings
  1

  2
none_device
  4

  6

 40
0.0
 41
0.0
 42
0.0
 43
0.0
 44
0.0
 45
0.0
 46
0.0
 47
0.0
 48
0.0
 49
0.0
140
0.0
141
0.0
142
1.0
143
1.0
 70
  1712
 72
     0
 73
     0
 74
     0
  7

 75
     0
 76
     0
 77
     2
 78
   300
147
1.0
148
0.0
149
0.0
100
AcDbLayout
  1
Model
 70
     1
 71
     0
 10
0.0
 20
0.0
 11
12.0
 21
9.0
 12
0.0
 22
0.0
 32
0.0
 14
1.000000000000000E+20
 24
1.000000000000000E+20
 34
1.000000000000000E+20
 15
-1.000000000000000E+20
 25
-1.000000000000000E+20
 35
-1.000000000000000E+20
146
0.0
 13
0.0
 23
0.0
 33
0.0
 16
1.0
 26
0.0
 36
0.0
 17
0.0
 27
1.0
 37
0.0
 76
     0
330
1F
331
29
  0
MLINESTYLE
  5
18
102
{ACAD_REACTORS
330
17
102
}
330
17
100
AcDbMlineStyle
  2
Standard
 70
     0
  3

 62
   256
 51
90.0
 52
90.0
 71
     2
 49
0.5
 62
   256
  6
BYLAYER
 49
-0.5
 62
   256
  6
BYLAYER
  0
ACDBPLACEHOLDER
  5
F
102
{ACAD_REACTORS
330
E
102
}
330
E
  0
SCALE
  5
312
102
{ACAD_REACTORS
330
311
102
}
330
311
100
AcDbScale
 70
     0
300
1:1
140
1.0
141
1.0
290
     1
  0
SCALE
  5
313
102
{ACAD_REACTORS
330
311
102
}
330
311
100
AcDbScale
 70
     0
300
1:2
140
1.0
141
2.0
290
     0
  0
SCALE
  5
314
102
{ACAD_REACTORS
330
311
102
}
330
311
100
AcDbScale
 70
     0
300
1:4
140
1.0
141
4.0
290
     0
  0
SCALE
  5
315
102
{ACAD_REACTORS
330
311
102
}
330
311
100
AcDbScale
 70
     0
300
1:5
140
1.0
141
5.0
290
     0
  0
SCALE
  5
316
102
{ACAD_REACTORS
330
311
102
}
330
311
100
AcDbScale
 70
     0
300
1:8
140
1.0
141
8.0
290
     0
  0
SCALE
  5
317
102
{ACAD_REACTORS
330
311
102
}
330
311
100
AcDbScale
 70
     0
300
1:10
140
1.0
141
10.0
290
     0
  0
SCALE
  5
318
102
{ACAD_REACTORS
330
311
102
}
330
311
100
AcDbScale
 70
     0
300
1:16
140
1.0
141
16.0
290
     0
  0
SCALE
  5
319
102
{ACAD_REACTORS
330
311
102
}
330
311
100
AcDbScale
 70
     0
300
1:20
140
1.0
141
20.0
290
     0
  0
SCALE
  5
31A
102
{ACAD_REACTORS
330
311
102
}
330
311
100
AcDbScale
 70
     0
300
1:30
140
1.0
141
30.0
290
     0
  0
SCALE
  5
31B
102
{ACAD_REACTORS
330
311
102
}
330
311
100
AcDbScale
 70
     0
300
1:40
140
1.0
141
40.0
290
     0
  0
SCALE
  5
31C
102
{ACAD_REACTORS
330
311
102
}
330
311
100
AcDbScale
 70
     0
300
1:50
140
1.0
141
50.0
290
     0
  0
SCALE
  5
31D
102
{ACAD_REACTORS
330
311
102
}
330
311
100
AcDbScale
 70
     0
300
1:100
140
1.0
141
100.0
290
     0
  0
SCALE
  5
31E
102
{ACAD_REACTORS
330
311
102
}
330
311
100
AcDbScale
 70
     0
300
2:1
140
2.0
141
1.0
290
     0
  0
SCALE
  5
31F
102
{ACAD_REACTORS
330
311
102
}
330
311
100
AcDbScale
 70
     0
300
4:1
140
4.0
141
1.0
290
     0
  0
SCALE
  5
320
102
{ACAD_REACTORS
330
311
102
}
330
311
100
AcDbScale
 70
     0
300
8:1
140
8.0
141
1.0
290
     0
  0
SCALE
  5
321
102
{ACAD_REACTORS
330
311
102
}
330
311
100
AcDbScale
 70
     0
300
10:1
140
10.0
141
1.0
290
     0
  0
SCALE
  5
322
102
{ACAD_REACTORS
330
311
102
}
330
311
100
AcDbScale
 70
     0
300
100:1
140
100.0
141
1.0
290
     0
  0
SCALE
  5
323
102
{ACAD_REACTORS
330
311
102
}
330
311
100
AcDbScale
 70
     0
300
1/128" = 1'-0"
140
0.0078125
141
12.0
290
     0
  0
SCALE
  5
324
102
{ACAD_REACTORS
330
311
102
}
330
311
100
AcDbScale
 70
     0
300
1/64" = 1'-0"
140
0.015625
141
12.0
290
     0
  0
SCALE
  5
325
102
{ACAD_REACTORS
330
311
102
}
330
311
100
AcDbScale
 70
     0
300
1/32" = 1'-0"
140
0.03125
141
12.0
290
     0
  0
SCALE
  5
326
102
{ACAD_REACTORS
330
311
102
}
330
311
100
AcDbScale
 70
     0
300
1/16" = 1'-0"
140
0.0625
141
12.0
290
     0
  0
SCALE
  5
327
102
{ACAD_REACTORS
330
311
102
}
330
311
100
AcDbScale
 70
     0
300
3/32" = 1'-0"
140
0.09375
141
12.0
290
     0
  0
SCALE
  5
328
102
{ACAD_REACTORS
330
311
102
}
330
311
100
AcDbScale
 70
     0
300
1/8" = 1'-0"
140
0.125
141
12.0
290
     0
  0
SCALE
  5
329
102
{ACAD_REACTORS
330
311
102
}
330
311
100
AcDbScale
 70
     0
300
3/16" = 1'-0"
140
0.1875
141
12.0
290
     0
  0
SCALE
  5
32A
102
{ACAD_REACTORS
330
311
102
}
330
311
100
AcDbScale
 70
     0
300
1/4" = 1'-0"
140
0.25
141
12.0
290
     0
  0
SCALE
  5
32B
102
{ACAD_REACTORS
330
311
102
}
330
311
100
AcDbScale
 70
     0
300
3/8" = 1'-0"
140
0.375
141
12.0
290
     0
  0
SCALE
  5
32C
102
{ACAD_REACTORS
330
311
102
}
330
311
100
AcDbScale
 70
     0
300
1/2" = 1'-0"
140
0.5
141
12.0
290
     0
  0
SCALE
  5
32D
102
{ACAD_REACTORS
330
311
102
}
330
311
100
AcDbScale
 70
     0
300
3/4" = 1'-0"
140
0.75
141
12.0
290
     0
  0
SCALE
  5
32E
102
{ACAD_REACTORS
330
311
102
}
330
311
100
AcDbScale
 70
     0
300
1" = 1'-0"
140
1.0
141
12.0
290
     0
  0
SCALE
  5
32F
102
{ACAD_REACTORS
330
311
102
}
330
311
100
AcDbScale
 70
     0
300
1-1/2" = 1'-0"
140
1.5
141
12.0
290
     0
  0
SCALE
  5
330
102
{ACAD_REACTORS
330
311
102
}
330
311
100
AcDbScale
 70
     0
300
3" = 1'-0"
140
3.0
141
12.0
290
     0
  0
SCALE
  5
331
102
{ACAD_REACTORS
330
311
102
}
330
311
100
AcDbScale
 70
     0
300
6" = 1'-0"
140
6.0
141
12.0
290
     0
  0
SCALE
  5
332
102
{ACAD_REACTORS
330
311
102
}
330
311
100
AcDbScale
 70
     0
300
1'-0" = 1'-0"
140
12.0
141
12.0
290
     0
  0
VISUALSTYLE
  5
2F
102
{ACAD_REACTORS
330
2A
102
}
330
2A
100
AcDbVisualStyle
  2
2dWireframe
 70
     4
 71
     0
 72
     2
 73
     0
 90
        0
 40
-0.6
 41
-30.0
 62
     5
 63
     7
421
 16777215
 74
     1
 91
        4
 64
     7
 65
   257
 75
     1
175
     1
 42
1.0
 92
        0
 66
   257
 43
1.0
 76
     1
 77
     6
 78
     2
 67
     7
 79
     5
170
     0
171
     0
290
     0
174
     0
 93
        1
 44
0.0
173
     0
291
     0
 45
0.0
1001
ACAD
1000
AcDbSavedByObjectVersion
1070
     0
  0
VISUALSTYLE
  5
31
102
{ACAD_REACTORS
330
2A
102
}
330
2A
100
AcDbVisualStyle
  2
3D Hidden
 70
     6
 71
     1
 72
     2
 73
     2
 90
        0
 40
-0.6
 41
-30.0
 62
     5
 63
     7
421
 16777215
 74
     2
 91
        2
 64
     7
 65
   257
 75
     2
175
     1
 42
40.0
 92
        0
 66
   257
 43
1.0
 76
     1
 77
     6
 78
     2
 67
     7
 79
     3
170
     0
171
     0
290
     0
174
     0
 93
        1
 44
0.0
173
     0
291
     0
 45
0.0
1001
ACAD
1000
AcDbSavedByObjectVersion
1070
     0
  0
VISUALSTYLE
  5
30
102
{ACAD_REACTORS
330
2A
102
}
330
2A
100
AcDbVisualStyle
  2
3dWireframe
 70
     5
 71
     0
 72
     2
 73
     0
 90
        0
 40
-0.6
 41
-30.0
 62
     5
 63
     7
421
 16777215
 74
     1
 91
        4
 64
     7
 65
   257
 75
     1
175
     1
 42
1.0
 92
        0
 66
   257
 43
1.0
 76
     1
 77
     6
 78
     2
 67
     7
 79
     5
170
     0
171
     0
290
     0
174
     0
 93
        1
 44
0.0
173
     0
291
     0
 45
0.0
1001
ACAD
1000
AcDbSavedByObjectVersion
1070
     0
  0
VISUALSTYLE
  5
32
102
{ACAD_REACTORS
330
2A
102
}
330
2A
100
AcDbVisualStyle
  2
Basic
 70
     7
 71
     1
 72
     0
 73
     1
 90
        0
 40
-0.6
 41
-30.0
 62
     5
 63
     7
421
 16777215
 74
     0
 91
        4
 64
     7
 65
   257
 75
     1
175
     1
 42
1.0
 92
        8
 66
     7
 43
1.0
 76
     1
 77
     6
 78
     2
 67
     7
 79
     5
170
     0
171
     0
290
     0
174
     0
 93
        1
 44
0.0
173
     0
291
     1
 45
0.0
1001
ACAD
1000
AcDbSavedByObjectVersion
1070
     0
  0
VISUALSTYLE
  5
36
102
{ACAD_REACTORS
330
2A
102
}
330
2A
100
AcDbVisualStyle
  2
Brighten
 70
    12
 71
     2
 72
     2
 73
     0
 90
        0
 40
-0.6
 41
-30.0
 62
     5
 63
     7
421
 16777215
 74
     1
 91
        4
 64
     7
 65
   257
 75
     1
175
     1
 42
1.0
 92
        8
 66
     7
 43
1.0
 76
     1
 77
     6
 78
     2
 67
     7
 79
     5
170
     0
171
     0
290
     0
174
     0
 93
        1
 44
50.0
173
     0
291
     1
 45
0.0
1001
ACAD
1000
AcDbSavedByObjectVersion
1070
     0
  0
VISUALSTYLE
  5
3A
102
{ACAD_REACTORS
330
2A
102
}
330
2A
100
AcDbVisualStyle
  2
ColorChange
 70
    16
 71
     2
 72
     2
 73
     3
 90
        0
 40
-0.6
 41
-30.0
 62
     5
 63
     8
421
  8421504
 74
     1
 91
        4
 64
     7
 65
   257
 75
     1
175
     1
 42
1.0
 92
        8
 66
     8
424
  8421504
 43
1.0
 76
     1
 77
     6
 78
     2
 67
     7
 79
     5
170
     0
171
     0
290
     0
174
     0
 93
        1
 44
0.0
173
     0
291
     1
 45
0.0
1001
ACAD
1000
AcDbSavedByObjectVersion
1070
     0
  0
VISUALSTYLE
  5
34
102
{ACAD_REACTORS
330
2A
102
}
330
2A
100
AcDbVisualStyle
  2
Conceptual
 70
     9
 71
     3
 72
     2
 73
     0
 90
        0
 40
-0.6
 41
-30.0
 62
     5
 63
     7
421
 16777215
 74
     2
 91
        2
 64
     7
 65
   257
 75
     1
175
     1
 42
40.0
 92
        8
 66
     7
 43
1.0
 76
     1
 77
     6
 78
     2
 67
     7
 79
     3
170
     0
171
     0
290
     0
174
     0
 93
        1
 44
0.0
173
     0
291
     0
 45
0.0
1001
ACAD
1000
AcDbSavedByObjectVersion
1070
     0
  0
VISUALSTYLE
  5
35
102
{ACAD_REACTORS
330
2A
102
}
330
2A
100
AcDbVisualStyle
  2
Dim
 70
    11
 71
     2
 72
     2
 73
     0
 90
        0
 40
-0.6
 41
-30.0
 62
     5
 63
     7
421
 16777215
 74
     1
 91
        4
 64
     7
 65
   257
 75
     1
175
     1
 42
1.0
 92
        8
 66
     7
 43
1.0
 76
     1
 77
     6
 78
     2
 67
     7
 79
     5
170
     0
171
     0
290
     0
174
     0
 93
        1
 44
-50.0
173
     0
291
     1
 45
0.0
1001
ACAD
1000
AcDbSavedByObjectVersion
1070
     0
  0
VISUALSTYLE
  5
39
102
{ACAD_REACTORS
330
2A
102
}
330
2A
100
AcDbVisualStyle
  2
Facepattern
 70
    15
 71
     2
 72
     2
 73
     0
 90
        0
 40
-0.6
 41
-30.0
 62
     5
 63
     7
421
 16777215
 74
     1
 91
        4
 64
     7
 65
   257
 75
     1
175
     1
 42
1.0
 92
        8
 66
     7
 43
1.0
 76
     1
 77
     6
 78
     2
 67
     7
 79
     5
170
     0
171
     0
290
     0
174
     0
 93
        1
 44
0.0
173
     0
291
     1
 45
0.0
1001
ACAD
1000
AcDbSavedByObjectVersion
1070
     0
  0
VISUALSTYLE
  5
2B
102
{ACAD_REACTORS
330
2A
102
}
330
2A
100
AcDbVisualStyle
  2
Flat
 70
     0
 71
     2
 72
     1
 73
     1
 90
        2
 40
-0.6
 41
30.0
 62
     5
 63
     7
421
 16777215
 74
     0
 91
        4
 64
     7
 65
   257
 75
     1
175
     1
 42
1.0
 92
        8
 66
     7
 43
1.0
 76
     1
 77
     6
 78
     2
 67
     7
 79
     5
170
     0
171
     0
290
     0
174
     0
 93
       13
 44
0.0
173
     0
291
     1
 45
0.0
1001
ACAD
1000
AcDbSavedByObjectVersion
1070
     0
  0
VISUALSTYLE
  5
2C
102
{ACAD_REACTORS
330
2A
102
}
330
2A
100
AcDbVisualStyle
  2
FlatWithEdges
 70
     1
 71
     2
 72
     1
 73
     1
 90
        2
 40
-0.6
 41
30.0
 62
     5
 63
     7
421
 16777215
 74
     1
 91
        4
 64
     7
 65
   257
 75
     1
175
     1
 42
1.0
 92
        0
 66
   257
 43
1.0
 76
     1
 77
     6
 78
     2
 67
     7
 79
     5
170
     0
171
     0
290
     0
174
     0
 93
       13
 44
0.0
173
     0
291
     1
 45
0.0
1001
ACAD
1000
AcDbSavedByObjectVersion
1070
     0
  0
VISUALSTYLE
  5
2D
102
{ACAD_REACTORS
330
2A
102
}
330
2A
100
AcDbVisualStyle
  2
Gouraud
 70
     2
 71
     2
 72
     2
 73
     1
 90
        2
 40
-0.6
 41
30.0
 62
     5
 63
     7
421
 16777215
 74
     0
 91
        4
 64
     7
 65
   257
 75
     1
175
     1
 42
1.0
 92
        0
 66
     7
 43
1.0
 76
     1
 77
     6
 78
     2
 67
     7
 79
     5
170
     0
171
     0
290
     0
174
     0
 93
       13
 44
0.0
173
     0
291
     1
 45
0.0
1001
ACAD
1000
AcDbSavedByObjectVersion
1070
     0
  0
VISUALSTYLE
  5
2E
102
{ACAD_REACTORS
330
2A
102
}
330
2A
100
AcDbVisualStyle
  2
GouraudWithEdges
 70
     3
 71
     2
 72
     2
 73
     1
 90
        2
 40
-0.6
 41
30.0
 62
     5
 63
     7
421
 16777215
 74
     1
 91
        4
 64
     7
 65
   257
 75
     1
175
     1
 42
1.0
 92
        0
 66
   257
 43
1.0
 76
     1
 77
     6
 78
     2
 67
     7
 79
     5
170
     0
171
     0
290
     0
174
     0
 93
       13
 44
0.0
173
     0
291
     1
 45
0.0
1001
ACAD
1000
AcDbSavedByObjectVersion
1070
     0
  0
VISUALSTYLE
  5
38
102
{ACAD_REACTORS
330
2A
102
}
330
2A
100
AcDbVisualStyle
  2
Linepattern
 70
    14
 71
     2
 72
     2
 73
     0
 90
        0
 40
-0.6
 41
-30.0
 62
     5
 63
     7
421
 16777215
 74
     1
 91
        4
 64
     7
 65
   257
 75
     7
175
     7
 42
1.0
 92
        8
 66
     7
 43
1.0
 76
     1
 77
     6
 78
     2
 67
     7
 79
     5
170
     0
171
     0
290
     0
174
     0
 93
        1
 44
0.0
173
     0
291
     1
 45
0.0
1001
ACAD
1000
AcDbSavedByObjectVersion
1070
     0
  0
VISUALSTYLE
  5
33
102
{ACAD_REACTORS
330
2A
102
}
330
2A
100
AcDbVisualStyle
  2
Realistic
 70
     8
 71
     2
 72
     2
 73
     0
 90
        0
 40
-0.6
 41
-30.0
 62
     5
 63
     7
421
 16777215
 74
     1
 91
        0
 64
     7
 65
   257
 75
     1
175
     1
 42
1.0
 92
        8
 66
     8
424
  7895160
 43
1.0
 76
     1
 77
     6
 78
     2
 67
     7
 79
     5
170
     0
171
     0
290
     0
174
     0
 93
       13
 44
0.0
173
     0
291
     0
 45
0.0
1001
ACAD
1000
AcDbSavedByObjectVersion
1070
     0
  0
VISUALSTYLE
  5
37
102
{ACAD_REACTORS
330
2A
102
}
330
2A
100
AcDbVisualStyle
  2
Thicken
 70
    13
 71
     2
 72
     2
 73
     0
 90
        0
 40
-0.6
 41
-30.0
 62
     5
 63
     7
421
 16777215
 74
     1
 91
        4
 64
     7
 65
   257
 75
     1
175
     1
 42
1.0
 92
       12
 66
     7
 43
1.0
 76
     1
 77
     6
 78
     2
 67
     7
 79
     5
170
     0
171
     0
290
     0
174
     0
 93
        1
 44
0.0
173
     0
291
     1
 45
0.0
1001
ACAD
1000
AcDbSavedByObjectVersion
1070
     0
  0
DICTIONARYVAR
  5
395
102
{ACAD_REACTORS
330
394
102
}
330
394
100
DictionaryVariables
280
     0
  1
1:1
  0
XRECORD
  5
393
102
{ACAD_REACTORS
330
392
102
}
330
392
100
AcDbXrecord
280
     1
1000
This DWG file was created in ArchiCAD(TM)®
  0
ENDSEC
  0
EOF
