  0
SECTION
  2
HEADER
  9
$ACADVER
  1
AC1018
  9
$ACADMAINTVER
 70
     0
  9
$DWGCODEPAGE
  3
ANSI_1252
  9
$INSBASE
 10
0.0
 20
0.0
 30
0.0
  9
$EXTMIN
 10
1.000000000000000E+20
 20
1.000000000000000E+20
 30
1.000000000000000E+20
  9
$EXTMAX
 10
-1.000000000000000E+20
 20
-1.000000000000000E+20
 30
-1.000000000000000E+20
  9
$LIMMIN
 10
0.0
 20
0.0
  9
$LIMMAX
 10
12.0
 20
9.0
  9
$ORTHOMODE
 70
     0
  9
$REGENMODE
 70
     1
  9
$FILLMODE
 70
     1
  9
$QTEXTMODE
 70
     0
  9
$MIRRTEXT
 70
     1
  9
$LTSCALE
 40
1.0
  9
$ATTMODE
 70
     1
  9
$TEXTSIZE
 40
0.2
  9
$TRACEWID
 40
0.05
  9
$TEXTSTYLE
  7
Standard
  9
$CLAYER
  8
0
  9
$CELTYPE
  6
ByLayer
  9
$CECOLOR
 62
   256
  9
$CELTSCALE
 40
1.0
  9
$DISPSILH
 70
     0
  9
$DIMSCALE
 40
1.0
  9
$DIMASZ
 40
0.18
  9
$DIMEXO
 40
0.0625
  9
$DIMDLI
 40
0.38
  9
$DIMRND
 40
0.0
  9
$DIMDLE
 40
0.0
  9
$DIMEXE
 40
0.18
  9
$DIMTP
 40
0.0
  9
$DIMTM
 40
0.0
  9
$DIMTXT
 40
0.18
  9
$DIMCEN
 40
0.09
  9
$DIMTSZ
 40
0.0
  9
$DIMTOL
 70
     0
  9
$DIMLIM
 70
     0
  9
$DIMTIH
 70
     1
  9
$DIMTOH
 70
     1
  9
$DIMSE1
 70
     0
  9
$DIMSE2
 70
     0
  9
$DIMTAD
 70
     0
  9
$DIMZIN
 70
     0
  9
$DIMBLK
  1

  9
$DIMASO
 70
     1
  9
$DIMSHO
 70
     1
  9
$DIMPOST
  1

  9
$DIMAPOST
  1

  9
$DIMALT
 70
     0
  9
$DIMALTD
 70
     2
  9
$DIMALTF
 40
25.4
  9
$DIMLFAC
 40
1.0
  9
$DIMTOFL
 70
     0
  9
$DIMTVP
 40
0.0
  9
$DIMTIX
 70
     0
  9
$DIMSOXD
 70
     0
  9
$DIMSAH
 70
     0
  9
$DIMBLK1
  1

  9
$DIMBLK2
  1

  9
$DIMSTYLE
  2
Standard
  9
$DIMCLRD
 70
     0
  9
$DIMCLRE
 70
     0
  9
$DIMCLRT
 70
     0
  9
$DIMTFAC
 40
1.0
  9
$DIMGAP
 40
0.09
  9
$DIMJUST
 70
     0
  9
$DIMSD1
 70
     0
  9
$DIMSD2
 70
     0
  9
$DIMTOLJ
 70
     1
  9
$DIMTZIN
 70
     0
  9
$DIMALTZ
 70
     0
  9
$DIMALTTZ
 70
     0
  9
$DIMUPT
 70
     0
  9
$DIMDEC
 70
     4
  9
$DIMTDEC
 70
     4
  9
$DIMALTU
 70
     2
  9
$DIMALTTD
 70
     2
  9
$DIMTXSTY
  7
Standard
  9
$DIMAUNIT
 70
     0
  9
$DIMADEC
 70
     0
  9
$DIMALTRND
 40
0.0
  9
$DIMAZIN
 70
     0
  9
$DIMDSEP
 70
    46
  9
$DIMATFIT
 70
     3
  9
$DIMFRAC
 70
     0
  9
$DIMLDRBLK
  1

  9
$DIMLUNIT
 70
     2
  9
$DIMLWD
 70
    -2
  9
$DIMLWE
 70
    -2
  9
$DIMTMOVE
 70
     0
  9
$LUNITS
 70
     2
  9
$LUPREC
 70
     4
  9
$SKETCHINC
 40
0.1
  9
$FILLETRAD
 40
0.5
  9
$AUNITS
 70
     0
  9
$AUPREC
 70
     0
  9
$MENU
  1
.
  9
$ELEVATION
 40
0.0
  9
$PELEVATION
 40
0.0
  9
$THICKNESS
 40
0.0
  9
$LIMCHECK
 70
     0
  9
$CHAMFERA
 40
0.5
  9
$CHAMFERB
 40
0.5
  9
$CHAMFERC
 40
1.0
  9
$CHAMFERD
 40
0.0
  9
$SKPOLY
 70
     0
  9
$TDCREATE
 40
2455966.674147118
  9
$TDUCREATE
 40
2455966.132480451
  9
$TDUPDATE
 40
2455966.67414713
  9
$TDUUPDATE
 40
2455966.132480463
  9
$TDINDWG
 40
0.0000000116
  9
$TDUSRTIMER
 40
0.0000000116
  9
$USRTIMER
 70
     1
  9
$ANGBASE
 50
0.0
  9
$ANGDIR
 70
     0
  9
$PDMODE
 70
     0
  9
$PDSIZE
 40
0.0
  9
$PLINEWID
 40
0.0
  9
$SPLFRAME
 70
     0
  9
$SPLINETYPE
 70
     6
  9
$SPLINESEGS
 70
     8
  9
$HANDSEED
  5
101
  9
$SURFTAB1
 70
     6
  9
$SURFTAB2
 70
     6
  9
$SURFTYPE
 70
     6
  9
$SURFU
 70
     6
  9
$SURFV
 70
     6
  9
$UCSBASE
  2

  9
$UCSNAME
  2

  9
$UCSORG
 10
0.0
 20
0.0
 30
0.0
  9
$UCSXDIR
 10
1.0
 20
0.0
 30
0.0
  9
$UCSYDIR
 10
0.0
 20
1.0
 30
0.0
  9
$UCSORTHOREF
  2

  9
$UCSORTHOVIEW
 70
     0
  9
$UCSORGTOP
 10
0.0
 20
0.0
 30
0.0
  9
$UCSORGBOTTOM
 10
0.0
 20
0.0
 30
0.0
  9
$UCSORGLEFT
 10
0.0
 20
0.0
 30
0.0
  9
$UCSORGRIGHT
 10
0.0
 20
0.0
 30
0.0
  9
$UCSORGFRONT
 10
0.0
 20
0.0
 30
0.0
  9
$UCSORGBACK
 10
0.0
 20
0.0
 30
0.0
  9
$PUCSBASE
  2

  9
$PUCSNAME
  2

  9
$PUCSORG
 10
0.0
 20
0.0
 30
0.0
  9
$PUCSXDIR
 10
1.0
 20
0.0
 30
0.0
  9
$PUCSYDIR
 10
0.0
 20
1.0
 30
0.0
  9
$PUCSORTHOREF
  2

  9
$PUCSORTHOVIEW
 70
     0
  9
$PUCSORGTOP
 10
0.0
 20
0.0
 30
0.0
  9
$PUCSORGBOTTOM
 10
0.0
 20
0.0
 30
0.0
  9
$PUCSORGLEFT
 10
0.0
 20
0.0
 30
0.0
  9
$PUCSORGRIGHT
 10
0.0
 20
0.0
 30
0.0
  9
$PUCSORGFRONT
 10
0.0
 20
0.0
 30
0.0
  9
$PUCSORGBACK
 10
0.0
 20
0.0
 30
0.0
  9
$USERI1
 70
     0
  9
$USERI2
 70
     0
  9
$USERI3
 70
     0
  9
$USERI4
 70
     0
  9
$USERI5
 70
     0
  9
$USERR1
 40
0.0
  9
$USERR2
 40
0.0
  9
$USERR3
 40
0.0
  9
$USERR4
 40
0.0
  9
$USERR5
 40
0.0
  9
$WORLDVIEW
 70
     1
  9
$SHADEDGE
 70
     3
  9
$SHADEDIF
 70
    70
  9
$TILEMODE
 70
     1
  9
$MAXACTVP
 70
    64
  9
$PINSBASE
 10
0.0
 20
0.0
 30
0.0
  9
$PLIMCHECK
 70
     0
  9
$PEXTMIN
 10
1.000000000000000E+20
 20
1.000000000000000E+20
 30
1.000000000000000E+20
  9
$PEXTMAX
 10
-1.000000000000000E+20
 20
-1.000000000000000E+20
 30
-1.000000000000000E+20
  9
$PLIMMIN
 10
0.0
 20
0.0
  9
$PLIMMAX
 10
12.0
 20
9.0
  9
$UNITMODE
 70
     0
  9
$VISRETAIN
 70
     1
  9
$PLINEGEN
 70
     0
  9
$PSLTSCALE
 70
     1
  9
$TREEDEPTH
 70
  3020
  9
$CMLSTYLE
  2
Standard
  9
$CMLJUST
 70
     0
  9
$CMLSCALE
 40
1.0
  9
$PROXYGRAPHICS
 70
     1
  9
$MEASUREMENT
 70
     0
  9
$CELWEIGHT
370
    -1
  9
$ENDCAPS
280
     0
  9
$JOINSTYLE
280
     0
  9
$LWDISPLAY
290
     1
  9
$INSUNITS
 70
     0
  9
$HYPERLINKBASE
  1

  9
$STYLESHEET
  1

  9
$XEDIT
290
     1
  9
$CEPSNTYPE
380
     0
  9
$PSTYLEMODE
290
     1
  9
$FINGERPRINTGUID
  2
{031E76D3-DF44-4DEA-8902-C654236CE795}
  9
$VERSIONGUID
  2
{FAEB1C32-E019-11D5-929B-00C0DF256EC4}
  9
$EXTNAMES
290
     1
  9
$PSVPSCALE
 40
0.0
  9
$OLESTARTUP
290
     0
  9
$SORTENTS
280
   127
  9
$INDEXCTL
280
     0
  9
$HIDETEXT
280
     1
  9
$XCLIPFRAME
290
     0
  9
$HALOGAP
280
     0
  9
$OBSCOLOR
 70
   257
  9
$OBSLTYPE
280
     0
  9
$INTERSECTIONDISPLAY
280
     0
  9
$INTERSECTIONCOLOR
 70
   257
  9
$DIMASSOC
280
     2
  9
$PROJECTNAME
  1

  0
ENDSEC
  0
SECTION
  2
CLASSES
  0
CLASS
  1
ACDBDICTIONARYWDFLT
  2
AcDbDictionaryWithDefault
  3
ObjectDBX Classes
 90
        0
 91
        4
280
     0
281
     0
  0
CLASS
  1
VISUALSTYLE
  2
AcDbVisualStyle
  3
ObjectDBX Classes
 90
     4095
 91
        4
280
     0
281
     0
  0
CLASS
  1
SCALE
  2
AcDbScale
  3
ObjectDBX Classes
 90
     1153
 91
        4
280
     0
281
     0
  0
CLASS
  1
DICTIONARYVAR
  2
AcDbDictionaryVar
  3
ObjectDBX Classes
 90
        0
 91
        4
280
     0
281
     0
  0
ENDSEC
  0
SECTION
  2
TABLES
  0
TABLE
  2
VPORT
  5
8
330
0
100
AcDbSymbolTable
 70
     1
  0
VPORT
  5
29
330
8
100
AcDbSymbolTableRecord
100
AcDbViewportTableRecord
  2
*Active
 70
     0
 10
0.0
 20
0.0
 11
1.0
 21
1.0
 12
44.06815468204795
 22
-24.28980950971771
 13
0.0
 23
0.0
 14
0.5
 24
0.5
 15
0.5
 25
0.5
 16
0.0
 26
0.0
 36
1.0
 17
0.0
 27
0.0
 37
0.0
 40
553.8478479478373
 41
0.8848268158467097
 42
50.0
 43
0.0
 44
0.0
 50
0.0
 51
0.0
 71
     0
 72
   100
 73
     1
 74
     3
 75
     0
 76
     0
 77
     0
 78
     0
281
     0
 65
     1
110
0.0
120
0.0
130
0.0
111
1.0
121
0.0
131
0.0
112
0.0
122
1.0
132
0.0
 79
     0
146
0.0
  0
ENDTAB
  0
TABLE
  2
LTYPE
  5
5
330
0
100
AcDbSymbolTable
 70
     3
  0
LTYPE
  5
14
330
5
100
AcDbSymbolTableRecord
100
AcDbLinetypeTableRecord
  2
ByBlock
 70
     0
  3

 72
    65
 73
     0
 40
0.0
  0
LTYPE
  5
15
330
5
100
AcDbSymbolTableRecord
100
AcDbLinetypeTableRecord
  2
ByLayer
 70
     0
  3

 72
    65
 73
     0
 40
0.0
  0
LTYPE
  5
16
330
5
100
AcDbSymbolTableRecord
100
AcDbLinetypeTableRecord
  2
Continuous
 70
     0
  3
Solid line
 72
    65
 73
     0
 40
0.0
  0
LTYPE
  5
5F
330
5
100
AcDbSymbolTableRecord
100
AcDbLinetypeTableRecord
  2
DASHEDX2
 70
     0
  3
- - - - - 
 72
    65
 73
     2
 40
7.5
 49
5.0
 74
     0
 49
-2.5
 74
     0
  0
LTYPE
  5
80
330
5
100
AcDbSymbolTableRecord
100
AcDbLinetypeTableRecord
  2
Hidden
 70
     0
  3
- - - - - 
 72
    65
 73
     2
 40
2.469444990158081
 49
1.411111354827881
 74
     0
 49
-1.0583336353302
 74
     0
  0
ENDTAB
  0
TABLE
  2
LAYER
  5
2
330
0
100
AcDbSymbolTable
 70
    18
  0
LAYER
  5
10
330
2
100
AcDbSymbolTableRecord
100
AcDbLayerTableRecord
  2
0
 70
     0
 62
     7
  6
Continuous
370
    -3
390
F
  0
LAYER
  5
3C
330
2
100
AcDbSymbolTableRecord
100
AcDbLayerTableRecord
  2
chh-08_Pen_No__8_Pen_No__101
 70
     0
 62
     8
  6
Continuous
370
    13
390
F
  0
LAYER
  5
3E
330
2
100
AcDbSymbolTableRecord
100
AcDbLayerTableRecord
  2
chh-08_Pen_No__8_Pen_No__81
 70
     0
 62
   251
420
  6974058
  6
Continuous
370
    20
390
F
  0
LAYER
  5
40
330
2
100
AcDbSymbolTableRecord
100
AcDbLayerTableRecord
  2
chh-09_Pen_No__9_Pen_No__2
 70
     0
 62
     8
420
  8355711
  6
Continuous
370
    15
390
F
  0
LAYER
  5
49
330
2
100
AcDbSymbolTableRecord
100
AcDbLayerTableRecord
  2
Documentation_ Floor_Pen_No__101
 70
     0
 62
     8
  6
Continuous
370
    13
390
F
  0
LAYER
  5
4A
330
2
100
AcDbSymbolTableRecord
100
AcDbLayerTableRecord
  2
Documentation_ Floor_Pen_No__1
 70
     0
 62
     7
  6
Continuous
370
    13
390
F
  0
LAYER
  5
4D
330
2
100
AcDbSymbolTableRecord
100
AcDbLayerTableRecord
  2
chh-08_Pen_No__8_Pen_No__250
 70
     0
 62
   254
420
 15263976
  6
Continuous
370
    13
390
F
  0
LAYER
  5
4F
330
2
100
AcDbSymbolTableRecord
100
AcDbLayerTableRecord
  2
chh-08_Pen_No__8_Pen_No__1
 70
     0
 62
     7
  6
Continuous
370
    13
390
F
  0
LAYER
  5
58
330
2
100
AcDbSymbolTableRecord
100
AcDbLayerTableRecord
  2
chh-07_Pen_No__7_Pen_No__7
 70
     0
 62
     7
  6
Continuous
370
    18
390
F
  0
LAYER
  5
5C
330
2
100
AcDbSymbolTableRecord
100
AcDbLayerTableRecord
  2
chh-06_Pen_No__7_Pen_No__7
 70
     0
 62
     7
  6
Continuous
370
    18
390
F
  0
LAYER
  5
65
330
2
100
AcDbSymbolTableRecord
100
AcDbLayerTableRecord
  2
chh-08_Pen_No__8_Pen_No__7
 70
     0
 62
     7
  6
Continuous
370
    18
390
F
  0
LAYER
  5
73
330
2
100
AcDbSymbolTableRecord
100
AcDbLayerTableRecord
  2
chh-05_Pen_No__7_Pen_No__7
 70
     0
 62
     7
  6
Continuous
370
    18
390
F
  0
LAYER
  5
82
330
2
100
AcDbSymbolTableRecord
100
AcDbLayerTableRecord
  2
chh-txt_Pen_No__7_Pen_No__7
 70
     0
 62
     7
  6
Continuous
370
    18
390
F
  0
LAYER
  5
8A
330
2
100
AcDbSymbolTableRecord
100
AcDbLayerTableRecord
  2
chh-08_Pen_No__8_Pen_No__61
 70
     0
 62
   251
420
  6974058
  6
Continuous
370
    20
390
F
  0
LAYER
  5
8F
330
2
100
AcDbSymbolTableRecord
100
AcDbLayerTableRecord
  2
chh-txt_Pen_No__1
 70
     0
 62
     7
  6
Continuous
370
    13
390
F
  0
LAYER
  5
92
330
2
100
AcDbSymbolTableRecord
100
AcDbLayerTableRecord
  2
chh-txt_Pen_No__7
 70
     0
 62
     7
  6
Continuous
370
    18
390
F
  0
LAYER
  5
BC
330
2
100
AcDbSymbolTableRecord
100
AcDbLayerTableRecord
  2
chh-txt
 70
     0
 62
     7
  6
Continuous
370
    -3
390
F
  0
LAYER
  5
E9
330
2
100
AcDbSymbolTableRecord
100
AcDbLayerTableRecord
  2
Defpoints_Pen_No__211_Pen_No__115
 70
     0
 62
   211
420
 16738047
  6
Continuous
370
    13
390
F
  0
ENDTAB
  0
TABLE
  2
STYLE
  5
3
330
0
100
AcDbSymbolTable
 70
     2
  0
STYLE
  5
11
330
3
100
AcDbSymbolTableRecord
100
AcDbTextStyleTableRecord
  2
Standard
 70
     0
 40
0.0
 41
1.0
 50
0.0
 71
     0
 42
0.2
  3
txt
  4
BIGFONT.SHX
  0
STYLE
  5
97
330
3
100
AcDbSymbolTableRecord
100
AcDbTextStyleTableRecord
  2
GENERATED_STYLE_1
 70
     0
 40
0.0
 41
1.0
 50
0.0
 71
     0
 42
0.2
  3

  4

1001
ACAD
1000
Arial Unicode MS
1071
       34
  0
ENDTAB
  0
TABLE
  2
VIEW
  5
6
330
0
100
AcDbSymbolTable
 70
     0
  0
ENDTAB
  0
TABLE
  2
UCS
  5
7
330
0
100
AcDbSymbolTable
 70
     0
  0
ENDTAB
  0
TABLE
  2
APPID
  5
9
330
0
100
AcDbSymbolTable
 70
     1
  0
APPID
  5
12
330
9
100
AcDbSymbolTableRecord
100
AcDbRegAppTableRecord
  2
ACAD
 70
     0
  0
ENDTAB
  0
TABLE
  2
DIMSTYLE
  5
A
330
0
100
AcDbSymbolTable
 70
     3
100
AcDbDimStyleTable
  0
DIMSTYLE
105
27
330
A
100
AcDbSymbolTableRecord
100
AcDbDimStyleTableRecord
  2
Standard
 70
     0
340
11
  0
DIMSTYLE
105
BD
102
{ACAD_REACTORS
330
BB
330
DB
330
E7
102
}
330
A
100
AcDbSymbolTableRecord
100
AcDbDimStyleTableRecord
  2
GENERATED_STYLE__1
 70
     0
 41
0.0214737653944711
 42
1.0
 73
     0
 74
     0
 77
     1
140
5.0
172
     1
176
     7
177
     7
178
     7
271
     0
279
     2
340
97
342
BE
343
BE
344
BE
  0
DIMSTYLE
105
CF
102
{ACAD_REACTORS
330
CE
102
}
330
A
100
AcDbSymbolTableRecord
100
AcDbDimStyleTableRecord
  2
GENERATED_STYLE__2
 70
     0
 41
0.0214737653944711
 42
1.0
 73
     0
 74
     0
 77
     1
140
5.0
172
     1
176
     7
177
     7
178
     7
271
     0
340
97
342
BE
343
BE
344
BE
  0
ENDTAB
  0
TABLE
  2
BLOCK_RECORD
  5
1
330
0
100
AcDbSymbolTable
 70
     7
  0
BLOCK_RECORD
  5
1F
330
1
100
AcDbSymbolTableRecord
100
AcDbBlockTableRecord
  2
*Model_Space
340
22
  0
BLOCK_RECORD
  5
1B
330
1
100
AcDbSymbolTableRecord
100
AcDbBlockTableRecord
  2
*Paper_Space
340
1E
  0
BLOCK_RECORD
  5
23
330
1
100
AcDbSymbolTableRecord
100
AcDbBlockTableRecord
  2
*Paper_Space0
340
26
  0
BLOCK_RECORD
  5
8B
330
1
100
AcDbSymbolTableRecord
100
AcDbBlockTableRecord
  2
*D1
340
0
  0
BLOCK_RECORD
  5
BE
330
1
100
AcDbSymbolTableRecord
100
AcDbBlockTableRecord
  2
ARROWHEAD_2
340
0
  0
BLOCK_RECORD
  5
C3
330
1
100
AcDbSymbolTableRecord
100
AcDbBlockTableRecord
  2
*D3
340
0
  0
BLOCK_RECORD
  5
D0
330
1
100
AcDbSymbolTableRecord
100
AcDbBlockTableRecord
  2
*D4
340
0
  0
BLOCK_RECORD
  5
DC
330
1
100
AcDbSymbolTableRecord
100
AcDbBlockTableRecord
  2
*D5
340
0
  0
BLOCK_RECORD
  5
F8
330
1
100
AcDbSymbolTableRecord
100
AcDbBlockTableRecord
  2
Untitled _STORY_MARKER
340
0
  0
ENDTAB
  0
ENDSEC
  0
SECTION
  2
BLOCKS
  0
BLOCK
  5
20
330
1F
100
AcDbEntity
  8
0
100
AcDbBlockBegin
  2
*Model_Space
 70
     0
 10
0.0
 20
0.0
 30
0.0
  3
*Model_Space
  1

  0
ENDBLK
  5
21
330
1F
100
AcDbEntity
  8
0
100
AcDbBlockEnd
  0
BLOCK
  5
1C
330
1B
100
AcDbEntity
 67
     1
  8
0
100
AcDbBlockBegin
  2
*Paper_Space
 70
     0
 10
0.0
 20
0.0
 30
0.0
  3
*Paper_Space
  1

  0
ENDBLK
  5
1D
330
1B
100
AcDbEntity
 67
     1
  8
0
100
AcDbBlockEnd
  0
BLOCK
  5
24
330
23
100
AcDbEntity
  8
0
100
AcDbBlockBegin
  2
*Paper_Space0
 70
     0
 10
0.0
 20
0.0
 30
0.0
  3
*Paper_Space0
  1

  0
ENDBLK
  5
25
330
23
100
AcDbEntity
  8
0
100
AcDbBlockEnd
  0
BLOCK
  5
8C
330
8B
100
AcDbEntity
  8
0
100
AcDbBlockBegin
  2
*D1
 70
     1
 10
0.0
 20
0.0
 30
0.0
  3
*D1
  1

  0
LINE
  5
8E
330
8B
100
AcDbEntity
  8
chh-txt_Pen_No__1
  6
Continuous
100
AcDbLine
 10
48.91683004232883
 20
-55.71860676744981
 30
0.0
 11
48.91683004232883
 21
-55.70479009471574
 31
0.0
  0
LINE
  5
90
330
8B
100
AcDbEntity
  8
chh-txt_Pen_No__1
  6
Continuous
100
AcDbLine
 10
48.91683004232883
 20
-55.70479009471574
 30
0.0
 11
48.91683004232883
 21
-45.33395499231963
 31
0.0
  0
LINE
  5
91
330
8B
100
AcDbEntity
  8
chh-txt_Pen_No__7
  6
Continuous
100
AcDbLine
 10
48.90270256509562
 20
-55.69663359573515
 30
0.0
 11
48.93095751956204
 21
-55.71294659369633
 31
0.0
  0
LINE
  5
93
330
8B
100
AcDbEntity
  8
chh-txt_Pen_No__7
  6
Continuous
100
AcDbLine
 10
48.93095751956204
 20
-45.34211149130022
 30
0.0
 11
48.90270256509562
 21
-45.32579849333904
 31
0.0
  0
LINE
  5
94
330
8B
100
AcDbEntity
  8
chh-txt_Pen_No__1
  6
Continuous
100
AcDbLine
 10
48.91683004232883
 20
-45.33395499231963
 30
0.0
 11
48.91683004232883
 21
-45.32013831958555
 31
0.0
  0
LINE
  5
95
330
8B
100
AcDbEntity
  8
chh-txt_Pen_No__1
  6
Continuous
100
AcDbLine
 10
48.93802125817864
 20
-55.70479009471574
 30
0.0
 11
33.36114737339135
 21
-55.70479009471574
 31
0.0
  0
LINE
  5
96
330
8B
100
AcDbEntity
  8
chh-txt_Pen_No__1
  6
Continuous
100
AcDbLine
 10
48.93802125817864
 20
-45.33395499231963
 30
0.0
 11
33.36114737339135
 21
-45.33395499231963
 31
0.0
  0
MTEXT
  5
98
330
8B
100
AcDbEntity
  8
chh-txt_Pen_No__7
100
AcDbMText
 10
51.07038206032259
 20
-48.86449970738154
 30
0.0
 40
5.0
 41
0.0
 71
     1
 72
     1
  1
{10mm cover}
  7
GENERATED_STYLE_1
 73
     1
 44
1.0
  0
ENDBLK
  5
8D
330
8B
100
AcDbEntity
  8
0
100
AcDbBlockEnd
  0
BLOCK
  5
BF
330
BE
100
AcDbEntity
  8
0
100
AcDbBlockBegin
  2
ARROWHEAD_2
 70
     0
 10
0.0
 20
0.0
 30
0.0
  3
ARROWHEAD_2
  1

  0
LINE
  5
C1
330
BE
100
AcDbEntity
  8
0
  6
Continuous
 62
     0
370
     0
100
AcDbLine
 10
-0.3781315
 20
-0.655
 30
0.0
 11
0.3781315
 21
0.655
 31
0.0
  0
LINE
  5
C2
330
BE
100
AcDbEntity
  8
0
  6
Continuous
 62
     0
370
     0
100
AcDbLine
 10
0.0
 20
0.0
 30
0.0
 11
-1.0
 21
0.0
 31
0.0
  0
ENDBLK
  5
C0
330
BE
100
AcDbEntity
  8
0
100
AcDbBlockEnd
  0
BLOCK
  5
C4
330
C3
100
AcDbEntity
  8
0
100
AcDbBlockBegin
  2
*D3
 70
     1
 10
0.0
 20
0.0
 30
0.0
  3
*D3
  1

  0
LINE
  5
C6
330
C3
100
AcDbEntity
  8
chh-txt_Pen_No__1
  6
Continuous
100
AcDbLine
 10
48.84081838276266
 20
-32.82824898005691
 30
0.0
 11
48.84081838276266
 21
-32.81443230732284
 31
0.0
  0
LINE
  5
C7
330
C3
100
AcDbEntity
  8
chh-txt_Pen_No__1
  6
Continuous
100
AcDbLine
 10
48.84081838276266
 20
-32.81443230732284
 30
0.0
 11
48.84081838276267
 21
25.20567605055446
 31
0.0
  0
LINE
  5
C8
330
C3
100
AcDbEntity
  8
chh-txt_Pen_No__7
  6
Continuous
100
AcDbLine
 10
48.82669090552945
 20
-32.80627580834225
 30
0.0
 11
48.85494585999587
 21
-32.82258880630343
 31
0.0
  0
LINE
  5
C9
330
C3
100
AcDbEntity
  8
chh-txt_Pen_No__7
  6
Continuous
100
AcDbLine
 10
48.85494585999588
 20
25.19751955157387
 30
0.0
 11
48.82669090552946
 21
25.21383254953505
 31
0.0
  0
LINE
  5
CA
330
C3
100
AcDbEntity
  8
chh-txt_Pen_No__1
  6
Continuous
100
AcDbLine
 10
48.84081838276267
 20
25.20567605055446
 30
0.0
 11
48.84081838276267
 21
25.21949272328854
 31
0.0
  0
LINE
  5
CB
330
C3
100
AcDbEntity
  8
chh-txt_Pen_No__1
  6
Continuous
100
AcDbLine
 10
48.86200959861247
 20
-32.81443230732284
 30
0.0
 11
19.88562507734881
 21
-32.81443230732284
 31
0.0
  0
LINE
  5
CC
330
C3
100
AcDbEntity
  8
chh-txt_Pen_No__1
  6
Continuous
100
AcDbLine
 10
48.86200959861247
 20
25.20567605055446
 30
0.0
 11
19.88562507734882
 21
25.20567605055446
 31
0.0
  0
MTEXT
  5
CD
330
C3
100
AcDbEntity
  8
chh-txt_Pen_No__7
100
AcDbMText
 10
42.84081838276266
 20
-23.19262847933634
 30
0.0
 40
5.0
 41
0.0
 71
     1
 72
     1
  1
{50mm cover}
  7
GENERATED_STYLE_1
 11
6.123233995736766E-17
 21
1.0
 31
0.0
 73
     1
 44
1.0
  0
ENDBLK
  5
C5
330
C3
100
AcDbEntity
  8
0
100
AcDbBlockEnd
  0
BLOCK
  5
D1
330
D0
100
AcDbEntity
  8
0
100
AcDbBlockBegin
  2
*D4
 70
     1
 10
0.0
 20
0.0
 30
0.0
  3
*D4
  1

  0
LINE
  5
D3
330
D0
100
AcDbEntity
  8
chh-txt_Pen_No__1
  6
Continuous
100
AcDbLine
 10
24.23663759361299
 20
-50.12946077559774
 30
0.0
 11
24.23034481259279
 21
-50.1417612370717
 31
0.0
  0
LINE
  5
D4
330
D0
100
AcDbEntity
  8
chh-txt_Pen_No__1
  6
Continuous
100
AcDbLine
 10
24.23034481259279
 20
-50.1417612370717
 30
0.0
 11
20.6126802276668
 21
-57.21318859323867
 31
0.0
  0
LINE
  5
D5
330
D0
100
AcDbEntity
  8
chh-txt_Pen_No__7
  6
Continuous
100
AcDbLine
 10
24.23920710743119
 20
-50.15545699622525
 30
0.0
 11
24.2214825177544
 21
-50.12806547791813
 31
0.0
  0
LINE
  5
D6
330
D0
100
AcDbEntity
  8
chh-txt_Pen_No__7
  6
Continuous
100
AcDbLine
 10
20.60381793282841
 20
-57.19949283408511
 30
0.0
 11
20.6215425225052
 21
-57.22688435239223
 31
0.0
  0
LINE
  5
D7
330
D0
100
AcDbEntity
  8
chh-txt_Pen_No__1
  6
Continuous
100
AcDbLine
 10
20.6126802276668
 20
-57.21318859323867
 30
0.0
 11
20.60638744664661
 21
-57.22548905471263
 31
0.0
  0
LINE
  5
D8
330
D0
100
AcDbEntity
  8
chh-txt_Pen_No__1
  6
Continuous
100
AcDbLine
 10
7.028757294071805
 20
-41.34161795114966
 30
0.0
 11
24.24921055104979
 21
-50.1514127417039
 31
0.0
  0
LINE
  5
D9
330
D0
100
AcDbEntity
  8
chh-txt_Pen_No__1
  6
Continuous
100
AcDbLine
 10
3.815421869857036
 20
-48.61989566604685
 30
0.0
 11
20.6315459661238
 21
-57.22284009787087
 31
0.0
  0
MTEXT
  5
DA
330
D0
100
AcDbEntity
  8
chh-txt_Pen_No__7
100
AcDbMText
 10
22.11200348639449
 20
-59.12437149141676
 30
0.0
 40
5.0
 41
0.0
 71
     1
 72
     1
  1
{8mm}
  7
GENERATED_STYLE_1
 73
     1
 44
1.0
  0
ENDBLK
  5
D2
330
D0
100
AcDbEntity
  8
0
100
AcDbBlockEnd
  0
BLOCK
  5
DD
330
DC
100
AcDbEntity
  8
0
100
AcDbBlockBegin
  2
*D5
 70
     1
 10
0.0
 20
0.0
 30
0.0
  3
*D5
  1

  0
LINE
  5
DF
330
DC
100
AcDbEntity
  8
chh-txt_Pen_No__1
  6
Continuous
100
AcDbLine
 10
-186.7165717260817
 20
-69.9851389811084
 30
0.0
 11
-186.7165717260817
 21
-69.97132230837433
 31
0.0
  0
LINE
  5
E0
330
DC
100
AcDbEntity
  8
chh-txt_Pen_No__1
  6
Continuous
100
AcDbLine
 10
-186.7165717260817
 20
-69.97132230837433
 30
0.0
 11
-186.7165717260817
 21
-62.47132230837404
 31
0.0
  0
LINE
  5
E1
330
DC
100
AcDbEntity
  8
chh-txt_Pen_No__7
  6
Continuous
100
AcDbLine
 10
-186.7306992033149
 20
-69.96316580939374
 30
0.0
 11
-186.7024442488485
 21
-69.97947880735492
 31
0.0
  0
LINE
  5
E2
330
DC
100
AcDbEntity
  8
chh-txt_Pen_No__7
  6
Continuous
100
AcDbLine
 10
-186.7024442488485
 20
-62.47947880735463
 30
0.0
 11
-186.7306992033149
 21
-62.46316580939346
 31
0.0
  0
LINE
  5
E3
330
DC
100
AcDbEntity
  8
chh-txt_Pen_No__1
  6
Continuous
100
AcDbLine
 10
-186.7165717260817
 20
-62.47132230837404
 30
0.0
 11
-186.7165717260817
 21
-62.45750563563997
 31
0.0
  0
LINE
  5
E4
330
DC
100
AcDbEntity
  8
chh-txt_Pen_No__1
  6
Continuous
100
AcDbLine
 10
-150.29820539342
 20
-69.97132230837433
 30
0.0
 11
-186.7377629419315
 21
-69.97132230837433
 31
0.0
  0
LINE
  5
E5
330
DC
100
AcDbEntity
  8
chh-txt_Pen_No__1
  6
Continuous
100
AcDbLine
 10
-150.29820539342
 20
-62.47132230837404
 30
0.0
 11
-186.7377629419315
 21
-62.47132230837404
 31
0.0
  0
MTEXT
  5
E6
330
DC
100
AcDbEntity
  8
chh-txt_Pen_No__7
100
AcDbMText
 10
-194.2813188302871
 20
-83.25235598000573
 30
0.0
 40
5.0
 41
0.0
 71
     1
 72
     1
  1
{7.5mm}
  7
GENERATED_STYLE_1
 11
6.123233995736766E-17
 21
1.0
 31
0.0
 73
     1
 44
1.0
  0
ENDBLK
  5
DE
330
DC
100
AcDbEntity
  8
0
100
AcDbBlockEnd
  0
BLOCK
  5
F9
330
F8
100
AcDbEntity
  8
0
100
AcDbBlockBegin
  2
Untitled _STORY_MARKER
 70
     0
 10
0.0
 20
0.0
 30
0.0
  3
Untitled _STORY_MARKER
  1

  0
ENDBLK
  5
FA
330
F8
100
AcDbEntity
  8
0
100
AcDbBlockEnd
  0
ENDSEC
  0
SECTION
  2
ENTITIES
  0
HATCH
  5
3B
330
1F
100
AcDbEntity
  8
chh-08_Pen_No__8_Pen_No__101
  6
Continuous
100
AcDbHatch
 10
0.0
 20
0.0
 30
0.0
210
0.0
220
0.0
230
1.0
  2
Plaster
 70
     0
 71
     0
 91
        1
 92
        2
 72
     0
 73
     1
 93
        4
 10
-122.8615049065824
 20
237.3905801975288
 10
-132.8615049065824
 20
237.3905801975288
 10
-132.8615049065824
 20
-77.38911622100575
 10
-122.8615049065824
 20
-77.38911622100575
 97
        0
 75
     0
 76
     2
 52
0.0
 41
1.0
 77
     0
 78
     2
 53
0.0
 43
0.0
 44
0.0
 45
0.0
 46
1.732050807568877
 79
     2
 49
0.0
 49
-1.0
 53
0.0
 43
0.5
 44
0.8660253882408142
 45
0.0
 46
1.732050807568877
 79
     2
 49
0.0
 49
-1.0
 98
        0
  0
HATCH
  5
3D
330
1F
100
AcDbEntity
  8
chh-08_Pen_No__8_Pen_No__81
  6
Continuous
100
AcDbHatch
 10
0.0
 20
0.0
 30
0.0
210
0.0
220
0.0
230
1.0
  2
Plywood_90
 70
     0
 71
     0
 91
        1
 92
        2
 72
     0
 73
     1
 93
        4
 10
-10.17474595307832
 20
237.3905801975288
 10
-22.17474595307856
 20
237.3905801975288
 10
-22.17474595307856
 20
-26.37605125547793
 10
-10.17474595307832
 20
-32.51511948492725
 97
        0
 75
     0
 76
     2
 52
0.0
 41
1.0
 77
     0
 78
     1
 53
90.0
 43
0.0
 44
0.0
 45
-2.0
 46
0.0
 79
     0
 98
        0
  0
HATCH
  5
3F
330
1F
100
AcDbEntity
  8
chh-09_Pen_No__9_Pen_No__2
  6
Continuous
100
AcDbHatch
 10
0.0
 20
0.0
 30
0.0
210
0.0
220
0.0
230
1.0
  2
SOLID
 70
     1
 71
     0
 91
        1
 92
        2
 72
     0
 73
     1
 93
        3
 10
0.7871165370476607
 20
219.1364927823251
 10
0.7871165370481048
 20
221.9364915799723
 10
-7.612879855892318
 20
220.5364921811507
 97
        0
 75
     0
 76
     1
 98
        0
  0
HATCH
  5
41
330
1F
100
AcDbEntity
  8
chh-09_Pen_No__9_Pen_No__2
  6
Continuous
100
AcDbHatch
 10
0.0
 20
0.0
 30
0.0
210
0.0
220
0.0
230
1.0
  2
SOLID
 70
     1
 71
     0
 91
        1
 92
        2
 72
     0
 73
     1
 93
        3
 10
-20.66917630445641
 20
159.4939585614173
 10
-20.66917630445597
 20
162.2939573590646
 10
-29.0691726973964
 20
160.893957960243
 97
        0
 75
     0
 76
     1
 98
        0
  0
HATCH
  5
42
330
1F
100
AcDbEntity
  8
chh-09_Pen_No__9_Pen_No__2
  6
Continuous
100
AcDbHatch
 10
0.0
 20
0.0
 30
0.0
210
0.0
220
0.0
230
1.0
  2
SOLID
 70
     1
 71
     0
 91
        1
 92
        2
 72
     0
 73
     1
 93
        3
 10
-50.83384970717586
 20
82.59625244505308
 10
-53.63384850482311
 20
82.59625244505354
 10
-52.23384910600126
 20
74.19625605211311
 97
        0
 75
     0
 76
     1
 98
        0
  0
HATCH
  5
43
330
1F
100
AcDbEntity
  8
chh-09_Pen_No__9_Pen_No__2
  6
Continuous
100
AcDbHatch
 10
0.0
 20
0.0
 30
0.0
210
0.0
220
0.0
230
1.0
  2
SOLID
 70
     1
 71
     0
 91
        1
 92
        2
 72
     0
 73
     1
 93
        3
 10
-67.84230882526532
 20
-98.77060428667129
 10
-69.24230822409072
 20
-90.3706078937313
 10
-70.64230762291257
 20
-98.77060428667173
 97
        0
 75
     0
 76
     1
 98
        0
  0
HATCH
  5
44
330
1F
100
AcDbEntity
  8
chh-09_Pen_No__9_Pen_No__2
  6
Continuous
100
AcDbHatch
 10
0.0
 20
0.0
 30
0.0
210
0.0
220
0.0
230
1.0
  2
SOLID
 70
     1
 71
     0
 91
        1
 92
        2
 72
     0
 73
     1
 93
        3
 10
-109.1896452854939
 20
-72.56841169587769
 10
-110.5896446843191
 20
-64.16841530293816
 10
-111.9896440831412
 20
-72.56841169587813
 97
        0
 75
     0
 76
     1
 98
        0
  0
HATCH
  5
45
330
1F
100
AcDbEntity
  8
chh-09_Pen_No__9_Pen_No__2
  6
Continuous
100
AcDbHatch
 10
0.0
 20
0.0
 30
0.0
210
0.0
220
0.0
230
1.0
  2
SOLID
 70
     1
 71
     0
 91
        1
 92
        2
 72
     0
 73
     1
 93
        3
 10
-19.38588240363526
 20
55.61153913443307
 10
-21.36578054076521
 20
57.59143727156479
 10
-26.31552588359187
 20
50.66179379160929
 97
        0
 75
     0
 76
     1
 98
        0
  0
HATCH
  5
46
330
1F
100
AcDbEntity
  8
chh-09_Pen_No__9_Pen_No__2
  6
Continuous
100
AcDbHatch
 10
0.0
 20
0.0
 30
0.0
210
0.0
220
0.0
230
1.0
  2
SOLID
 70
     1
 71
     0
 91
        1
 92
        2
 72
     0
 73
     1
 93
        3
 10
-0.3133130023242892
 20
-62.64973355413017
 10
-1.713312401149691
 20
-54.24973716119019
 10
-3.113311799971541
 20
-62.64973355413061
 97
        0
 75
     0
 76
     1
 98
        0
  0
HATCH
  5
47
330
1F
100
AcDbEntity
  8
chh-09_Pen_No__9_Pen_No__2
  6
Continuous
100
AcDbHatch
 10
0.0
 20
0.0
 30
0.0
210
0.0
220
0.0
230
1.0
  2
SOLID
 70
     1
 71
     0
 91
        1
 92
        2
 72
     0
 73
     1
 93
        3
 10
-8.411203097485664
 20
-27.47075820756606
 10
-10.39110123461562
 20
-25.49086007043566
 10
-15.34084657744228
 20
-32.42050355039072
 97
        0
 75
     0
 76
     1
 98
        0
  0
HATCH
  5
48
330
1F
100
AcDbEntity
  8
Documentation_ Floor_Pen_No__101
  6
Continuous
100
AcDbHatch
 10
0.0
 20
0.0
 30
0.0
210
0.0
220
0.0
230
1.0
  2
Thermal_Block
 70
     0
 71
     1
 91
        1
 92
        2
 72
     0
 73
     1
 93
        8
 10
-134.2600861162355
 20
-69.76153276051666
 10
-146.2180903441113
 20
-69.76153276051666
 10
-146.2180903441113
 20
-89.47137993817245
 10
-61.18220565326604
 20
-89.47137993817245
 10
-61.18220565326604
 20
-69.97132215158958
 10
-121.4629236544711
 20
-69.97132215158958
 10
-121.4629236544711
 20
-78.78769773640849
 10
-134.2600863212328
 20
-78.78769773640849
 97
        1
330
4B
 75
     0
 76
     2
 52
0.0
 41
1.0
 77
     0
 78
     1
 53
44.99999999999999
 43
0.0
 44
0.0
 45
-1.272792172418306
 46
1.272792172418307
 79
     0
 98
        0
  0
LWPOLYLINE
  5
4B
102
{ACAD_REACTORS
330
48
102
}
330
1F
100
AcDbEntity
  8
Documentation_ Floor_Pen_No__1
  6
Continuous
100
AcDbPolyline
 90
        8
 70
   129
 43
0.0
 10
-134.2600861162355
 20
-69.76153276051666
 10
-146.2180903441113
 20
-69.76153276051666
 10
-146.2180903441113
 20
-89.47137993817245
 10
-61.18220565326604
 20
-89.47137993817245
 10
-61.18220565326604
 20
-69.97132215158958
 10
-121.4629236544711
 20
-69.97132215158958
 10
-121.4629236544711
 20
-78.78769773640849
 10
-134.2600863212328
 20
-78.78769773640849
  0
LINE
  5
4C
330
1F
100
AcDbEntity
  8
chh-08_Pen_No__8_Pen_No__250
  6
Continuous
100
AcDbLine
 10
-120.8615049065824
 20
77.52867769162519
 30
0.0
 11
-120.8615049065824
 21
237.3764131779518
 31
0.0
  0
LINE
  5
4E
330
1F
100
AcDbEntity
  8
chh-08_Pen_No__8_Pen_No__1
  6
Continuous
100
AcDbLine
 10
-30.86150490658301
 20
77.52867769162519
 30
0.0
 11
-30.86150490658301
 21
237.3764131779518
 31
0.0
  0
LINE
  5
50
330
1F
100
AcDbEntity
  8
chh-08_Pen_No__8_Pen_No__81
  6
Continuous
100
AcDbLine
 10
-120.8615049065824
 20
77.52867769162519
 30
0.0
 11
-75.86150490658272
 21
-62.47132230837404
 31
0.0
  0
LINE
  5
51
330
1F
100
AcDbEntity
  8
chh-08_Pen_No__8_Pen_No__81
  6
Continuous
100
AcDbLine
 10
-120.8615049065824
 20
-62.47132230837404
 30
0.0
 11
-75.86150490658272
 21
77.52867769162519
 31
0.0
  0
LINE
  5
52
330
1F
100
AcDbEntity
  8
chh-08_Pen_No__8_Pen_No__1
  6
Continuous
100
AcDbLine
 10
-146.2180903441113
 20
-89.47137993817245
 30
0.0
 11
-146.2180903441113
 21
-244.1177092982286
 31
0.0
  0
LINE
  5
53
330
1F
100
AcDbEntity
  8
chh-08_Pen_No__8_Pen_No__250
  6
Continuous
100
AcDbLine
 10
-4.940786842137168
 20
153.2940037559608
 30
0.0
 11
-4.940786842137168
 21
-48.10613482772285
 31
0.0
  0
LINE
  5
54
330
1F
100
AcDbEntity
  8
chh-08_Pen_No__8_Pen_No__250
  6
Continuous
100
AcDbLine
 10
-98.36150490658268
 20
-65.47132230837416
 30
0.0
 11
-74.36150490658267
 21
-68.971322308374
 31
0.0
  0
LINE
  5
55
330
1F
100
AcDbEntity
  8
chh-08_Pen_No__8_Pen_No__81
  6
Continuous
100
AcDbLine
 10
-75.86150490658272
 20
77.52867769162519
 30
0.0
 11
-30.86150490658301
 21
-62.47132230837404
 31
0.0
  0
LINE
  5
56
330
1F
100
AcDbEntity
  8
chh-08_Pen_No__8_Pen_No__81
  6
Continuous
100
AcDbLine
 10
-75.86150490658272
 20
-62.47132230837404
 30
0.0
 11
-30.86150490658301
 21
77.52867769162519
 31
0.0
  0
LINE
  5
57
330
1F
100
AcDbEntity
  8
chh-07_Pen_No__7_Pen_No__7
  6
Continuous
100
AcDbLine
 10
-35.66951597769141
 20
-106.5696077866861
 30
0.0
 11
-35.66951597769141
 21
-97.41106471784356
 31
0.0
  0
LINE
  5
59
330
1F
100
AcDbEntity
  8
chh-07_Pen_No__7_Pen_No__7
  6
Continuous
100
AcDbLine
 10
-41.66951570619681
 20
-103.2335061872866
 30
0.0
 11
-41.66951570619681
 21
-94.20085374449616
 31
0.0
  0
LINE
  5
5A
330
1F
100
AcDbEntity
  8
chh-07_Pen_No__7_Pen_No__7
  6
Continuous
100
AcDbLine
 10
-33.38220691118976
 20
-105.3724733997167
 30
0.0
 11
-35.66951597769141
 21
-106.5282270493902
 31
0.0
  0
LINE
  5
5B
330
1F
100
AcDbEntity
  8
chh-06_Pen_No__7_Pen_No__7
  6
Continuous
100
AcDbLine
 10
-10.17474595307832
 20
-32.54049459949948
 30
0.0
 11
-10.17474595307832
 21
237.3905801975288
 31
0.0
  0
LINE
  5
5D
330
1F
100
AcDbEntity
  8
chh-06_Pen_No__7_Pen_No__7
  6
Continuous
100
AcDbLine
 10
-22.17474595307856
 20
237.3905801975288
 30
0.0
 11
-22.17474595307834
 21
-26.40142637004972
 31
0.0
  0
LINE
  5
5E
330
1F
100
AcDbEntity
  8
chh-06_Pen_No__7_Pen_No__7
  6
Continuous
100
AcDbLine
 10
-10.17474595307832
 20
-32.54049459949948
 30
0.0
 11
-22.17474595307834
 21
-26.40142637004972
 31
0.0
  0
LWPOLYLINE
  5
60
330
1F
100
AcDbEntity
  8
chh-08_Pen_No__8_Pen_No__1
  6
DASHEDX2
100
AcDbPolyline
 90
        3
 70
   128
 43
0.0
 10
-29.8615049065829
 20
237.3905801975288
 10
-29.8615049065829
 20
-63.47132230837349
 10
-121.8615049065825
 20
-63.47132230837349
  0
LWPOLYLINE
  5
61
330
1F
100
AcDbEntity
  8
chh-08_Pen_No__8_Pen_No__1
  6
DASHEDX2
100
AcDbPolyline
 90
        3
 70
   128
 43
0.0
 10
-28.86150490658301
 20
-14.471322308374
 10
-28.86150490658301
 20
-64.47132230837427
 10
-121.8615049065825
 20
-64.47132230837427
  0
LWPOLYLINE
  5
62
330
1F
100
AcDbEntity
  8
chh-08_Pen_No__8_Pen_No__81
  6
Continuous
100
AcDbPolyline
 90
        6
 70
   128
 43
0.0
 10
15.7631070334011
 20
237.3905801975288
 10
-62.47006657403088
 20
237.3905801975288
 10
-62.47006657403088
 20
247.2042336019672
 10
-69.01250217698974
 20
227.5769267930899
 10
-69.01250217698974
 20
237.3905801975288
 10
-152.9943108324007
 20
237.3905801975288
  0
LWPOLYLINE
  5
63
330
1F
100
AcDbEntity
  8
chh-08_Pen_No__8_Pen_No__81
  6
Continuous
100
AcDbPolyline
 90
        6
 70
   128
 43
0.0
 10
30.40969662364601
 20
-244.1177092982286
 10
-68.82347698378588
 20
-244.1177092982286
 10
-68.82347698378588
 20
-253.931362702667
 10
-75.36591258674474
 20
-234.3040558937902
 10
-75.36591258674474
 20
-244.1177092982286
 10
-163.6580383996962
 20
-244.1177092982286
  0
LWPOLYLINE
  5
64
330
1F
100
AcDbEntity
  8
chh-08_Pen_No__8_Pen_No__7
  6
Continuous
100
AcDbPolyline
 90
        2
 70
   128
 43
0.0
 10
-35.66951570622501
 20
-244.1177092982286
 10
-35.66951570622501
 20
-91.33131452278398
  0
LWPOLYLINE
  5
66
330
1F
100
AcDbEntity
  8
chh-08_Pen_No__8_Pen_No__7
  6
Continuous
100
AcDbPolyline
 90
        2
 70
   128
 43
0.0
 10
-41.66951570619681
 20
-244.1177092982286
 10
-41.66951570619681
 20
-91.33131452278398
  0
LWPOLYLINE
  5
67
330
1F
100
AcDbEntity
  8
chh-08_Pen_No__8_Pen_No__1
  6
Continuous
100
AcDbPolyline
 90
        2
 70
   128
 43
0.0
 10
-46.88220630032758
 20
-102.3714180625012
 10
-46.88220630032758
 20
-244.1177092982286
  0
LWPOLYLINE
  5
68
330
1F
100
AcDbEntity
  8
chh-08_Pen_No__8_Pen_No__1
  6
Continuous
100
AcDbPolyline
 90
        2
 70
   128
 43
0.0
 10
-64.48220559600526
 20
-90.87138406799677
 10
-64.48220545197425
 20
-244.1177092982286
  0
LWPOLYLINE
  5
69
330
1F
100
AcDbEntity
  8
chh-08_Pen_No__8_Pen_No__1
  6
Continuous
100
AcDbPolyline
 90
        2
 70
   128
 43
0.0
 10
-4.940786842137168
 20
-64.16836143350434
 10
-4.940786842137168
 20
-244.1177092982286
  0
LWPOLYLINE
  5
6A
330
1F
100
AcDbEntity
  8
chh-08_Pen_No__8_Pen_No__1
  6
Continuous
100
AcDbPolyline
 90
        2
 70
   128
 43
0.0
 10
-12.89324960829585
 20
-85.38345609486375
 10
-12.89324960829519
 20
-244.1177092982286
  0
LWPOLYLINE
  5
6B
330
1F
100
AcDbEntity
  8
chh-08_Pen_No__8_Pen_No__1
  6
Continuous
100
AcDbPolyline
 90
        2
 70
   128
 43
0.0
 10
-40.66951570619671
 20
-244.1177092982286
 10
-40.66951570619671
 20
-91.33131452278398
  0
LWPOLYLINE
  5
6C
330
1F
100
AcDbEntity
  8
chh-08_Pen_No__8_Pen_No__1
  6
Continuous
100
AcDbPolyline
 90
        2
 70
   128
 43
0.0
 10
-39.66951570619681
 20
-244.1177092982286
 10
-39.66951570619681
 20
-91.33131452278398
  0
LWPOLYLINE
  5
6D
330
1F
100
AcDbEntity
  8
chh-08_Pen_No__8_Pen_No__1
  6
Continuous
100
AcDbPolyline
 90
        2
 70
   128
 43
0.0
 10
-38.6695157061967
 20
-244.1177092982286
 10
-38.6695157061967
 20
-91.33131452278398
  0
LWPOLYLINE
  5
6E
330
1F
100
AcDbEntity
  8
chh-08_Pen_No__8_Pen_No__1
  6
Continuous
100
AcDbPolyline
 90
        2
 70
   128
 43
0.0
 10
-37.66951570619681
 20
-244.1177092982286
 10
-37.66951570619681
 20
-91.33131452278398
  0
LWPOLYLINE
  5
6F
330
1F
100
AcDbEntity
  8
chh-08_Pen_No__8_Pen_No__1
  6
Continuous
100
AcDbPolyline
 90
        2
 70
   128
 43
0.0
 10
-36.6695157061967
 20
-244.1177092982286
 10
-36.6695157061967
 20
-91.33131452278398
  0
LWPOLYLINE
  5
70
330
1F
100
AcDbEntity
  8
chh-08_Pen_No__8_Pen_No__7
  6
DASHEDX2
100
AcDbPolyline
 90
        6
 70
   128
 43
0.0
 10
-27.20402419668422
 20
57.89992846918157
 10
-27.20402419668422
 20
34.64448789219132
 42
0.1731317700964257
 10
-26.29985339349772
 20
32.11153673116274
 10
-24.72825491294928
 20
30.19069414382536
 42
-0.1731317700964257
 10
-23.82408410976256
 20
27.65774298279722
 10
-23.82408410976256
 20
-0.4961228588319377
  0
LWPOLYLINE
  5
71
330
1F
100
AcDbEntity
  8
chh-07_Pen_No__7_Pen_No__7
  6
Continuous
100
AcDbPolyline
 90
        4
 70
   128
 43
0.0
 10
-122.8615049065824
 20
237.3905801975288
 10
-122.8615049065824
 20
-77.38911622100575
 10
-132.8615049065824
 20
-77.38911622100575
 10
-132.8615049065824
 20
237.3905801975288
  0
LWPOLYLINE
  5
72
330
1F
100
AcDbEntity
  8
chh-05_Pen_No__7_Pen_No__7
  6
Continuous
100
AcDbPolyline
 90
        4
 70
   129
 43
0.0
 10
-120.8615049065824
 20
77.52867769162519
 10
-75.86150490658272
 20
77.52867769162519
 10
-75.86150490658272
 20
-62.47132230837404
 10
-120.8615049065824
 20
-62.47132230837404
  0
LWPOLYLINE
  5
74
330
1F
100
AcDbEntity
  8
chh-06_Pen_No__7_Pen_No__7
  6
Continuous
100
AcDbPolyline
 90
        8
 70
   129
 43
0.0
 10
-61.18220565326604
 20
-69.97132230837433
 10
-121.4629236969296
 20
-69.97132230837433
 10
-121.4629236969296
 20
-78.78769743065817
 10
-134.2600861162355
 20
-78.78769743065817
 10
-134.2600861162355
 20
-69.76153276051666
 10
-146.2180903441113
 20
-69.76153276051666
 10
-146.2180903441113
 20
-89.47137993817245
 10
-61.18220565326604
 20
-89.47137993817245
  0
LWPOLYLINE
  5
75
330
1F
100
AcDbEntity
  8
chh-07_Pen_No__7_Pen_No__7
  6
Continuous
100
AcDbPolyline
 90
       39
 70
   129
 43
0.0
 10
-33.38220691118976
 20
-98.56681836751801
 42
-0.4142135623730906
 10
-32.88220693381439
 20
-98.06681688983099
 10
-31.28220700621242
 20
-98.06681688983099
 42
-0.4142135623730971
 10
-30.28220705146168
 20
-99.06681984520505
 10
-30.28220705146168
 20
-99.83042599893987
 42
0.6681786379193054
 10
-29.42865370008407
 20
-100.1839804348229
 10
-23.76359179142318
 20
-94.51890152744402
 42
0.414213562373095
 10
-23.76359179142318
 20
-93.10468378591385
 10
-32.48220695191417
 20
-84.38604246414172
 10
-32.48220695191417
 20
-81.57182058408708
 10
-30.18220705598695
 20
-81.57182058408708
 42
-0.9999999999999999
 10
-30.18220705598695
 20
-82.57182353946158
 10
-31.38220700168737
 20
-82.57182353946158
 10
-31.38220700168737
 20
-84.07182797252311
 10
-22.91506369281793
 20
-92.5389966891016
 42
0.4142135623720841
 10
-21.50085019381009
 20
-92.5389966891016
 10
-14.1932495494721
 20
-85.23137411740566
 10
-14.1932495494721
 20
-83.57136250146479
 10
-12.89324960829585
 20
-83.57136250146479
 10
-12.89324960829585
 20
-85.38345609486375
 42
-0.1989123673791421
 10
-12.96647290998232
 20
-85.56023331230544
 10
-32.95543023550085
 20
-105.5492506171579
 42
-0.6681786379199417
 10
-33.38220691118976
 20
-105.3724733997167
 10
-33.38220691118976
 20
-102.0168279724846
 42
-0.414213562373095
 10
-33.18220691118956
 20
-101.8168279724841
 10
-32.58220695643877
 20
-101.8168279724841
 42
-0.4142135623730981
 10
-32.38220695643857
 20
-102.0168279724846
 10
-32.38220695643857
 20
-102.3668301890147
 42
0.4142135623730981
 10
-32.18220695643836
 20
-102.5668301890151
 10
-31.58220700168757
 20
-102.5668301890151
 42
0.4142135623730981
 10
-31.38220700168737
 20
-102.3668301890147
 10
-31.38220700168737
 20
-99.26681984520502
 42
0.4142135623730981
 10
-31.58220700168757
 20
-99.06681984520505
 10
-32.18220695643836
 20
-99.06681984520505
 42
0.414213562373095
 10
-32.38220695643857
 20
-99.26681984520502
 10
-32.38220695643857
 20
-99.6168220617356
 42
-0.4142135623730981
 10
-32.58220695643877
 20
-99.81682206173603
 10
-33.18220691118956
 20
-99.81682206173603
 42
-0.414213562373095
 10
-33.38220691118976
 20
-99.6168220617356
  0
LWPOLYLINE
  5
76
330
1F
100
AcDbEntity
  8
chh-07_Pen_No__7_Pen_No__7
  6
Continuous
100
AcDbPolyline
 90
      117
 70
   129
 43
0.0
 10
-45.48220636367617
 20
-83.57136250146479
 10
-40.78220657634635
 20
-83.57136250146479
 10
-40.38220659444636
 20
-83.17136131931535
 10
-39.9822066125457
 20
-83.57136250146479
 10
-36.58220676639257
 20
-83.57136250146479
 42
0.414213562373095
 10
-34.98220683879127
 20
-81.97135777286569
 10
-34.98220683879127
 20
-80.32135289649823
 42
-0.414213562373095
 10
-34.7822068478405
 20
-80.12135230542306
 10
-29.58220708313641
 20
-80.12135230542306
 42
-0.414213562373095
 10
-29.38220709218609
 20
-80.32135289649823
 10
-29.38220709218609
 20
-81.82135732955975
 42
-0.414213562373095
 10
-30.13220705824882
 20
-82.57135954609029
 10
-30.88220702431222
 20
-82.57135954609029
 42
0.9999999999999999
 10
-30.88220702431222
 20
-83.57136250146479
 10
-29.83220707182377
 20
-83.57136250146479
 42
0.4142135623730953
 10
-28.08220715100962
 20
-81.82135732955975
 10
-28.08220715100962
 20
-73.7720537789256
 42
-0.4142135623730951
 10
-27.58220717363425
 20
-73.27205230123856
 10
-18.78220757182558
 20
-73.27205230123856
 10
-18.38220758992559
 20
-72.87205111908868
 10
-17.98220760802538
 20
-73.27205230123856
 10
-13.68220780259621
 20
-73.27205230123856
 42
-0.4142135623730929
 10
-13.18220782522084
 20
-73.7720537789256
 10
-13.18220782522084
 20
-80.77135422641646
 42
-0.414213562373095
 10
-14.68220775734697
 20
-82.27135865947844
 10
-16.58220767137397
 20
-82.27135865947844
 10
-16.58220767137397
 20
-83.57136250146479
 10
-12.0822078749947
 20
-83.57136250146479
 42
0.4142135623731003
 10
-11.88220788404482
 20
-83.37136191038962
 10
-11.88220788404482
 20
-83.00006081305955
 42
0.3540065780508911
 10
-12.47598206917622
 20
-82.26651007614893
 42
-0.8165383495623837
 10
-12.47264666232795
 20
-81.87548777353403
 42
0.3527272744047666
 10
-11.88220788404482
 20
-81.14265532374698
 10
-11.88220788404482
 20
-71.10980330500227
 10
-4.940786842137168
 20
-64.16836143350434
 42
0.1989123673796518
 10
-4.882208200787774
 20
-64.02693965955153
 10
-4.882208200787774
 20
-48.99994933030116
 42
0.3540065780490233
 10
-5.475982385919842
 20
-48.26639859339099
 42
-0.802412668340081
 10
-5.479308906769731
 20
-47.87679516097077
 42
0.3552822646110098
 10
-4.882208200787774
 20
-47.14254384098992
 10
-4.882208200787774
 20
-47.07125463030415
 42
0.4142135623730929
 10
-5.38220817816315
 20
-46.57125315261668
 10
-10.68220793834329
 20
-46.57125315261668
 42
0.4142135623730929
 10
-11.18220791571867
 20
-47.07125463030415
 10
-11.18220791571867
 20
-49.57126201973938
 42
0.170789980324188
 10
-10.52126732662595
 20
-51.44977794144079
 42
1.001712213723718
 10
-9.369725468731716
 20
-50.52804447538139
 42
-2.088541095513009
 10
-6.993729718243635
 20
-50.52685059185291
 42
0.6282387237222236
 10
-6.407218131782466
 20
-51.74429844085571
 10
-6.182208141963796
 20
-51.74429844085571
 10
-6.182208141963796
 20
-63.57130339397921
 10
-12.77215733777481
 20
-70.16127236374625
 42
0.1989123673796139
 10
-13.18220782522084
 20
-71.15122478341706
 10
-13.18220782522084
 20
-71.43145373759674
 42
-0.4382240493440153
 10
-13.68055727667072
 20
-71.97204845925175
 10
-27.58220717363425
 20
-71.97204845925175
 42
0.414213562373095
 10
-29.38220709218609
 20
-73.7720537789256
 10
-29.38220709218609
 20
-78.32134698575011
 42
-0.414213562373095
 10
-29.88220706956146
 20
-78.82134846343713
 10
-34.7822068478405
 20
-78.82134846343713
 42
0.4142135623730951
 10
-36.28220677996752
 20
-80.32135289649823
 10
-36.28220677996752
 20
-81.97135777286569
 42
-0.414213562373095
 10
-36.48220677091785
 20
-82.1713583639404
 10
-46.3822063229522
 20
-82.1713583639404
 42
0.4142135623730951
 10
-46.88220630032758
 20
-82.67135984162788
 42
-0.414213562373095
 10
-47.38220627770229
 20
-83.17136131931535
 10
-54.3623067378598
 20
-83.17136131931535
 42
0.5559838018688548
 10
-55.40940036847952
 20
-82.82078540623495
 42
-2.126832288846482
 10
-55.40940056747967
 20
-80.47192805450265
 42
0.5559839317553018
 10
-54.3623067378598
 20
-80.12135230542306
 10
-53.13220601752078
 20
-80.12135230542306
 42
0.414213562373095
 10
-52.88220602883298
 20
-79.87135156657999
 10
-52.88220602883298
 20
-79.07134920228064
 42
0.414213562373095
 10
-53.13220601752078
 20
-78.82134846343713
 10
-59.88220571208935
 20
-78.82134846343713
 10
-59.88220571208935
 20
-70.27132319498664
 42
0.414213562373095
 10
-61.18220565326604
 20
-68.97131935300027
 10
-68.2822053319978
 20
-68.97131935300027
 10
-68.68220531389801
 20
-68.57131817085083
 10
-70.48220223244938
 20
-68.57131817085083
 42
0.9999999999999999
 10
-70.48220223244938
 20
-69.97132230837477
 10
-61.18220565326604
 20
-69.97132230837477
 10
-61.18220565326604
 20
-78.82134846343713
 42
0.414213562373095
 10
-59.88220571208935
 20
-80.12135230542306
 10
-59.18041945984442
 20
-80.12135230542306
 42
-0.5457627997595207
 10
-58.95292242013883
 20
-80.47501188761686
 42
0.2512837206931914
 10
-58.7798858309685
 20
-83.14026727742075
 42
-0.4926301428361715
 10
-58.91889134067885
 20
-83.51152244161486
 42
0.3296512596499983
 10
-61.18220565326604
 20
-86.57137136758742
 10
-61.18220565326604
 20
-89.47137993817245
 10
-64.48220550394402
 20
-89.47137993817245
 42
1.04474883251493
 10
-64.42101616071216
 20
-90.86870455677764
 10
-60.98605097514165
 20
-90.56728804998204
 42
0.388804307970108
 10
-59.98220570756408
 20
-89.47149547251409
 10
-59.98220570756408
 20
-86.57137136758742
 42
-0.414213562373095
 10
-57.98220579806279
 20
-84.57136545683841
 10
-47.88220625507855
 20
-84.57136545683841
 42
-0.414213562373095
 10
-46.88220630032758
 20
-85.57136841221336
 10
-46.88220630032758
 20
-102.3714180625012
 42
0.414213562373095
 10
-46.68220630937725
 20
-102.5714186535763
 10
-43.58220644964916
 20
-102.5714186535763
 42
0.4142135623730898
 10
-43.38220645869928
 20
-102.3714180625012
 10
-43.38220645869928
 20
-100.5214125950585
 42
0.9999999999999999
 10
-44.38220641344937
 20
-100.5214125950585
 10
-44.38220641344937
 20
-101.2714148115895
 10
-45.88220634557638
 20
-101.2714148115895
 10
-45.88220634557638
 20
-95.77139855703088
 10
-44.38220641344937
 20
-95.77139855703088
 10
-44.38220641344937
 20
-96.52140077356141
 42
0.9999999999999999
 10
-43.38220645869928
 20
-96.52140077356141
 10
-43.38220645869928
 20
-95.47139767041857
 42
0.414213562373094
 10
-44.38220641344937
 20
-94.47139471504407
 10
-45.58220635915134
 20
-94.47139471504407
 10
-45.58220635915134
 20
-91.07138466677156
 10
-43.88220643607443
 20
-91.07138466677156
 42
0.9999999999999999
 10
-43.88220643607443
 20
-90.0713817113975
 10
-45.48220636367617
 20
-90.0713817113975
  0
LWPOLYLINE
  5
77
330
1F
100
AcDbEntity
  8
chh-07_Pen_No__7_Pen_No__7
  6
Continuous
100
AcDbPolyline
 90
        2
 70
   128
 43
0.0
 10
-41.66951570619681
 20
-91.33131452278398
 10
-35.66951570622501
 20
-91.33131452278398
  0
LWPOLYLINE
  5
78
330
1F
100
AcDbEntity
  8
chh-07_Pen_No__7_Pen_No__7
  6
Continuous
100
AcDbPolyline
 90
       12
 70
   129
 43
0.0
 10
-41.66951570619681
 20
-94.20085374449616
 10
-43.38220645869928
 20
-95.47139767041857
 10
-43.38220645869973
 20
-96.52140077356141
 42
-0.9999999999999999
 10
-44.38220641344937
 20
-96.52140077356141
 10
-44.38220641344937
 20
-95.77139855703088
 10
-45.88220634557638
 20
-95.77139855703088
 10
-45.88220634557638
 20
-101.2714148115895
 10
-44.38220641344937
 20
-101.2714148115895
 10
-44.38220641344937
 20
-100.5214125950585
 42
-0.9999999999999999
 10
-43.38220645869973
 20
-100.5214125950585
 10
-43.38220645869928
 20
-102.3714180625012
 10
-41.66951570619681
 20
-103.2335061872866
  0
LWPOLYLINE
  5
79
330
1F
100
AcDbEntity
  8
chh-07_Pen_No__7_Pen_No__7
  6
Continuous
100
AcDbPolyline
 90
       20
 70
   129
 43
0.0
 10
-33.38220691118976
 20
-102.0168279724846
 42
-0.4142135623730948
 10
-33.18220691118956
 20
-101.8168279724841
 10
-32.58220695643877
 20
-101.8168279724841
 42
-0.4142135623730952
 10
-32.38220695643857
 20
-102.0168279724846
 10
-32.38220695643857
 20
-102.3668301890147
 42
0.4142135623730952
 10
-32.18220695643836
 20
-102.5668301890151
 10
-31.58220700168757
 20
-102.5668301890151
 42
0.4142135623730952
 10
-31.38220700168737
 20
-102.3668301890147
 10
-31.38220700168737
 20
-99.26681984520502
 42
0.4142135623730956
 10
-31.58220700168757
 20
-99.06681984520505
 10
-32.18220695643836
 20
-99.06681984520505
 42
0.4142135623730951
 10
-32.38220695643857
 20
-99.26681984520502
 10
-32.38220695643857
 20
-99.6168220617356
 42
-0.4142135623730956
 10
-32.58220695643877
 20
-99.81682206173603
 10
-33.18220691118956
 20
-99.81682206173603
 42
-0.4142135623730951
 10
-33.38220691118976
 20
-99.6168220617356
 10
-33.38220691118976
 20
-98.56681836751801
 10
-35.66951570622501
 20
-97.41106485501294
 10
-35.66951570622501
 20
-106.5282269122217
 10
-33.38220691118976
 20
-105.3724733997167
  0
LWPOLYLINE
  5
7A
330
1F
100
AcDbEntity
  8
chh-06_Pen_No__7_Pen_No__7
  6
Continuous
100
AcDbPolyline
 90
        4
 70
   129
 43
0.0
 10
-98.36150490658268
 20
-65.47132230837416
 10
-98.36150490658268
 20
-68.971322308374
 10
-74.36150490658267
 20
-68.971322308374
 10
-74.36150490658267
 20
-65.47132230837416
  0
LWPOLYLINE
  5
7B
330
1F
100
AcDbEntity
  8
chh-05_Pen_No__7_Pen_No__7
  6
Continuous
100
AcDbPolyline
 90
        4
 70
   129
 43
0.0
 10
-75.86150490658272
 20
77.52867769162519
 10
-30.86150490658301
 20
77.52867769162519
 10
-30.86150490658301
 20
-62.47132230837404
 10
-75.86150490658272
 20
-62.47132230837404
  0
LWPOLYLINE
  5
7C
330
1F
100
AcDbEntity
  8
chh-07_Pen_No__7_Pen_No__7
  6
Continuous
100
AcDbPolyline
 90
       12
 70
   128
 43
0.0
 10
-25.9206675139223
 20
20.19614216708609
 10
-25.9206675139223
 20
27.90146155916118
 42
0.414213562373095
 10
-26.42066751392203
 20
28.40146155916134
 10
-26.95439012904877
 20
28.40146155916134
 42
0.414213562373095
 10
-27.45439012904871
 20
27.90146155916118
 10
-27.45439012904849
 20
-32.38141960543117
 42
0.2679491924311233
 10
-27.20439012904863
 20
-32.81443230732284
 10
-3.245161803922203
 20
-45.07171042506541
 42
-0.2679491924311235
 10
-2.99516180392212
 20
-45.50472312695752
 10
-2.99516180392212
 20
-53.48470047730458
 42
0.1989123673796581
 10
-2.848715194515572
 20
-53.83825386789754
 10
-0.2022685851086337
 20
-56.48470047730469
  0
LWPOLYLINE
  5
7D
330
1F
100
AcDbEntity
  8
chh-09_Pen_No__9_Pen_No__2
  6
Continuous
100
AcDbPolyline
 90
        2
 70
   128
 43
0.0
 10
120.5750959673004
 20
220.5364921811494
 10
0.7871165370478828
 20
220.5364921811494
  0
LWPOLYLINE
  5
7E
330
1F
100
AcDbEntity
  8
chh-09_Pen_No__9_Pen_No__2
  6
Continuous
100
AcDbPolyline
 90
        2
 70
   128
 43
0.0
 10
120.5750959673004
 20
160.8939579602416
 10
-20.66917630445641
 20
160.8939579602416
  0
LWPOLYLINE
  5
7F
330
1F
100
AcDbEntity
  8
chh-09_Pen_No__9_Pen_No__2
  6
Continuous
100
AcDbPolyline
 90
        3
 70
   128
 43
0.0
 10
120.5750959673004
 20
108.9954215138126
 10
-52.23384910599948
 20
108.9954215138126
 10
-52.23384910599948
 20
82.59625244505308
  0
LWPOLYLINE
  5
81
330
1F
100
AcDbEntity
  8
chh-txt_Pen_No__7_Pen_No__7
  6
Hidden
100
AcDbPolyline
 90
        9
 70
   128
 43
0.0
 10
-10.17474595307832
 20
11.88622441547971
 10
-11.51777288996914
 20
11.88622441547971
 10
-11.93524726395911
 20
12.88622441548004
 10
-64.11504394806866
 20
12.88622441548892
 10
-68.62747455757079
 20
14.37726068308553
 10
-64.11504394806822
 20
15.86829695075453
 10
-11.93524726395867
 20
15.8682969507461
 10
-11.51777288996003
 20
16.86829695074643
 10
-10.174745953069
 20
16.8682969507451
  0
LWPOLYLINE
  5
83
330
1F
100
AcDbEntity
  8
chh-09_Pen_No__9_Pen_No__2
  6
Continuous
100
AcDbPolyline
 90
        3
 70
   128
 43
0.0
 10
120.5750959673004
 20
-185.4390450406894
 10
-69.24230822408894
 20
-185.4390450406894
 10
-69.24230822408894
 20
-98.77060428667129
  0
LWPOLYLINE
  5
84
330
1F
100
AcDbEntity
  8
chh-09_Pen_No__9_Pen_No__2
  6
Continuous
100
AcDbPolyline
 90
        3
 70
   128
 43
0.0
 10
120.5750959673004
 20
-220.5732685237541
 10
-110.5896446843175
 20
-220.5732685237541
 10
-110.5896446843175
 20
-72.56841169587769
  0
LWPOLYLINE
  5
85
330
1F
100
AcDbEntity
  8
chh-09_Pen_No__9_Pen_No__2
  6
Continuous
100
AcDbPolyline
 90
        3
 70
   128
 43
0.0
 10
120.2232020907303
 20
72.23779200425507
 10
-4.739527670943655
 20
72.23779200425507
 10
-20.37583147220001
 20
56.60148820299826
  0
LWPOLYLINE
  5
86
330
1F
100
AcDbEntity
  8
chh-09_Pen_No__9_Pen_No__2
  6
Continuous
100
AcDbPolyline
 90
        3
 70
   128
 43
0.0
 10
122.8130325869887
 20
-102.731035516875
 10
-1.808204515860501
 20
-102.731035516875
 10
-1.808204515860279
 20
-55.13193214336354
  0
LWPOLYLINE
  5
87
330
1F
100
AcDbEntity
  8
chh-09_Pen_No__9_Pen_No__2
  6
Continuous
100
AcDbPolyline
 90
        3
 70
   128
 43
0.0
 10
120.6861803577439
 20
-1.38161772415335
 10
15.69803924879754
 20
-1.38161772415335
 10
-9.40115216605042
 20
-26.48080913900131
  0
ELLIPSE
  5
88
330
1F
100
AcDbEntity
  8
chh-08_Pen_No__8_Pen_No__250
  6
Hidden
100
AcDbEllipse
 10
-16.15237357844035
 20
-33.795933022572
 30
0.0
 11
4.305577756414713
 21
-2.805224422913534
 31
0.0
210
0.0
220
0.0
230
1.0
 40
0.6241134751773081
 41
0.0
 42
6.283185307179586
  0
ELLIPSE
  5
89
330
1F
100
AcDbEntity
  8
chh-08_Pen_No__8_Pen_No__61
  6
Hidden
100
AcDbEllipse
 10
-111.2475294785769
 20
-66.24631886083365
 30
0.0
 11
5.138801794138725
 21
0.0
 31
0.0
210
0.0
220
0.0
230
1.0
 40
0.6241134751773082
 41
0.0
 42
6.283185307179586
  0
DIMENSION
  5
BB
330
1F
100
AcDbEntity
  8
chh-txt
  6
Continuous
100
AcDbDimension
  2
*D1
 10
48.91683004232883
 20
-55.70479009471574
 30
0.0
 11
69.7904070603226
 21
-51.36449970738154
 31
0.0
 70
    32
  1
\A1;10mm cover
 71
     5
 42
-1.0
  3
GENERATED_STYLE__1
100
AcDbAlignedDimension
 13
32.36114737339135
 23
-55.70479009471574
 33
0.0
 14
32.36114737339135
 24
-45.33395499231963
 34
0.0
 50
90.0
100
AcDbRotatedDimension
  0
DIMENSION
  5
CE
330
1F
100
AcDbEntity
  8
chh-txt
  6
Continuous
100
AcDbDimension
  2
*D3
 10
48.84081838276266
 20
-32.81443230732284
 30
0.0
 11
45.34081838276266
 21
-4.472603479336336
 31
0.0
 70
    32
  1
\A1;50mm cover
 71
     5
 42
-1.0
  3
GENERATED_STYLE__2
100
AcDbAlignedDimension
 13
18.88562507734881
 23
-32.81443230732284
 33
0.0
 14
18.88562507734881
 24
25.20567605055446
 34
0.0
 50
90.0
100
AcDbRotatedDimension
  0
DIMENSION
  5
DB
330
1F
100
AcDbEntity
  8
chh-txt
  6
Continuous
100
AcDbDimension
  2
*D4
 10
24.23034481259279
 20
-50.1417612370717
 30
0.0
 11
29.74630348639449
 21
-61.62437149141676
 31
0.0
 70
    32
  1
\A1;8mm
 71
     5
 42
-1.0
  3
GENERATED_STYLE__1
100
AcDbAlignedDimension
 13
6.138495093417351
 23
-40.88616958515645
 33
0.0
 14
2.925159669202593
 24
-48.16444730005365
 34
0.0
 50
-117.093786595603
100
AcDbRotatedDimension
  0
DIMENSION
  5
E7
330
1F
100
AcDbEntity
  8
chh-txt
  6
Continuous
100
AcDbDimension
  2
*D5
 10
-186.7165717260817
 20
-69.97132230837433
 30
0.0
 11
-191.7813188302871
 21
-72.96663098000573
 31
0.0
 70
    32
  1
\A1;7.5mm
 71
     5
 42
-1.0
  3
GENERATED_STYLE__1
100
AcDbAlignedDimension
 13
-149.29820539342
 23
-69.97132230837433
 33
0.0
 14
-149.29820539342
 24
-62.47132230837404
 34
0.0
 50
90.0
100
AcDbRotatedDimension
  0
MTEXT
  5
E8
330
1F
100
AcDbEntity
  8
Defpoints_Pen_No__211_Pen_No__115
  6
Continuous
100
AcDbMText
 10
-196.1570550058136
 20
-295.7838526214026
 30
0.0
 40
10.0
 41
0.0
 71
     7
 72
     1
  1
{SC027 Shadowclad Window Head (Direct)}
  7
GENERATED_STYLE_1
 73
     1
 44
1.0
  0
MTEXT
  5
EA
330
1F
100
AcDbEntity
  8
chh-txt_Pen_No__7_Pen_No__7
  6
Continuous
100
AcDbMText
 10
134.2082792848243
 20
217.3058656590032
 30
0.0
 40
5.0
 41
0.0
 71
     7
 72
     1
  1
{Shadowclad }
  7
GENERATED_STYLE_1
 73
     1
 44
1.0
  0
MTEXT
  5
EB
330
1F
100
AcDbEntity
  8
chh-txt_Pen_No__7_Pen_No__7
  6
Continuous
100
AcDbMText
 10
134.2082792848243
 20
156.2382816175503
 30
0.0
 40
5.0
 41
0.0
 71
     7
 72
     1
  1
{Building underlay}
  7
GENERATED_STYLE_1
 73
     1
 44
1.0
  0
MTEXT
  5
EC
330
1F
100
AcDbEntity
  8
chh-txt_Pen_No__7_Pen_No__7
  6
Continuous
100
AcDbMText
 10
134.2082792848243
 20
106.8507153253546
 30
0.0
 40
5.0
 41
0.0
 71
     7
 72
     1
  1
{Lintel}
  7
GENERATED_STYLE_1
 73
     1
 44
1.0
  0
MTEXT
  5
ED
330
1F
100
AcDbEntity
  8
chh-txt_Pen_No__7_Pen_No__7
  6
Continuous
100
AcDbMText
 10
134.2082792848243
 20
-188.9981309202169
 30
0.0
 40
5.0
 41
0.0
 71
     7
 72
     1
  1
{Interior jamb liner over timber packer}
  7
GENERATED_STYLE_1
 73
     1
 44
1.0
  0
MTEXT
  5
EE
330
1F
100
AcDbEntity
  8
chh-txt_Pen_No__7_Pen_No__7
  6
Continuous
100
AcDbMText
 10
134.2082792848243
 20
-221.9345635068351
 30
0.0
 40
5.0
 41
0.0
 71
     7
 72
     1
  1
{Fit air seal over PEF rod}
  7
GENERATED_STYLE_1
 73
     1
 44
1.0
  0
MTEXT
  5
EF
330
1F
100
AcDbEntity
  8
chh-txt_Pen_No__7_Pen_No__7
  6
Continuous
100
AcDbMText
 10
134.2082792848243
 20
-13.57502831440218
 30
0.0
 40
5.0
 41
0.0
 71
     7
 72
     1
  1
{Bevel base of Shadowclad. Treat all cut edges }
  7
GENERATED_STYLE_1
 73
     1
 44
1.0
  0
MTEXT
  5
F0
330
1F
100
AcDbEntity
  8
chh-txt_Pen_No__7_Pen_No__7
  6
Continuous
100
AcDbMText
 10
134.2082792848243
 20
-21.59089078663301
 30
0.0
 40
5.0
 41
0.0
 71
     7
 72
     1
  1
{with Holdfast Metalex Clear }
  7
GENERATED_STYLE_1
 73
     1
 44
1.0
  0
MTEXT
  5
F1
330
1F
100
AcDbEntity
  8
chh-txt_Pen_No__7_Pen_No__7
  6
Continuous
100
AcDbMText
 10
134.2082792848243
 20
68.82174138594267
 30
0.0
 40
5.0
 41
0.0
 71
     7
 72
     1
  1
{Flexible flashing tape strip placed over }
  7
GENERATED_STYLE_1
 73
     1
 44
1.0
  0
MTEXT
  5
F2
330
1F
100
AcDbEntity
  8
chh-txt_Pen_No__7_Pen_No__7
  6
Continuous
100
AcDbMText
 10
134.2082792848243
 20
59.40994138594267
 30
0.0
 40
5.0
 41
0.0
 71
     7
 72
     1
  1
{building underlay and flashing joint}
  7
GENERATED_STYLE_1
 73
     1
 44
1.0
  0
MTEXT
  5
F3
330
1F
100
AcDbEntity
  8
chh-txt_Pen_No__7_Pen_No__7
  6
Continuous
100
AcDbMText
 10
134.2082792848243
 20
-108.7975292412175
 30
0.0
 40
5.0
 41
0.0
 71
     7
 72
     1
  1
{Head flashing with 15 degree slope. 15mm high }
  7
GENERATED_STYLE_1
 73
     1
 44
1.0
  0
MTEXT
  5
F4
330
1F
100
AcDbEntity
  8
chh-txt_Pen_No__7_Pen_No__7
  6
Continuous
100
AcDbMText
 10
134.2082792848243
 20
-127.6211292412175
 30
0.0
 40
5.0
 41
0.0
 71
     7
 72
     1
  1
{Sealant between head flashing & window flange }
  7
GENERATED_STYLE_1
 73
     1
 44
1.0
  0
MTEXT
  5
F5
330
1F
100
AcDbEntity
  8
chh-txt_Pen_No__7_Pen_No__7
  6
Continuous
100
AcDbMText
 10
134.2082792848243
 20
-118.2093292412175
 30
0.0
 40
5.0
 41
0.0
 71
     7
 72
     1
  1
{stop ends within cavity}
  7
GENERATED_STYLE_1
 73
     1
 44
1.0
  0
MTEXT
  5
F6
330
1F
100
AcDbEntity
  8
chh-txt_Pen_No__7_Pen_No__7
  6
Continuous
100
AcDbMText
 10
134.2082792848243
 20
-137.0329292412175
 30
0.0
 40
5.0
 41
0.0
 71
     7
 72
     1
  1
{in very high wind zone & above}
  7
GENERATED_STYLE_1
 73
     1
 44
1.0
  0
MTEXT
  5
F7
330
1F
100
AcDbEntity
  8
chh-txt_Pen_No__7_Pen_No__7
  6
Continuous
100
AcDbMText
 10
134.2082792848243
 20
-4.163228314402184
 30
0.0
 40
5.0
 41
0.0
 71
     7
 72
     1
  1
{50mm long sealant strip at both ends of flashing}
  7
GENERATED_STYLE_1
 73
     1
 44
1.0
  0
ENDSEC
  0
SECTION
  2
OBJECTS
  0
DICTIONARY
  5
C
330
0
100
AcDbDictionary
281
     1
  3
ACAD_GROUP
350
D
  3
ACAD_LAYOUT
350
1A
  3
ACAD_MLEADERSTYLE
350
100
  3
ACAD_MLINESTYLE
350
17
  3
ACAD_PLOTSETTINGS
350
19
  3
ACAD_PLOTSTYLENAME
350
E
  3
ACAD_SCALELIST
350
99
  3
ACAD_TABLESTYLE
350
FF
  3
ACAD_VISUALSTYLE
350
2A
  3
AcDbVariableDictionary
350
FD
  3
WATERMARKS
350
FB
  0
DICTIONARY
  5
D
102
{ACAD_REACTORS
330
C
102
}
330
C
100
AcDbDictionary
281
     1
  0
DICTIONARY
  5
1A
102
{ACAD_REACTORS
330
C
102
}
330
C
100
AcDbDictionary
281
     1
  3
Layout1
350
1E
  3
Layout2
350
26
  3
Model
350
22
  0
DICTIONARY
  5
100
102
{ACAD_REACTORS
330
C
102
}
330
C
100
AcDbDictionary
281
     1
  0
DICTIONARY
  5
17
102
{ACAD_REACTORS
330
C
102
}
330
C
100
AcDbDictionary
281
     1
  3
Standard
350
18
  0
DICTIONARY
  5
19
102
{ACAD_REACTORS
330
C
102
}
330
C
100
AcDbDictionary
281
     1
  0
ACDBDICTIONARYWDFLT
  5
E
102
{ACAD_REACTORS
330
C
102
}
330
C
100
AcDbDictionary
281
     1
  3
Normal
350
F
100
AcDbDictionaryWithDefault
340
F
  0
DICTIONARY
  5
99
102
{ACAD_REACTORS
330
C
102
}
330
C
100
AcDbDictionary
281
     1
  3
A0
350
9A
  3
A1
350
9B
  3
A2
350
9C
  3
A3
350
9D
  3
A4
350
9E
  3
A5
350
9F
  3
A6
350
A0
  3
A7
350
A1
  3
A8
350
A2
  3
A9
350
A3
  3
B0
350
A4
  3
B1
350
A5
  3
B2
350
A6
  3
B3
350
A7
  3
B4
350
A8
  3
B5
350
A9
  3
B6
350
AA
  3
B7
350
AB
  3
B8
350
AC
  3
B9
350
AD
  3
C0
350
AE
  3
C1
350
AF
  3
C2
350
B0
  3
C3
350
B1
  3
C4
350
B2
  3
C5
350
B3
  3
C6
350
B4
  3
C7
350
B5
  3
C8
350
B6
  3
C9
350
B7
  3
D0
350
B8
  3
D1
350
B9
  3
D2
350
BA
  0
DICTIONARY
  5
FF
102
{ACAD_REACTORS
330
C
102
}
330
C
100
AcDbDictionary
281
     1
  0
DICTIONARY
  5
2A
102
{ACAD_REACTORS
330
C
102
}
330
C
100
AcDbDictionary
281
     1
  3
2dWireframe
350
2F
  3
3D Hidden
350
31
  3
3dWireframe
350
30
  3
Basic
350
32
  3
Brighten
350
36
  3
ColorChange
350
3A
  3
Conceptual
350
34
  3
Dim
350
35
  3
Facepattern
350
39
  3
Flat
350
2B
  3
FlatWithEdges
350
2C
  3
Gouraud
350
2D
  3
GouraudWithEdges
350
2E
  3
Linepattern
350
38
  3
Realistic
350
33
  3
Thicken
350
37
  0
DICTIONARY
  5
FD
102
{ACAD_REACTORS
330
C
102
}
330
C
100
AcDbDictionary
281
     1
  3
CANNOSCALE
350
FE
  0
DICTIONARY
  5
FB
102
{ACAD_REACTORS
330
C
102
}
330
C
100
AcDbDictionary
281
     1
  3
AC_WATERMARK
350
FC
  0
LAYOUT
  5
1E
102
{ACAD_REACTORS
330
1A
102
}
330
1A
100
AcDbPlotSettings
  1

  2
none_device
  4

  6

 40
0.0
 41
0.0
 42
0.0
 43
0.0
 44
0.0
 45
0.0
 46
0.0
 47
0.0
 48
0.0
 49
0.0
140
0.0
141
0.0
142
1.0
143
1.0
 70
   688
 72
     0
 73
     0
 74
     5
  7

 75
    16
 76
     0
 77
     2
 78
   300
147
1.0
148
0.0
149
0.0
100
AcDbLayout
  1
Layout1
 70
     1
 71
     1
 10
0.0
 20
0.0
 11
12.0
 21
9.0
 12
0.0
 22
0.0
 32
0.0
 14
1.000000000000000E+20
 24
1.000000000000000E+20
 34
1.000000000000000E+20
 15
-1.000000000000000E+20
 25
-1.000000000000000E+20
 35
-1.000000000000000E+20
146
0.0
 13
0.0
 23
0.0
 33
0.0
 16
1.0
 26
0.0
 36
0.0
 17
0.0
 27
1.0
 37
0.0
 76
     0
330
1B
  0
LAYOUT
  5
26
102
{ACAD_REACTORS
330
1A
102
}
330
1A
100
AcDbPlotSettings
  1

  2
none_device
  4

  6

 40
0.0
 41
0.0
 42
0.0
 43
0.0
 44
0.0
 45
0.0
 46
0.0
 47
0.0
 48
0.0
 49
0.0
140
0.0
141
0.0
142
1.0
143
1.0
 70
   688
 72
     0
 73
     0
 74
     5
  7

 75
    16
 76
     0
 77
     2
 78
   300
147
1.0
148
0.0
149
0.0
100
AcDbLayout
  1
Layout2
 70
     1
 71
     2
 10
0.0
 20
0.0
 11
0.0
 21
0.0
 12
0.0
 22
0.0
 32
0.0
 14
0.0
 24
0.0
 34
0.0
 15
0.0
 25
0.0
 35
0.0
146
0.0
 13
0.0
 23
0.0
 33
0.0
 16
1.0
 26
0.0
 36
0.0
 17
0.0
 27
1.0
 37
0.0
 76
     0
330
23
  0
LAYOUT
  5
22
102
{ACAD_REACTORS
330
1A
102
}
330
1A
100
AcDbPlotSettings
  1

  2
none_device
  4

  6

 40
0.0
 41
0.0
 42
0.0
 43
0.0
 44
0.0
 45
0.0
 46
0.0
 47
0.0
 48
0.0
 49
0.0
140
0.0
141
0.0
142
1.0
143
1.0
 70
  1712
 72
     0
 73
     0
 74
     0
  7

 75
     0
 76
     0
 77
     2
 78
   300
147
1.0
148
0.0
149
0.0
100
AcDbLayout
  1
Model
 70
     1
 71
     0
 10
0.0
 20
0.0
 11
12.0
 21
9.0
 12
0.0
 22
0.0
 32
0.0
 14
1.000000000000000E+20
 24
1.000000000000000E+20
 34
1.000000000000000E+20
 15
-1.000000000000000E+20
 25
-1.000000000000000E+20
 35
-1.000000000000000E+20
146
0.0
 13
0.0
 23
0.0
 33
0.0
 16
1.0
 26
0.0
 36
0.0
 17
0.0
 27
1.0
 37
0.0
 76
     0
330
1F
331
29
  0
MLINESTYLE
  5
18
102
{ACAD_REACTORS
330
17
102
}
330
17
100
AcDbMlineStyle
  2
Standard
 70
     0
  3

 62
   256
 51
90.0
 52
90.0
 71
     2
 49
0.5
 62
   256
  6
BYLAYER
 49
-0.5
 62
   256
  6
BYLAYER
  0
ACDBPLACEHOLDER
  5
F
102
{ACAD_REACTORS
330
E
102
}
330
E
  0
SCALE
  5
9A
102
{ACAD_REACTORS
330
99
102
}
330
99
100
AcDbScale
 70
     0
300
1:1
140
1.0
141
1.0
290
     1
  0
SCALE
  5
9B
102
{ACAD_REACTORS
330
99
102
}
330
99
100
AcDbScale
 70
     0
300
1:2
140
1.0
141
2.0
290
     0
  0
SCALE
  5
9C
102
{ACAD_REACTORS
330
99
102
}
330
99
100
AcDbScale
 70
     0
300
1:4
140
1.0
141
4.0
290
     0
  0
SCALE
  5
9D
102
{ACAD_REACTORS
330
99
102
}
330
99
100
AcDbScale
 70
     0
300
1:5
140
1.0
141
5.0
290
     0
  0
SCALE
  5
9E
102
{ACAD_REACTORS
330
99
102
}
330
99
100
AcDbScale
 70
     0
300
1:8
140
1.0
141
8.0
290
     0
  0
SCALE
  5
9F
102
{ACAD_REACTORS
330
99
102
}
330
99
100
AcDbScale
 70
     0
300
1:10
140
1.0
141
10.0
290
     0
  0
SCALE
  5
A0
102
{ACAD_REACTORS
330
99
102
}
330
99
100
AcDbScale
 70
     0
300
1:16
140
1.0
141
16.0
290
     0
  0
SCALE
  5
A1
102
{ACAD_REACTORS
330
99
102
}
330
99
100
AcDbScale
 70
     0
300
1:20
140
1.0
141
20.0
290
     0
  0
SCALE
  5
A2
102
{ACAD_REACTORS
330
99
102
}
330
99
100
AcDbScale
 70
     0
300
1:30
140
1.0
141
30.0
290
     0
  0
SCALE
  5
A3
102
{ACAD_REACTORS
330
99
102
}
330
99
100
AcDbScale
 70
     0
300
1:40
140
1.0
141
40.0
290
     0
  0
SCALE
  5
A4
102
{ACAD_REACTORS
330
99
102
}
330
99
100
AcDbScale
 70
     0
300
1:50
140
1.0
141
50.0
290
     0
  0
SCALE
  5
A5
102
{ACAD_REACTORS
330
99
102
}
330
99
100
AcDbScale
 70
     0
300
1:100
140
1.0
141
100.0
290
     0
  0
SCALE
  5
A6
102
{ACAD_REACTORS
330
99
102
}
330
99
100
AcDbScale
 70
     0
300
2:1
140
2.0
141
1.0
290
     0
  0
SCALE
  5
A7
102
{ACAD_REACTORS
330
99
102
}
330
99
100
AcDbScale
 70
     0
300
4:1
140
4.0
141
1.0
290
     0
  0
SCALE
  5
A8
102
{ACAD_REACTORS
330
99
102
}
330
99
100
AcDbScale
 70
     0
300
8:1
140
8.0
141
1.0
290
     0
  0
SCALE
  5
A9
102
{ACAD_REACTORS
330
99
102
}
330
99
100
AcDbScale
 70
     0
300
10:1
140
10.0
141
1.0
290
     0
  0
SCALE
  5
AA
102
{ACAD_REACTORS
330
99
102
}
330
99
100
AcDbScale
 70
     0
300
100:1
140
100.0
141
1.0
290
     0
  0
SCALE
  5
AB
102
{ACAD_REACTORS
330
99
102
}
330
99
100
AcDbScale
 70
     0
300
1/128" = 1'-0"
140
0.0078125
141
12.0
290
     0
  0
SCALE
  5
AC
102
{ACAD_REACTORS
330
99
102
}
330
99
100
AcDbScale
 70
     0
300
1/64" = 1'-0"
140
0.015625
141
12.0
290
     0
  0
SCALE
  5
AD
102
{ACAD_REACTORS
330
99
102
}
330
99
100
AcDbScale
 70
     0
300
1/32" = 1'-0"
140
0.03125
141
12.0
290
     0
  0
SCALE
  5
AE
102
{ACAD_REACTORS
330
99
102
}
330
99
100
AcDbScale
 70
     0
300
1/16" = 1'-0"
140
0.0625
141
12.0
290
     0
  0
SCALE
  5
AF
102
{ACAD_REACTORS
330
99
102
}
330
99
100
AcDbScale
 70
     0
300
3/32" = 1'-0"
140
0.09375
141
12.0
290
     0
  0
SCALE
  5
B0
102
{ACAD_REACTORS
330
99
102
}
330
99
100
AcDbScale
 70
     0
300
1/8" = 1'-0"
140
0.125
141
12.0
290
     0
  0
SCALE
  5
B1
102
{ACAD_REACTORS
330
99
102
}
330
99
100
AcDbScale
 70
     0
300
3/16" = 1'-0"
140
0.1875
141
12.0
290
     0
  0
SCALE
  5
B2
102
{ACAD_REACTORS
330
99
102
}
330
99
100
AcDbScale
 70
     0
300
1/4" = 1'-0"
140
0.25
141
12.0
290
     0
  0
SCALE
  5
B3
102
{ACAD_REACTORS
330
99
102
}
330
99
100
AcDbScale
 70
     0
300
3/8" = 1'-0"
140
0.375
141
12.0
290
     0
  0
SCALE
  5
B4
102
{ACAD_REACTORS
330
99
102
}
330
99
100
AcDbScale
 70
     0
300
1/2" = 1'-0"
140
0.5
141
12.0
290
     0
  0
SCALE
  5
B5
102
{ACAD_REACTORS
330
99
102
}
330
99
100
AcDbScale
 70
     0
300
3/4" = 1'-0"
140
0.75
141
12.0
290
     0
  0
SCALE
  5
B6
102
{ACAD_REACTORS
330
99
102
}
330
99
100
AcDbScale
 70
     0
300
1" = 1'-0"
140
1.0
141
12.0
290
     0
  0
SCALE
  5
B7
102
{ACAD_REACTORS
330
99
102
}
330
99
100
AcDbScale
 70
     0
300
1-1/2" = 1'-0"
140
1.5
141
12.0
290
     0
  0
SCALE
  5
B8
102
{ACAD_REACTORS
330
99
102
}
330
99
100
AcDbScale
 70
     0
300
3" = 1'-0"
140
3.0
141
12.0
290
     0
  0
SCALE
  5
B9
102
{ACAD_REACTORS
330
99
102
}
330
99
100
AcDbScale
 70
     0
300
6" = 1'-0"
140
6.0
141
12.0
290
     0
  0
SCALE
  5
BA
102
{ACAD_REACTORS
330
99
102
}
330
99
100
AcDbScale
 70
     0
300
1'-0" = 1'-0"
140
12.0
141
12.0
290
     0
  0
VISUALSTYLE
  5
2F
102
{ACAD_REACTORS
330
2A
102
}
330
2A
100
AcDbVisualStyle
  2
2dWireframe
 70
     4
 71
     0
 72
     2
 73
     0
 90
        0
 40
-0.6
 41
-30.0
 62
     5
 63
     7
421
 16777215
 74
     1
 91
        4
 64
     7
 65
   257
 75
     1
175
     1
 42
1.0
 92
        0
 66
   257
 43
1.0
 76
     1
 77
     6
 78
     2
 67
     7
 79
     5
170
     0
171
     0
290
     0
174
     0
 93
        1
 44
0.0
173
     0
291
     0
 45
0.0
1001
ACAD
1000
AcDbSavedByObjectVersion
1070
     0
  0
VISUALSTYLE
  5
31
102
{ACAD_REACTORS
330
2A
102
}
330
2A
100
AcDbVisualStyle
  2
3D Hidden
 70
     6
 71
     1
 72
     2
 73
     2
 90
        0
 40
-0.6
 41
-30.0
 62
     5
 63
     7
421
 16777215
 74
     2
 91
        2
 64
     7
 65
   257
 75
     2
175
     1
 42
40.0
 92
        0
 66
   257
 43
1.0
 76
     1
 77
     6
 78
     2
 67
     7
 79
     3
170
     0
171
     0
290
     0
174
     0
 93
        1
 44
0.0
173
     0
291
     0
 45
0.0
1001
ACAD
1000
AcDbSavedByObjectVersion
1070
     0
  0
VISUALSTYLE
  5
30
102
{ACAD_REACTORS
330
2A
102
}
330
2A
100
AcDbVisualStyle
  2
3dWireframe
 70
     5
 71
     0
 72
     2
 73
     0
 90
        0
 40
-0.6
 41
-30.0
 62
     5
 63
     7
421
 16777215
 74
     1
 91
        4
 64
     7
 65
   257
 75
     1
175
     1
 42
1.0
 92
        0
 66
   257
 43
1.0
 76
     1
 77
     6
 78
     2
 67
     7
 79
     5
170
     0
171
     0
290
     0
174
     0
 93
        1
 44
0.0
173
     0
291
     0
 45
0.0
1001
ACAD
1000
AcDbSavedByObjectVersion
1070
     0
  0
VISUALSTYLE
  5
32
102
{ACAD_REACTORS
330
2A
102
}
330
2A
100
AcDbVisualStyle
  2
Basic
 70
     7
 71
     1
 72
     0
 73
     1
 90
        0
 40
-0.6
 41
-30.0
 62
     5
 63
     7
421
 16777215
 74
     0
 91
        4
 64
     7
 65
   257
 75
     1
175
     1
 42
1.0
 92
        8
 66
     7
 43
1.0
 76
     1
 77
     6
 78
     2
 67
     7
 79
     5
170
     0
171
     0
290
     0
174
     0
 93
        1
 44
0.0
173
     0
291
     1
 45
0.0
1001
ACAD
1000
AcDbSavedByObjectVersion
1070
     0
  0
VISUALSTYLE
  5
36
102
{ACAD_REACTORS
330
2A
102
}
330
2A
100
AcDbVisualStyle
  2
Brighten
 70
    12
 71
     2
 72
     2
 73
     0
 90
        0
 40
-0.6
 41
-30.0
 62
     5
 63
     7
421
 16777215
 74
     1
 91
        4
 64
     7
 65
   257
 75
     1
175
     1
 42
1.0
 92
        8
 66
     7
 43
1.0
 76
     1
 77
     6
 78
     2
 67
     7
 79
     5
170
     0
171
     0
290
     0
174
     0
 93
        1
 44
50.0
173
     0
291
     1
 45
0.0
1001
ACAD
1000
AcDbSavedByObjectVersion
1070
     0
  0
VISUALSTYLE
  5
3A
102
{ACAD_REACTORS
330
2A
102
}
330
2A
100
AcDbVisualStyle
  2
ColorChange
 70
    16
 71
     2
 72
     2
 73
     3
 90
        0
 40
-0.6
 41
-30.0
 62
     5
 63
     8
421
  8421504
 74
     1
 91
        4
 64
     7
 65
   257
 75
     1
175
     1
 42
1.0
 92
        8
 66
     8
424
  8421504
 43
1.0
 76
     1
 77
     6
 78
     2
 67
     7
 79
     5
170
     0
171
     0
290
     0
174
     0
 93
        1
 44
0.0
173
     0
291
     1
 45
0.0
1001
ACAD
1000
AcDbSavedByObjectVersion
1070
     0
  0
VISUALSTYLE
  5
34
102
{ACAD_REACTORS
330
2A
102
}
330
2A
100
AcDbVisualStyle
  2
Conceptual
 70
     9
 71
     3
 72
     2
 73
     0
 90
        0
 40
-0.6
 41
-30.0
 62
     5
 63
     7
421
 16777215
 74
     2
 91
        2
 64
     7
 65
   257
 75
     1
175
     1
 42
40.0
 92
        8
 66
     7
 43
1.0
 76
     1
 77
     6
 78
     2
 67
     7
 79
     3
170
     0
171
     0
290
     0
174
     0
 93
        1
 44
0.0
173
     0
291
     0
 45
0.0
1001
ACAD
1000
AcDbSavedByObjectVersion
1070
     0
  0
VISUALSTYLE
  5
35
102
{ACAD_REACTORS
330
2A
102
}
330
2A
100
AcDbVisualStyle
  2
Dim
 70
    11
 71
     2
 72
     2
 73
     0
 90
        0
 40
-0.6
 41
-30.0
 62
     5
 63
     7
421
 16777215
 74
     1
 91
        4
 64
     7
 65
   257
 75
     1
175
     1
 42
1.0
 92
        8
 66
     7
 43
1.0
 76
     1
 77
     6
 78
     2
 67
     7
 79
     5
170
     0
171
     0
290
     0
174
     0
 93
        1
 44
-50.0
173
     0
291
     1
 45
0.0
1001
ACAD
1000
AcDbSavedByObjectVersion
1070
     0
  0
VISUALSTYLE
  5
39
102
{ACAD_REACTORS
330
2A
102
}
330
2A
100
AcDbVisualStyle
  2
Facepattern
 70
    15
 71
     2
 72
     2
 73
     0
 90
        0
 40
-0.6
 41
-30.0
 62
     5
 63
     7
421
 16777215
 74
     1
 91
        4
 64
     7
 65
   257
 75
     1
175
     1
 42
1.0
 92
        8
 66
     7
 43
1.0
 76
     1
 77
     6
 78
     2
 67
     7
 79
     5
170
     0
171
     0
290
     0
174
     0
 93
        1
 44
0.0
173
     0
291
     1
 45
0.0
1001
ACAD
1000
AcDbSavedByObjectVersion
1070
     0
  0
VISUALSTYLE
  5
2B
102
{ACAD_REACTORS
330
2A
102
}
330
2A
100
AcDbVisualStyle
  2
Flat
 70
     0
 71
     2
 72
     1
 73
     1
 90
        2
 40
-0.6
 41
30.0
 62
     5
 63
     7
421
 16777215
 74
     0
 91
        4
 64
     7
 65
   257
 75
     1
175
     1
 42
1.0
 92
        8
 66
     7
 43
1.0
 76
     1
 77
     6
 78
     2
 67
     7
 79
     5
170
     0
171
     0
290
     0
174
     0
 93
       13
 44
0.0
173
     0
291
     1
 45
0.0
1001
ACAD
1000
AcDbSavedByObjectVersion
1070
     0
  0
VISUALSTYLE
  5
2C
102
{ACAD_REACTORS
330
2A
102
}
330
2A
100
AcDbVisualStyle
  2
FlatWithEdges
 70
     1
 71
     2
 72
     1
 73
     1
 90
        2
 40
-0.6
 41
30.0
 62
     5
 63
     7
421
 16777215
 74
     1
 91
        4
 64
     7
 65
   257
 75
     1
175
     1
 42
1.0
 92
        0
 66
   257
 43
1.0
 76
     1
 77
     6
 78
     2
 67
     7
 79
     5
170
     0
171
     0
290
     0
174
     0
 93
       13
 44
0.0
173
     0
291
     1
 45
0.0
1001
ACAD
1000
AcDbSavedByObjectVersion
1070
     0
  0
VISUALSTYLE
  5
2D
102
{ACAD_REACTORS
330
2A
102
}
330
2A
100
AcDbVisualStyle
  2
Gouraud
 70
     2
 71
     2
 72
     2
 73
     1
 90
        2
 40
-0.6
 41
30.0
 62
     5
 63
     7
421
 16777215
 74
     0
 91
        4
 64
     7
 65
   257
 75
     1
175
     1
 42
1.0
 92
        0
 66
     7
 43
1.0
 76
     1
 77
     6
 78
     2
 67
     7
 79
     5
170
     0
171
     0
290
     0
174
     0
 93
       13
 44
0.0
173
     0
291
     1
 45
0.0
1001
ACAD
1000
AcDbSavedByObjectVersion
1070
     0
  0
VISUALSTYLE
  5
2E
102
{ACAD_REACTORS
330
2A
102
}
330
2A
100
AcDbVisualStyle
  2
GouraudWithEdges
 70
     3
 71
     2
 72
     2
 73
     1
 90
        2
 40
-0.6
 41
30.0
 62
     5
 63
     7
421
 16777215
 74
     1
 91
        4
 64
     7
 65
   257
 75
     1
175
     1
 42
1.0
 92
        0
 66
   257
 43
1.0
 76
     1
 77
     6
 78
     2
 67
     7
 79
     5
170
     0
171
     0
290
     0
174
     0
 93
       13
 44
0.0
173
     0
291
     1
 45
0.0
1001
ACAD
1000
AcDbSavedByObjectVersion
1070
     0
  0
VISUALSTYLE
  5
38
102
{ACAD_REACTORS
330
2A
102
}
330
2A
100
AcDbVisualStyle
  2
Linepattern
 70
    14
 71
     2
 72
     2
 73
     0
 90
        0
 40
-0.6
 41
-30.0
 62
     5
 63
     7
421
 16777215
 74
     1
 91
        4
 64
     7
 65
   257
 75
     7
175
     7
 42
1.0
 92
        8
 66
     7
 43
1.0
 76
     1
 77
     6
 78
     2
 67
     7
 79
     5
170
     0
171
     0
290
     0
174
     0
 93
        1
 44
0.0
173
     0
291
     1
 45
0.0
1001
ACAD
1000
AcDbSavedByObjectVersion
1070
     0
  0
VISUALSTYLE
  5
33
102
{ACAD_REACTORS
330
2A
102
}
330
2A
100
AcDbVisualStyle
  2
Realistic
 70
     8
 71
     2
 72
     2
 73
     0
 90
        0
 40
-0.6
 41
-30.0
 62
     5
 63
     7
421
 16777215
 74
     1
 91
        0
 64
     7
 65
   257
 75
     1
175
     1
 42
1.0
 92
        8
 66
     8
424
  7895160
 43
1.0
 76
     1
 77
     6
 78
     2
 67
     7
 79
     5
170
     0
171
     0
290
     0
174
     0
 93
       13
 44
0.0
173
     0
291
     0
 45
0.0
1001
ACAD
1000
AcDbSavedByObjectVersion
1070
     0
  0
VISUALSTYLE
  5
37
102
{ACAD_REACTORS
330
2A
102
}
330
2A
100
AcDbVisualStyle
  2
Thicken
 70
    13
 71
     2
 72
     2
 73
     0
 90
        0
 40
-0.6
 41
-30.0
 62
     5
 63
     7
421
 16777215
 74
     1
 91
        4
 64
     7
 65
   257
 75
     1
175
     1
 42
1.0
 92
       12
 66
     7
 43
1.0
 76
     1
 77
     6
 78
     2
 67
     7
 79
     5
170
     0
171
     0
290
     0
174
     0
 93
        1
 44
0.0
173
     0
291
     1
 45
0.0
1001
ACAD
1000
AcDbSavedByObjectVersion
1070
     0
  0
DICTIONARYVAR
  5
FE
102
{ACAD_REACTORS
330
FD
102
}
330
FD
100
DictionaryVariables
280
     0
  1
1:1
  0
XRECORD
  5
FC
102
{ACAD_REACTORS
330
FB
102
}
330
FB
100
AcDbXrecord
280
     1
1000
This DWG file was created in ArchiCAD(TM)®
  0
ENDSEC
  0
EOF
