  0
SECTION
  2
HEADER
  9
$ACADVER
  1
AC1018
  9
$ACADMAINTVER
 70
     0
  9
$DWGCODEPAGE
  3
ANSI_1252
  9
$INSBASE
 10
0.0
 20
0.0
 30
0.0
  9
$EXTMIN
 10
1.000000000000000E+20
 20
1.000000000000000E+20
 30
1.000000000000000E+20
  9
$EXTMAX
 10
-1.000000000000000E+20
 20
-1.000000000000000E+20
 30
-1.000000000000000E+20
  9
$LIMMIN
 10
0.0
 20
0.0
  9
$LIMMAX
 10
12.0
 20
9.0
  9
$ORTHOMODE
 70
     0
  9
$REGENMODE
 70
     1
  9
$FILLMODE
 70
     1
  9
$QTEXTMODE
 70
     0
  9
$MIRRTEXT
 70
     1
  9
$LTSCALE
 40
1.0
  9
$ATTMODE
 70
     1
  9
$TEXTSIZE
 40
0.2
  9
$TRACEWID
 40
0.05
  9
$TEXTSTYLE
  7
Standard
  9
$CLAYER
  8
0
  9
$CELTYPE
  6
ByLayer
  9
$CECOLOR
 62
   256
  9
$CELTSCALE
 40
1.0
  9
$DISPSILH
 70
     0
  9
$DIMSCALE
 40
1.0
  9
$DIMASZ
 40
0.18
  9
$DIMEXO
 40
0.0625
  9
$DIMDLI
 40
0.38
  9
$DIMRND
 40
0.0
  9
$DIMDLE
 40
0.0
  9
$DIMEXE
 40
0.18
  9
$DIMTP
 40
0.0
  9
$DIMTM
 40
0.0
  9
$DIMTXT
 40
0.18
  9
$DIMCEN
 40
0.09
  9
$DIMTSZ
 40
0.0
  9
$DIMTOL
 70
     0
  9
$DIMLIM
 70
     0
  9
$DIMTIH
 70
     1
  9
$DIMTOH
 70
     1
  9
$DIMSE1
 70
     0
  9
$DIMSE2
 70
     0
  9
$DIMTAD
 70
     0
  9
$DIMZIN
 70
     0
  9
$DIMBLK
  1

  9
$DIMASO
 70
     1
  9
$DIMSHO
 70
     1
  9
$DIMPOST
  1

  9
$DIMAPOST
  1

  9
$DIMALT
 70
     0
  9
$DIMALTD
 70
     2
  9
$DIMALTF
 40
25.4
  9
$DIMLFAC
 40
1.0
  9
$DIMTOFL
 70
     0
  9
$DIMTVP
 40
0.0
  9
$DIMTIX
 70
     0
  9
$DIMSOXD
 70
     0
  9
$DIMSAH
 70
     0
  9
$DIMBLK1
  1

  9
$DIMBLK2
  1

  9
$DIMSTYLE
  2
Standard
  9
$DIMCLRD
 70
     0
  9
$DIMCLRE
 70
     0
  9
$DIMCLRT
 70
     0
  9
$DIMTFAC
 40
1.0
  9
$DIMGAP
 40
0.09
  9
$DIMJUST
 70
     0
  9
$DIMSD1
 70
     0
  9
$DIMSD2
 70
     0
  9
$DIMTOLJ
 70
     1
  9
$DIMTZIN
 70
     0
  9
$DIMALTZ
 70
     0
  9
$DIMALTTZ
 70
     0
  9
$DIMUPT
 70
     0
  9
$DIMDEC
 70
     4
  9
$DIMTDEC
 70
     4
  9
$DIMALTU
 70
     2
  9
$DIMALTTD
 70
     2
  9
$DIMTXSTY
  7
Standard
  9
$DIMAUNIT
 70
     0
  9
$DIMADEC
 70
     0
  9
$DIMALTRND
 40
0.0
  9
$DIMAZIN
 70
     0
  9
$DIMDSEP
 70
    46
  9
$DIMATFIT
 70
     3
  9
$DIMFRAC
 70
     0
  9
$DIMLDRBLK
  1

  9
$DIMLUNIT
 70
     2
  9
$DIMLWD
 70
    -2
  9
$DIMLWE
 70
    -2
  9
$DIMTMOVE
 70
     0
  9
$LUNITS
 70
     2
  9
$LUPREC
 70
     4
  9
$SKETCHINC
 40
0.1
  9
$FILLETRAD
 40
0.5
  9
$AUNITS
 70
     0
  9
$AUPREC
 70
     0
  9
$MENU
  1
.
  9
$ELEVATION
 40
0.0
  9
$PELEVATION
 40
0.0
  9
$THICKNESS
 40
0.0
  9
$LIMCHECK
 70
     0
  9
$CHAMFERA
 40
0.5
  9
$CHAMFERB
 40
0.5
  9
$CHAMFERC
 40
1.0
  9
$CHAMFERD
 40
0.0
  9
$SKPOLY
 70
     0
  9
$TDCREATE
 40
2455966.623797917
  9
$TDUCREATE
 40
2455966.08213125
  9
$TDUPDATE
 40
2455966.623797928
  9
$TDUUPDATE
 40
2455966.082131261
  9
$TDINDWG
 40
0.0000000116
  9
$TDUSRTIMER
 40
0.0000000116
  9
$USRTIMER
 70
     1
  9
$ANGBASE
 50
0.0
  9
$ANGDIR
 70
     0
  9
$PDMODE
 70
     0
  9
$PDSIZE
 40
0.0
  9
$PLINEWID
 40
0.0
  9
$SPLFRAME
 70
     0
  9
$SPLINETYPE
 70
     6
  9
$SPLINESEGS
 70
     8
  9
$HANDSEED
  5
B2
  9
$SURFTAB1
 70
     6
  9
$SURFTAB2
 70
     6
  9
$SURFTYPE
 70
     6
  9
$SURFU
 70
     6
  9
$SURFV
 70
     6
  9
$UCSBASE
  2

  9
$UCSNAME
  2

  9
$UCSORG
 10
0.0
 20
0.0
 30
0.0
  9
$UCSXDIR
 10
1.0
 20
0.0
 30
0.0
  9
$UCSYDIR
 10
0.0
 20
1.0
 30
0.0
  9
$UCSORTHOREF
  2

  9
$UCSORTHOVIEW
 70
     0
  9
$UCSORGTOP
 10
0.0
 20
0.0
 30
0.0
  9
$UCSORGBOTTOM
 10
0.0
 20
0.0
 30
0.0
  9
$UCSORGLEFT
 10
0.0
 20
0.0
 30
0.0
  9
$UCSORGRIGHT
 10
0.0
 20
0.0
 30
0.0
  9
$UCSORGFRONT
 10
0.0
 20
0.0
 30
0.0
  9
$UCSORGBACK
 10
0.0
 20
0.0
 30
0.0
  9
$PUCSBASE
  2

  9
$PUCSNAME
  2

  9
$PUCSORG
 10
0.0
 20
0.0
 30
0.0
  9
$PUCSXDIR
 10
1.0
 20
0.0
 30
0.0
  9
$PUCSYDIR
 10
0.0
 20
1.0
 30
0.0
  9
$PUCSORTHOREF
  2

  9
$PUCSORTHOVIEW
 70
     0
  9
$PUCSORGTOP
 10
0.0
 20
0.0
 30
0.0
  9
$PUCSORGBOTTOM
 10
0.0
 20
0.0
 30
0.0
  9
$PUCSORGLEFT
 10
0.0
 20
0.0
 30
0.0
  9
$PUCSORGRIGHT
 10
0.0
 20
0.0
 30
0.0
  9
$PUCSORGFRONT
 10
0.0
 20
0.0
 30
0.0
  9
$PUCSORGBACK
 10
0.0
 20
0.0
 30
0.0
  9
$USERI1
 70
     0
  9
$USERI2
 70
     0
  9
$USERI3
 70
     0
  9
$USERI4
 70
     0
  9
$USERI5
 70
     0
  9
$USERR1
 40
0.0
  9
$USERR2
 40
0.0
  9
$USERR3
 40
0.0
  9
$USERR4
 40
0.0
  9
$USERR5
 40
0.0
  9
$WORLDVIEW
 70
     1
  9
$SHADEDGE
 70
     3
  9
$SHADEDIF
 70
    70
  9
$TILEMODE
 70
     1
  9
$MAXACTVP
 70
    64
  9
$PINSBASE
 10
0.0
 20
0.0
 30
0.0
  9
$PLIMCHECK
 70
     0
  9
$PEXTMIN
 10
1.000000000000000E+20
 20
1.000000000000000E+20
 30
1.000000000000000E+20
  9
$PEXTMAX
 10
-1.000000000000000E+20
 20
-1.000000000000000E+20
 30
-1.000000000000000E+20
  9
$PLIMMIN
 10
0.0
 20
0.0
  9
$PLIMMAX
 10
12.0
 20
9.0
  9
$UNITMODE
 70
     0
  9
$VISRETAIN
 70
     1
  9
$PLINEGEN
 70
     0
  9
$PSLTSCALE
 70
     1
  9
$TREEDEPTH
 70
  3020
  9
$CMLSTYLE
  2
Standard
  9
$CMLJUST
 70
     0
  9
$CMLSCALE
 40
1.0
  9
$PROXYGRAPHICS
 70
     1
  9
$MEASUREMENT
 70
     0
  9
$CELWEIGHT
370
    -1
  9
$ENDCAPS
280
     0
  9
$JOINSTYLE
280
     0
  9
$LWDISPLAY
290
     1
  9
$INSUNITS
 70
     0
  9
$HYPERLINKBASE
  1

  9
$STYLESHEET
  1

  9
$XEDIT
290
     1
  9
$CEPSNTYPE
380
     0
  9
$PSTYLEMODE
290
     1
  9
$FINGERPRINTGUID
  2
{4D46A64F-8087-4D00-B97E-CD80D651746B}
  9
$VERSIONGUID
  2
{FAEB1C32-E019-11D5-929B-00C0DF256EC4}
  9
$EXTNAMES
290
     1
  9
$PSVPSCALE
 40
0.0
  9
$OLESTARTUP
290
     0
  9
$SORTENTS
280
   127
  9
$INDEXCTL
280
     0
  9
$HIDETEXT
280
     1
  9
$XCLIPFRAME
290
     0
  9
$HALOGAP
280
     0
  9
$OBSCOLOR
 70
   257
  9
$OBSLTYPE
280
     0
  9
$INTERSECTIONDISPLAY
280
     0
  9
$INTERSECTIONCOLOR
 70
   257
  9
$DIMASSOC
280
     2
  9
$PROJECTNAME
  1

  0
ENDSEC
  0
SECTION
  2
CLASSES
  0
CLASS
  1
ACDBDICTIONARYWDFLT
  2
AcDbDictionaryWithDefault
  3
ObjectDBX Classes
 90
        0
 91
        4
280
     0
281
     0
  0
CLASS
  1
VISUALSTYLE
  2
AcDbVisualStyle
  3
ObjectDBX Classes
 90
     4095
 91
        4
280
     0
281
     0
  0
CLASS
  1
SCALE
  2
AcDbScale
  3
ObjectDBX Classes
 90
     1153
 91
        4
280
     0
281
     0
  0
CLASS
  1
DICTIONARYVAR
  2
AcDbDictionaryVar
  3
ObjectDBX Classes
 90
        0
 91
        4
280
     0
281
     0
  0
ENDSEC
  0
SECTION
  2
TABLES
  0
TABLE
  2
VPORT
  5
8
330
0
100
AcDbSymbolTable
 70
     1
  0
VPORT
  5
29
330
8
100
AcDbSymbolTableRecord
100
AcDbViewportTableRecord
  2
*Active
 70
     0
 10
0.0
 20
0.0
 11
1.0
 21
1.0
 12
20.14088474360753
 22
-27.99300576867182
 13
0.0
 23
0.0
 14
0.5
 24
0.5
 15
0.5
 25
0.5
 16
0.0
 26
0.0
 36
1.0
 17
0.0
 27
0.0
 37
0.0
 40
222.8051911700028
 41
1.107572160815101
 42
50.0
 43
0.0
 44
0.0
 50
0.0
 51
0.0
 71
     0
 72
   100
 73
     1
 74
     3
 75
     0
 76
     0
 77
     0
 78
     0
281
     0
 65
     1
110
0.0
120
0.0
130
0.0
111
1.0
121
0.0
131
0.0
112
0.0
122
1.0
132
0.0
 79
     0
146
0.0
  0
ENDTAB
  0
TABLE
  2
LTYPE
  5
5
330
0
100
AcDbSymbolTable
 70
     3
  0
LTYPE
  5
14
330
5
100
AcDbSymbolTableRecord
100
AcDbLinetypeTableRecord
  2
ByBlock
 70
     0
  3

 72
    65
 73
     0
 40
0.0
  0
LTYPE
  5
15
330
5
100
AcDbSymbolTableRecord
100
AcDbLinetypeTableRecord
  2
ByLayer
 70
     0
  3

 72
    65
 73
     0
 40
0.0
  0
LTYPE
  5
16
330
5
100
AcDbSymbolTableRecord
100
AcDbLinetypeTableRecord
  2
Continuous
 70
     0
  3
Solid line
 72
    65
 73
     0
 40
0.0
  0
LTYPE
  5
4B
330
5
100
AcDbSymbolTableRecord
100
AcDbLinetypeTableRecord
  2
DASHEDX2
 70
     0
  3
- - - - - 
 72
    65
 73
     2
 40
7.5
 49
5.0
 74
     0
 49
-2.5
 74
     0
  0
LTYPE
  5
62
330
5
100
AcDbSymbolTableRecord
100
AcDbLinetypeTableRecord
  2
Hidden
 70
     0
  3
- - - - - 
 72
    65
 73
     2
 40
2.469444990158081
 49
1.411111354827881
 74
     0
 49
-1.0583336353302
 74
     0
  0
ENDTAB
  0
TABLE
  2
LAYER
  5
2
330
0
100
AcDbSymbolTable
 70
    14
  0
LAYER
  5
10
330
2
100
AcDbSymbolTableRecord
100
AcDbLayerTableRecord
  2
0
 70
     0
 62
     7
  6
Continuous
370
    -3
390
F
  0
LAYER
  5
3C
330
2
100
AcDbSymbolTableRecord
100
AcDbLayerTableRecord
  2
Documentation_ Floor_Pen_No__18
 70
     0
 62
     9
  6
Continuous
370
    15
390
F
  0
LAYER
  5
3D
330
2
100
AcDbSymbolTableRecord
100
AcDbLayerTableRecord
  2
Documentation_ Floor_Pen_No__1
 70
     0
 62
     7
  6
Continuous
370
    13
390
F
  0
LAYER
  5
40
330
2
100
AcDbSymbolTableRecord
100
AcDbLayerTableRecord
  2
chh-08_Pen_No__8_Pen_No__101
 70
     0
 62
     8
  6
Continuous
370
    13
390
F
  0
LAYER
  5
43
330
2
100
AcDbSymbolTableRecord
100
AcDbLayerTableRecord
  2
chh-09_Pen_No__9_Pen_No__2
 70
     0
 62
     8
420
  8355711
  6
Continuous
370
    15
390
F
  0
LAYER
  5
49
330
2
100
AcDbSymbolTableRecord
100
AcDbLayerTableRecord
  2
chh-08_Pen_No__8_Pen_No__81
 70
     0
 62
   251
420
  6974058
  6
Continuous
370
    20
390
F
  0
LAYER
  5
4D
330
2
100
AcDbSymbolTableRecord
100
AcDbLayerTableRecord
  2
chh-08_Pen_No__8_Pen_No__1
 70
     0
 62
     7
  6
Continuous
370
    13
390
F
  0
LAYER
  5
57
330
2
100
AcDbSymbolTableRecord
100
AcDbLayerTableRecord
  2
chh-06_Pen_No__7_Pen_No__7
 70
     0
 62
     7
  6
Continuous
370
    18
390
F
  0
LAYER
  5
59
330
2
100
AcDbSymbolTableRecord
100
AcDbLayerTableRecord
  2
chh-05_Pen_No__7_Pen_No__7
 70
     0
 62
     7
  6
Continuous
370
    18
390
F
  0
LAYER
  5
64
330
2
100
AcDbSymbolTableRecord
100
AcDbLayerTableRecord
  2
chh-txt_Pen_No__7_Pen_No__7
 70
     0
 62
     7
  6
Continuous
370
    18
390
F
  0
LAYER
  5
6C
330
2
100
AcDbSymbolTableRecord
100
AcDbLayerTableRecord
  2
chh-txt_Pen_No__1
 70
     0
 62
     7
  6
Continuous
370
    13
390
F
  0
LAYER
  5
6F
330
2
100
AcDbSymbolTableRecord
100
AcDbLayerTableRecord
  2
chh-txt_Pen_No__7
 70
     0
 62
     7
  6
Continuous
370
    18
390
F
  0
LAYER
  5
99
330
2
100
AcDbSymbolTableRecord
100
AcDbLayerTableRecord
  2
chh-txt
 70
     0
 62
     7
  6
Continuous
370
    -3
390
F
  0
LAYER
  5
A7
330
2
100
AcDbSymbolTableRecord
100
AcDbLayerTableRecord
  2
Defpoints_Pen_No__1_Pen_No__115
 70
     0
 62
   211
420
 16738047
  6
Continuous
370
    13
390
F
  0
ENDTAB
  0
TABLE
  2
STYLE
  5
3
330
0
100
AcDbSymbolTable
 70
     2
  0
STYLE
  5
11
330
3
100
AcDbSymbolTableRecord
100
AcDbTextStyleTableRecord
  2
Standard
 70
     0
 40
0.0
 41
1.0
 50
0.0
 71
     0
 42
0.2
  3
txt
  4
BIGFONT.SHX
  0
STYLE
  5
74
330
3
100
AcDbSymbolTableRecord
100
AcDbTextStyleTableRecord
  2
GENERATED_STYLE_1
 70
     0
 40
0.0
 41
1.0
 50
0.0
 71
     0
 42
0.2
  3

  4

1001
ACAD
1000
Arial Unicode MS
1071
       34
  0
ENDTAB
  0
TABLE
  2
VIEW
  5
6
330
0
100
AcDbSymbolTable
 70
     0
  0
ENDTAB
  0
TABLE
  2
UCS
  5
7
330
0
100
AcDbSymbolTable
 70
     0
  0
ENDTAB
  0
TABLE
  2
APPID
  5
9
330
0
100
AcDbSymbolTable
 70
     1
  0
APPID
  5
12
330
9
100
AcDbSymbolTableRecord
100
AcDbRegAppTableRecord
  2
ACAD
 70
     0
  0
ENDTAB
  0
TABLE
  2
DIMSTYLE
  5
A
330
0
100
AcDbSymbolTable
 70
     2
100
AcDbDimStyleTable
  0
DIMSTYLE
105
27
330
A
100
AcDbSymbolTableRecord
100
AcDbDimStyleTableRecord
  2
Standard
 70
     0
340
11
  0
DIMSTYLE
105
9A
102
{ACAD_REACTORS
330
98
102
}
330
A
100
AcDbSymbolTableRecord
100
AcDbDimStyleTableRecord
  2
GENERATED_STYLE__1
 70
     0
 41
0.0085895061577885
 42
1.0
 77
     1
140
5.0
172
     1
176
     7
177
     7
178
     7
271
     0
340
74
342
9B
343
9B
344
9B
  0
ENDTAB
  0
TABLE
  2
BLOCK_RECORD
  5
1
330
0
100
AcDbSymbolTable
 70
     4
  0
BLOCK_RECORD
  5
1F
330
1
100
AcDbSymbolTableRecord
100
AcDbBlockTableRecord
  2
*Model_Space
340
22
  0
BLOCK_RECORD
  5
1B
330
1
100
AcDbSymbolTableRecord
100
AcDbBlockTableRecord
  2
*Paper_Space
340
1E
  0
BLOCK_RECORD
  5
23
330
1
100
AcDbSymbolTableRecord
100
AcDbBlockTableRecord
  2
*Paper_Space0
340
26
  0
BLOCK_RECORD
  5
68
330
1
100
AcDbSymbolTableRecord
100
AcDbBlockTableRecord
  2
*D1
340
0
  0
BLOCK_RECORD
  5
9B
330
1
100
AcDbSymbolTableRecord
100
AcDbBlockTableRecord
  2
ARROWHEAD_2
340
0
  0
BLOCK_RECORD
  5
A9
330
1
100
AcDbSymbolTableRecord
100
AcDbBlockTableRecord
  2
Untitled _STORY_MARKER
340
0
  0
ENDTAB
  0
ENDSEC
  0
SECTION
  2
BLOCKS
  0
BLOCK
  5
20
330
1F
100
AcDbEntity
  8
0
100
AcDbBlockBegin
  2
*Model_Space
 70
     0
 10
0.0
 20
0.0
 30
0.0
  3
*Model_Space
  1

  0
ENDBLK
  5
21
330
1F
100
AcDbEntity
  8
0
100
AcDbBlockEnd
  0
BLOCK
  5
1C
330
1B
100
AcDbEntity
 67
     1
  8
0
100
AcDbBlockBegin
  2
*Paper_Space
 70
     0
 10
0.0
 20
0.0
 30
0.0
  3
*Paper_Space
  1

  0
ENDBLK
  5
1D
330
1B
100
AcDbEntity
 67
     1
  8
0
100
AcDbBlockEnd
  0
BLOCK
  5
24
330
23
100
AcDbEntity
  8
0
100
AcDbBlockBegin
  2
*Paper_Space0
 70
     0
 10
0.0
 20
0.0
 30
0.0
  3
*Paper_Space0
  1

  0
ENDBLK
  5
25
330
23
100
AcDbEntity
  8
0
100
AcDbBlockEnd
  0
BLOCK
  5
69
330
68
100
AcDbEntity
  8
0
100
AcDbBlockBegin
  2
*D1
 70
     1
 10
0.0
 20
0.0
 30
0.0
  3
*D1
  1

  0
POINT
  5
6B
330
68
100
AcDbEntity
  8
chh-txt_Pen_No__1
  6
Continuous
100
AcDbPoint
 10
-14.97136905509125
 20
75.22522519701586
 30
0.0
  0
LINE
  5
6D
330
68
100
AcDbEntity
  8
chh-txt_Pen_No__1
  6
Continuous
100
AcDbLine
 10
-14.96584238599762
 20
75.22522519701586
 30
0.0
 11
30.03415761400231
 21
75.22522519701586
 31
0.0
  0
LINE
  5
6E
330
68
100
AcDbEntity
  8
chh-txt_Pen_No__7
  6
Continuous
100
AcDbLine
 10
-14.96257978640538
 20
75.23087618790913
 30
0.0
 11
-14.96910498558985
 21
75.21957420612257
 31
0.0
  0
LINE
  5
70
330
68
100
AcDbEntity
  8
chh-txt_Pen_No__7
  6
Continuous
100
AcDbLine
 10
30.03089501441007
 20
75.21957420612257
 30
0.0
 11
30.03742021359455
 21
75.23087618790913
 31
0.0
  0
POINT
  5
71
330
68
100
AcDbEntity
  8
chh-txt_Pen_No__1
  6
Continuous
100
AcDbPoint
 10
30.03415761400231
 20
75.22522519701586
 30
0.0
  0
LINE
  5
72
330
68
100
AcDbEntity
  8
chh-txt_Pen_No__1
  6
Continuous
100
AcDbLine
 10
-14.96584238599762
 20
64.08752657667821
 30
0.0
 11
-14.96584238599762
 21
75.23370168335578
 31
0.0
  0
LINE
  5
73
330
68
100
AcDbEntity
  8
chh-txt_Pen_No__1
  6
Continuous
100
AcDbLine
 10
30.03415761400231
 20
64.08752657667821
 30
0.0
 11
30.03415761400231
 21
75.23370168335578
 31
0.0
  0
MTEXT
  5
75
330
68
100
AcDbEntity
  8
chh-txt_Pen_No__7
100
AcDbMText
 10
3.628257612476468
 20
81.22522519701586
 30
0.0
 40
5.0
 41
0.0
 71
     1
 72
     1
  1
{45}
  7
GENERATED_STYLE_1
 73
     1
 44
1.0
  0
ENDBLK
  5
6A
330
68
100
AcDbEntity
  8
0
100
AcDbBlockEnd
  0
BLOCK
  5
9C
330
9B
100
AcDbEntity
  8
0
100
AcDbBlockBegin
  2
ARROWHEAD_2
 70
     0
 10
0.0
 20
0.0
 30
0.0
  3
ARROWHEAD_2
  1

  0
LINE
  5
9E
330
9B
100
AcDbEntity
  8
0
  6
Continuous
 62
     0
370
     0
100
AcDbLine
 10
-0.3781315
 20
-0.655
 30
0.0
 11
0.3781315
 21
0.655
 31
0.0
  0
LINE
  5
9F
330
9B
100
AcDbEntity
  8
0
  6
Continuous
 62
     0
370
     0
100
AcDbLine
 10
0.0
 20
0.0
 30
0.0
 11
-1.0
 21
0.0
 31
0.0
  0
ENDBLK
  5
9D
330
9B
100
AcDbEntity
  8
0
100
AcDbBlockEnd
  0
BLOCK
  5
AA
330
A9
100
AcDbEntity
  8
0
100
AcDbBlockBegin
  2
Untitled _STORY_MARKER
 70
     0
 10
0.0
 20
0.0
 30
0.0
  3
Untitled _STORY_MARKER
  1

  0
ENDBLK
  5
AB
330
A9
100
AcDbEntity
  8
0
100
AcDbBlockEnd
  0
ENDSEC
  0
SECTION
  2
ENTITIES
  0
HATCH
  5
3B
330
1F
100
AcDbEntity
  8
Documentation_ Floor_Pen_No__18
  6
Continuous
100
AcDbHatch
 10
0.0
 20
0.0
 30
0.0
210
0.0
220
0.0
230
1.0
  2
LINE
 70
     0
 71
     1
 91
        1
 92
        2
 72
     0
 73
     1
 93
       12
 10
-10.24460103751423
 20
-27.64324251918232
 10
-23.24460082359048
 20
-27.64324251918232
 10
-23.24460082359048
 20
-52.64324277719718
 10
49.75539914660709
 20
-52.64324277719718
 10
49.75539914660709
 20
-27.64324251918232
 10
39.75539947851547
 20
-27.64324251918232
 10
39.75539947851547
 20
-37.64324327505975
 10
29.75539872263811
 20
-37.64324327505975
 10
29.75539872263811
 20
-27.64324251918232
 10
-0.2446013694226146
 20
-27.64324251918232
 10
-0.2446013694226146
 20
-37.64324327505975
 10
-10.24460103751423
 20
-37.64324327505975
 97
        1
330
3E
 75
     0
 76
     2
 52
0.0
 41
1.0
 77
     0
 78
     1
 53
44.99999999999999
 43
0.0
 44
0.0
 45
-4.419417382415921
 46
4.419417382415923
 79
     0
 98
        0
  0
LWPOLYLINE
  5
3E
102
{ACAD_REACTORS
330
3B
102
}
330
1F
100
AcDbEntity
  8
Documentation_ Floor_Pen_No__1
  6
Continuous
100
AcDbPolyline
 90
       12
 70
   129
 43
0.0
 10
-10.24460103751423
 20
-27.64324251918232
 10
-23.24460082359048
 20
-27.64324251918232
 10
-23.24460082359048
 20
-52.64324277719718
 10
49.75539914660709
 20
-52.64324277719718
 10
49.75539914660709
 20
-27.64324251918232
 10
39.75539947851547
 20
-27.64324251918232
 10
39.75539947851547
 20
-37.64324327505975
 10
29.75539872263811
 20
-37.64324327505975
 10
29.75539872263811
 20
-27.64324251918232
 10
-0.2446013694226146
 20
-27.64324251918232
 10
-0.2446013694226146
 20
-37.64324327505975
 10
-10.24460103751423
 20
-37.64324327505975
  0
HATCH
  5
3F
330
1F
100
AcDbEntity
  8
chh-08_Pen_No__8_Pen_No__101
  6
Continuous
100
AcDbHatch
 10
0.0
 20
0.0
 30
0.0
210
0.0
220
0.0
230
1.0
  2
Plywood
 70
     0
 71
     0
 91
        1
 92
        2
 72
     0
 73
     1
 93
        6
 10
122.0697505851694
 20
-27.14324277719722
 10
122.0697505851694
 20
-15.14519590219738
 10
17.03415856494135
 20
-15.14519590219738
 10
17.03415856494135
 20
-21.64519590219744
 10
-3.965841435058667
 20
-21.64519590219744
 10
-3.965841435058667
 20
-27.14324277719722
 97
        0
 75
     0
 76
     2
 52
0.0
 41
1.0
 77
     0
 78
     1
 53
0.0
 43
0.0
 44
0.0
 45
0.0
 46
2.4
 79
     0
 98
        0
  0
HATCH
  5
41
330
1F
100
AcDbEntity
  8
chh-08_Pen_No__8_Pen_No__101
  6
Continuous
100
AcDbHatch
 10
0.0
 20
0.0
 30
0.0
210
0.0
220
0.0
230
1.0
  2
Plywood
 70
     0
 71
     0
 91
        1
 92
        2
 72
     0
 73
     1
 93
       10
 10
-82.00143535716457
 20
-15.1432427771972
 10
-82.00143535716457
 20
-27.14324277719722
 10
-5.965841435058558
 20
-27.14324277719722
 10
-5.965841435058558
 20
-21.14324277719721
 10
0.0402047550061707
 20
-21.14324277719721
 10
0.034157614002342
 20
-18.67926226427858
 10
5.034157614002346
 20
-18.67926226427858
 10
5.034157614002346
 20
-21.14324277719721
 10
10.03415761400235
 20
-21.14324277719721
 10
10.03415761400235
 20
-15.1432427771972
 97
        0
 75
     0
 76
     2
 52
0.0
 41
1.0
 77
     0
 78
     1
 53
0.0
 43
0.0
 44
0.0
 45
0.0
 46
2.4
 79
     0
 98
        0
  0
HATCH
  5
42
330
1F
100
AcDbEntity
  8
chh-09_Pen_No__9_Pen_No__2
  6
Continuous
100
AcDbHatch
 10
0.0
 20
0.0
 30
0.0
210
0.0
220
0.0
230
1.0
  2
SOLID
 70
     1
 71
     0
 91
        1
 92
        2
 72
     0
 73
     1
 93
        3
 10
21.02221247586396
 20
-31.8638725309885
 10
20.32221277645115
 20
-27.66387433451862
 10
19.62221307704033
 20
-31.86387253098883
 97
        0
 75
     0
 76
     1
 98
        0
  0
HATCH
  5
44
330
1F
100
AcDbEntity
  8
chh-09_Pen_No__9_Pen_No__2
  6
Continuous
100
AcDbHatch
 10
0.0
 20
0.0
 30
0.0
210
0.0
220
0.0
230
1.0
  2
SOLID
 70
     1
 71
     0
 91
        1
 92
        2
 72
     0
 73
     1
 93
        3
 10
30.08722189338971
 20
-56.89886181263277
 10
29.3872221939769
 20
-52.69886361616289
 10
28.68722249456597
 20
-56.8988618126331
 97
        0
 75
     0
 76
     1
 98
        0
  0
HATCH
  5
45
330
1F
100
AcDbEntity
  8
chh-09_Pen_No__9_Pen_No__2
  6
Continuous
100
AcDbHatch
 10
0.0
 20
0.0
 30
0.0
210
0.0
220
0.0
230
1.0
  2
SOLID
 70
     1
 71
     0
 91
        1
 92
        2
 72
     0
 73
     1
 93
        3
 10
26.72943094862919
 20
39.33906843684725
 10
26.72943094862946
 20
40.73906783567087
 10
22.52943275215925
 20
40.03906813625995
 97
        0
 75
     0
 76
     1
 98
        0
  0
HATCH
  5
46
330
1F
100
AcDbEntity
  8
chh-09_Pen_No__9_Pen_No__2
  6
Continuous
100
AcDbHatch
 10
0.0
 20
0.0
 30
0.0
210
0.0
220
0.0
230
1.0
  2
SOLID
 70
     1
 71
     0
 91
        1
 92
        2
 72
     0
 73
     1
 93
        3
 10
35.8189859427381
 20
9.261193531462924
 10
34.41898654391441
 20
9.261193531463256
 10
35.11898624332534
 20
5.061195334992989
 97
        0
 75
     0
 76
     1
 98
        0
  0
HATCH
  5
47
330
1F
100
AcDbEntity
  8
chh-09_Pen_No__9_Pen_No__2
  6
Continuous
100
AcDbHatch
 10
0.0
 20
0.0
 30
0.0
210
0.0
220
0.0
230
1.0
  2
SOLID
 70
     1
 71
     0
 91
        1
 92
        2
 72
     0
 73
     1
 93
        3
 10
26.72943094862919
 20
-7.375280657203005
 10
26.72943094862946
 20
-5.975281258379324
 10
22.52943275215925
 20
-6.675280957790304
 97
        0
 75
     0
 76
     1
 98
        0
  0
LINE
  5
48
330
1F
100
AcDbEntity
  8
chh-08_Pen_No__8_Pen_No__81
  6
Continuous
100
AcDbLine
 10
-14.96584238599762
 20
6.30807279405226
 30
0.0
 11
0.7706623858219214
 21
59.99580605470982
 31
0.0
  0
LINE
  5
4A
330
1F
100
AcDbEntity
  8
chh-08_Pen_No__8_Pen_No__81
  6
Continuous
100
AcDbLine
 10
30.03415761400231
 20
6.30807279405226
 30
0.0
 11
14.29765284218278
 21
59.99580605470982
 31
0.0
  0
LINE
  5
4C
330
1F
100
AcDbEntity
  8
chh-08_Pen_No__8_Pen_No__1
  6
DASHEDX2
100
AcDbLine
 10
30.03415761400231
 20
5.261341490301878
 30
0.0
 11
122.0697505851694
 21
5.261341490301934
 31
0.0
  0
LINE
  5
4E
330
1F
100
AcDbEntity
  8
chh-08_Pen_No__8_Pen_No__1
  6
Continuous
100
AcDbLine
 10
30.03415761400231
 20
6.30807279405226
 30
0.0
 11
122.0697505851694
 21
6.30807279405226
 31
0.0
  0
LINE
  5
4F
330
1F
100
AcDbEntity
  8
chh-08_Pen_No__8_Pen_No__1
  6
DASHEDX2
100
AcDbLine
 10
-82.00143535716457
 20
5.261341490301934
 30
0.0
 11
-14.86069695255936
 21
5.261341490301878
 31
0.0
  0
LINE
  5
50
330
1F
100
AcDbEntity
  8
chh-08_Pen_No__8_Pen_No__1
  6
Continuous
100
AcDbLine
 10
-82.00143535716457
 20
6.30807279405226
 30
0.0
 11
-14.96584238599762
 21
6.30807279405226
 31
0.0
  0
LWPOLYLINE
  5
51
330
1F
100
AcDbEntity
  8
chh-08_Pen_No__8_Pen_No__81
  6
Continuous
100
AcDbPolyline
 90
        6
 70
   128
 43
0.0
 10
122.0697505851694
 20
-32.11017204466278
 10
122.0697505851694
 20
-8.213218923583849
 10
131.8834039896078
 20
-8.213218923583684
 10
112.2560971807307
 20
-1.670783320624931
 10
122.0697505851694
 20
-1.670783320624931
 10
122.0697505851694
 20
12.02969092474659
  0
LWPOLYLINE
  5
52
330
1F
100
AcDbEntity
  8
chh-08_Pen_No__8_Pen_No__81
  6
Continuous
100
AcDbPolyline
 90
        6
 70
   128
 43
0.0
 10
34.49876844296259
 20
59.99580605470982
 10
10.80537541548184
 20
59.99580605470982
 10
10.80537541548173
 20
69.80945945914834
 10
4.262939812522973
 20
50.18215265027131
 10
4.262939812522973
 20
59.99580605470982
 10
-19.43045321495789
 20
59.99580605470982
  0
LWPOLYLINE
  5
53
330
1F
100
AcDbEntity
  8
chh-08_Pen_No__8_Pen_No__81
  6
Continuous
100
AcDbPolyline
 90
        2
 70
   128
 43
0.0
 10
-14.96584238599762
 20
-14.69192720594776
 10
30.03415761400231
 20
5.308072794052259
  0
LWPOLYLINE
  5
54
330
1F
100
AcDbEntity
  8
chh-08_Pen_No__8_Pen_No__81
  6
Continuous
100
AcDbPolyline
 90
        2
 70
   128
 43
0.0
 10
-14.96584238599762
 20
5.308072794052259
 10
30.03415761400231
 20
-14.69192720594776
  0
LWPOLYLINE
  5
55
330
1F
100
AcDbEntity
  8
chh-08_Pen_No__8_Pen_No__81
  6
Continuous
100
AcDbPolyline
 90
        6
 70
   128
 43
0.0
 10
-82.00143535716457
 20
-32.11017204466278
 10
-82.00143535716457
 20
-8.213218923583849
 10
-72.18778195272606
 20
-8.213218923583684
 10
-91.81508876160309
 20
-1.670783320624931
 10
-82.00143535716457
 20
-1.670783320624931
 10
-82.00143535716457
 20
12.02969092474659
  0
LWPOLYLINE
  5
56
330
1F
100
AcDbEntity
  8
chh-06_Pen_No__7_Pen_No__7
  6
Continuous
100
AcDbPolyline
 90
        6
 70
   128
 43
0.0
 10
122.0697505851694
 20
-15.14519590219738
 10
17.03415856494135
 20
-15.14519590219738
 10
17.03415856494135
 20
-21.64519590219744
 10
-3.965841435058667
 20
-21.64519590219744
 10
-3.965841435058667
 20
-27.14324277719722
 10
122.0697505851694
 20
-27.14324277719722
  0
LWPOLYLINE
  5
58
330
1F
100
AcDbEntity
  8
chh-05_Pen_No__7_Pen_No__7
  6
Continuous
100
AcDbPolyline
 90
        4
 70
   128
 43
0.0
 10
30.03415761400231
 20
59.99580605470982
 10
30.03415761400231
 20
6.30807279405226
 10
-14.96584238599762
 20
6.30807279405226
 10
-14.96584238599762
 20
59.99580605470982
  0
LWPOLYLINE
  5
5A
330
1F
100
AcDbEntity
  8
chh-09_Pen_No__9_Pen_No__2
  6
Continuous
100
AcDbPolyline
 90
        3
 70
   128
 43
0.0
 10
51.83201209784201
 20
-43.27007030769287
 10
20.32221277645214
 20
-43.27007030769287
 10
20.32221277645214
 20
-31.86387253098861
  0
LWPOLYLINE
  5
5B
330
1F
100
AcDbEntity
  8
chh-09_Pen_No__9_Pen_No__2
  6
Continuous
100
AcDbPolyline
 90
        3
 70
   128
 43
0.0
 10
51.83201209784201
 20
-65.4143679447186
 10
29.38722219397789
 20
-65.4143679447186
 10
29.38722219397789
 20
-56.89886181263288
  0
LWPOLYLINE
  5
5C
330
1F
100
AcDbEntity
  8
chh-09_Pen_No__9_Pen_No__2
  6
Continuous
100
AcDbPolyline
 90
        2
 70
   128
 43
0.0
 10
52.09771305899548
 20
40.03906813625906
 10
26.7294309486293
 20
40.03906813625906
  0
LWPOLYLINE
  5
5D
330
1F
100
AcDbEntity
  8
chh-09_Pen_No__9_Pen_No__2
  6
Continuous
100
AcDbPolyline
 90
        3
 70
   128
 43
0.0
 10
52.09771305899548
 20
25.80302263385441
 10
35.11898624332639
 20
25.80302263385441
 10
35.11898624332639
 20
9.261193531463089
  0
LWPOLYLINE
  5
5E
330
1F
100
AcDbEntity
  8
chh-09_Pen_No__9_Pen_No__2
  6
Continuous
100
AcDbPolyline
 90
        2
 70
   128
 43
0.0
 10
52.09771305899548
 20
-6.675280957791192
 10
26.7294309486293
 20
-6.675280957791192
  0
LWPOLYLINE
  5
5F
330
1F
100
AcDbEntity
  8
chh-06_Pen_No__7_Pen_No__7
  6
Continuous
100
AcDbPolyline
 90
       10
 70
   128
 43
0.0
 10
-82.00143535716457
 20
-27.14324277719722
 10
-5.965841435058558
 20
-27.14324277719722
 10
-5.965841435058558
 20
-21.14324277719721
 10
0.0402047550061707
 20
-21.14324277719721
 10
0.034157614002342
 20
-18.67926226427858
 10
5.034157614002346
 20
-18.67926226427858
 10
5.034157614002346
 20
-21.14324277719721
 10
10.03415761400235
 20
-21.14324277719721
 10
10.03415761400235
 20
-15.1432427771972
 10
-82.00143535716457
 20
-15.1432427771972
  0
LWPOLYLINE
  5
60
330
1F
100
AcDbEntity
  8
chh-05_Pen_No__7_Pen_No__7
  6
Continuous
100
AcDbPolyline
 90
        4
 70
   129
 43
0.0
 10
30.03415761400231
 20
-14.69192720594776
 10
30.03415761400231
 20
5.308072794052259
 10
-14.96584238599762
 20
5.308072794052259
 10
-14.96584238599762
 20
-14.69192720594776
  0
LWPOLYLINE
  5
61
330
1F
100
AcDbEntity
  8
chh-05_Pen_No__7_Pen_No__7
  6
Continuous
100
AcDbPolyline
 90
       12
 70
   129
 43
0.0
 10
49.7553991466071
 20
-27.64324277719716
 10
49.7553991466071
 20
-52.64324277719718
 10
-23.24460082359052
 20
-52.64324277719718
 10
-23.24460082359052
 20
-27.64324277719716
 10
-10.24460085339278
 20
-27.64324277719716
 10
-10.24460085339278
 20
-37.64324277719695
 10
-0.2446008533927707
 20
-37.64324277719695
 10
-0.2446008533927707
 20
-27.64324277719716
 10
29.75539914660726
 20
-27.64324277719716
 10
29.75539914660726
 20
-37.64324277719706
 10
39.75539914660721
 20
-37.64324277719706
 10
39.75539914660721
 20
-27.64324277719716
  0
LWPOLYLINE
  5
63
330
1F
100
AcDbEntity
  8
chh-txt_Pen_No__7_Pen_No__7
  6
Hidden
100
AcDbPolyline
 90
        5
 70
   128
 43
0.0
 10
6.751194994468038
 20
-52.39324277719709
 10
6.751194994468038
 20
-50.37870237186099
 10
11.50713745760025
 20
-48.18124169761513
 10
11.59575565646033
 20
40.83845332854906
 10
13.52794413722104
 20
47.60709924280243
  0
LWPOLYLINE
  5
65
330
1F
100
AcDbEntity
  8
chh-txt_Pen_No__7_Pen_No__7
  6
Hidden
100
AcDbPolyline
 90
        5
 70
   128
 43
0.0
 10
20.3046932799741
 20
-52.39324277719709
 10
20.3046932799741
 20
-50.37870237186099
 10
15.54875081684189
 20
-48.18124169761513
 10
15.46013261798186
 20
40.83845332854906
 10
13.52794413722104
 20
47.60709924280243
  0
LWPOLYLINE
  5
66
330
1F
100
AcDbEntity
  8
chh-txt_Pen_No__7_Pen_No__7
  6
Hidden
100
AcDbPolyline
 90
        9
 70
   128
 43
0.0
 10
-5.453829100549298
 20
-21.27880163471058
 10
-5.490371964166227
 20
-19.9362719432949
 10
-4.502101404696965
 20
-19.49174280563954
 10
-5.921878731133076
 20
32.66873470692105
 10
-4.554174723546953
 20
37.2200647218171
 10
-2.940910285467821
 20
32.74987490371
 10
-1.521132959031599
 20
-19.41060260885047
 10
-0.5101440032392185
 20
-19.80071308578152
 10
-0.4736011396222345
 20
-21.14324277719721
  0
LWPOLYLINE
  5
67
330
1F
100
AcDbEntity
  8
chh-txt_Pen_No__7_Pen_No__7
  6
Hidden
100
AcDbPolyline
 90
        9
 70
   128
 43
0.0
 10
18.54329319476018
 20
-27.14324277718855
 10
18.54329319476018
 20
-25.80021584029774
 10
19.54329319476019
 20
-25.38274146630765
 10
19.54329319476019
 20
26.79705521780173
 10
21.03432946235663
 20
31.30948582730402
 10
22.52536573002613
 20
26.79705521780173
 10
22.52536573002613
 20
-25.38274146630765
 10
23.52536573002613
 20
-25.8002158403064
 10
23.52536573002613
 20
-27.14324277719722
  0
DIMENSION
  5
98
330
1F
100
AcDbEntity
  8
chh-txt
  6
Continuous
100
AcDbDimension
  2
*D1
 10
-14.96584238599762
 20
75.22522519701586
 30
0.0
 11
7.376832612476469
 21
78.72522519701586
 31
0.0
 70
    32
 71
     5
 42
-1.0
  3
GENERATED_STYLE__1
100
AcDbAlignedDimension
 13
-14.96584238599762
 23
63.08752657667821
 33
0.0
 14
30.03415761400231
 24
63.08752657667821
 34
0.0
100
AcDbRotatedDimension
  0
MTEXT
  5
A0
330
1F
100
AcDbEntity
  8
chh-txt_Pen_No__7_Pen_No__7
  6
Continuous
100
AcDbMText
 10
55.04189074861089
 20
39.71541422022006
 30
0.0
 40
5.0
 41
0.0
 71
     7
 72
     1
  1
{Stud}
  7
GENERATED_STYLE_1
 73
     1
 44
1.0
  0
MTEXT
  5
A1
330
1F
100
AcDbEntity
  8
chh-txt_Pen_No__7_Pen_No__7
  6
Continuous
100
AcDbMText
 10
55.04189074861089
 20
-43.29701064481162
 30
0.0
 40
5.0
 41
0.0
 71
     7
 72
     1
  1
{Sheets to be fastened off }
  7
GENERATED_STYLE_1
 73
     1
 44
1.0
  0
MTEXT
  5
A2
330
1F
100
AcDbEntity
  8
chh-txt_Pen_No__7_Pen_No__7
  6
Continuous
100
AcDbMText
 10
55.19204089876102
 20
-52.95750431896856
 30
0.0
 40
5.0
 41
0.0
 71
     7
 72
     1
  1
{independently of each other}
  7
GENERATED_STYLE_1
 73
     1
 44
1.0
  0
MTEXT
  5
A3
330
1F
100
AcDbEntity
  8
chh-txt_Pen_No__7_Pen_No__7
  6
Continuous
100
AcDbMText
 10
55.08193078865094
 20
-65.44130828183735
 30
0.0
 40
5.0
 41
0.0
 71
     7
 72
     1
  1
{Cover batten}
  7
GENERATED_STYLE_1
 73
     1
 44
1.0
  0
MTEXT
  5
A4
330
1F
100
AcDbEntity
  8
chh-txt_Pen_No__7_Pen_No__7
  6
Continuous
100
AcDbMText
 10
55.08193078865094
 20
-8.409428547987154
 30
0.0
 40
5.0
 41
0.0
 71
     7
 72
     1
  1
{Cavity batten}
  7
GENERATED_STYLE_1
 73
     1
 44
1.0
  0
MTEXT
  5
A5
330
1F
100
AcDbEntity
  8
chh-txt_Pen_No__7_Pen_No__7
  6
Continuous
100
AcDbMText
 10
55.24709595381606
 20
24.06887504365845
 30
0.0
 40
5.0
 41
0.0
 71
     7
 72
     1
  1
{Building underlay}
  7
GENERATED_STYLE_1
 73
     1
 44
1.0
  0
MTEXT
  5
A6
330
1F
100
AcDbEntity
  8
Defpoints_Pen_No__1_Pen_No__115
  6
Continuous
100
AcDbMText
 10
-100.7084696097442
 20
-113.2414403965293
 30
0.0
 40
10.0
 41
0.0
 71
     7
 72
     1
  1
{SC010 Shadowclad Vertical Joint }
  7
GENERATED_STYLE_1
 73
     1
 44
1.0
  0
MTEXT
  5
A8
330
1F
100
AcDbEntity
  8
Defpoints_Pen_No__1_Pen_No__115
  6
Continuous
100
AcDbMText
 10
-100.8261873274619
 20
-137.2112367343595
 30
0.0
 40
10.0
 41
0.0
 71
     7
 72
     1
  1
{option cover batten (Cavity)}
  7
GENERATED_STYLE_1
 73
     1
 44
1.0
  0
ENDSEC
  0
SECTION
  2
OBJECTS
  0
DICTIONARY
  5
C
330
0
100
AcDbDictionary
281
     1
  3
ACAD_GROUP
350
D
  3
ACAD_LAYOUT
350
1A
  3
ACAD_MLEADERSTYLE
350
B1
  3
ACAD_MLINESTYLE
350
17
  3
ACAD_PLOTSETTINGS
350
19
  3
ACAD_PLOTSTYLENAME
350
E
  3
ACAD_SCALELIST
350
76
  3
ACAD_TABLESTYLE
350
B0
  3
ACAD_VISUALSTYLE
350
2A
  3
AcDbVariableDictionary
350
AE
  3
WATERMARKS
350
AC
  0
DICTIONARY
  5
D
102
{ACAD_REACTORS
330
C
102
}
330
C
100
AcDbDictionary
281
     1
  0
DICTIONARY
  5
1A
102
{ACAD_REACTORS
330
C
102
}
330
C
100
AcDbDictionary
281
     1
  3
Layout1
350
1E
  3
Layout2
350
26
  3
Model
350
22
  0
DICTIONARY
  5
B1
102
{ACAD_REACTORS
330
C
102
}
330
C
100
AcDbDictionary
281
     1
  0
DICTIONARY
  5
17
102
{ACAD_REACTORS
330
C
102
}
330
C
100
AcDbDictionary
281
     1
  3
Standard
350
18
  0
DICTIONARY
  5
19
102
{ACAD_REACTORS
330
C
102
}
330
C
100
AcDbDictionary
281
     1
  0
ACDBDICTIONARYWDFLT
  5
E
102
{ACAD_REACTORS
330
C
102
}
330
C
100
AcDbDictionary
281
     1
  3
Normal
350
F
100
AcDbDictionaryWithDefault
340
F
  0
DICTIONARY
  5
76
102
{ACAD_REACTORS
330
C
102
}
330
C
100
AcDbDictionary
281
     1
  3
A0
350
77
  3
A1
350
78
  3
A2
350
79
  3
A3
350
7A
  3
A4
350
7B
  3
A5
350
7C
  3
A6
350
7D
  3
A7
350
7E
  3
A8
350
7F
  3
A9
350
80
  3
B0
350
81
  3
B1
350
82
  3
B2
350
83
  3
B3
350
84
  3
B4
350
85
  3
B5
350
86
  3
B6
350
87
  3
B7
350
88
  3
B8
350
89
  3
B9
350
8A
  3
C0
350
8B
  3
C1
350
8C
  3
C2
350
8D
  3
C3
350
8E
  3
C4
350
8F
  3
C5
350
90
  3
C6
350
91
  3
C7
350
92
  3
C8
350
93
  3
C9
350
94
  3
D0
350
95
  3
D1
350
96
  3
D2
350
97
  0
DICTIONARY
  5
B0
102
{ACAD_REACTORS
330
C
102
}
330
C
100
AcDbDictionary
281
     1
  0
DICTIONARY
  5
2A
102
{ACAD_REACTORS
330
C
102
}
330
C
100
AcDbDictionary
281
     1
  3
2dWireframe
350
2F
  3
3D Hidden
350
31
  3
3dWireframe
350
30
  3
Basic
350
32
  3
Brighten
350
36
  3
ColorChange
350
3A
  3
Conceptual
350
34
  3
Dim
350
35
  3
Facepattern
350
39
  3
Flat
350
2B
  3
FlatWithEdges
350
2C
  3
Gouraud
350
2D
  3
GouraudWithEdges
350
2E
  3
Linepattern
350
38
  3
Realistic
350
33
  3
Thicken
350
37
  0
DICTIONARY
  5
AE
102
{ACAD_REACTORS
330
C
102
}
330
C
100
AcDbDictionary
281
     1
  3
CANNOSCALE
350
AF
  0
DICTIONARY
  5
AC
102
{ACAD_REACTORS
330
C
102
}
330
C
100
AcDbDictionary
281
     1
  3
AC_WATERMARK
350
AD
  0
LAYOUT
  5
1E
102
{ACAD_REACTORS
330
1A
102
}
330
1A
100
AcDbPlotSettings
  1

  2
none_device
  4

  6

 40
0.0
 41
0.0
 42
0.0
 43
0.0
 44
0.0
 45
0.0
 46
0.0
 47
0.0
 48
0.0
 49
0.0
140
0.0
141
0.0
142
1.0
143
1.0
 70
   688
 72
     0
 73
     0
 74
     5
  7

 75
    16
 76
     0
 77
     2
 78
   300
147
1.0
148
0.0
149
0.0
100
AcDbLayout
  1
Layout1
 70
     1
 71
     1
 10
0.0
 20
0.0
 11
12.0
 21
9.0
 12
0.0
 22
0.0
 32
0.0
 14
1.000000000000000E+20
 24
1.000000000000000E+20
 34
1.000000000000000E+20
 15
-1.000000000000000E+20
 25
-1.000000000000000E+20
 35
-1.000000000000000E+20
146
0.0
 13
0.0
 23
0.0
 33
0.0
 16
1.0
 26
0.0
 36
0.0
 17
0.0
 27
1.0
 37
0.0
 76
     0
330
1B
  0
LAYOUT
  5
26
102
{ACAD_REACTORS
330
1A
102
}
330
1A
100
AcDbPlotSettings
  1

  2
none_device
  4

  6

 40
0.0
 41
0.0
 42
0.0
 43
0.0
 44
0.0
 45
0.0
 46
0.0
 47
0.0
 48
0.0
 49
0.0
140
0.0
141
0.0
142
1.0
143
1.0
 70
   688
 72
     0
 73
     0
 74
     5
  7

 75
    16
 76
     0
 77
     2
 78
   300
147
1.0
148
0.0
149
0.0
100
AcDbLayout
  1
Layout2
 70
     1
 71
     2
 10
0.0
 20
0.0
 11
0.0
 21
0.0
 12
0.0
 22
0.0
 32
0.0
 14
0.0
 24
0.0
 34
0.0
 15
0.0
 25
0.0
 35
0.0
146
0.0
 13
0.0
 23
0.0
 33
0.0
 16
1.0
 26
0.0
 36
0.0
 17
0.0
 27
1.0
 37
0.0
 76
     0
330
23
  0
LAYOUT
  5
22
102
{ACAD_REACTORS
330
1A
102
}
330
1A
100
AcDbPlotSettings
  1

  2
none_device
  4

  6

 40
0.0
 41
0.0
 42
0.0
 43
0.0
 44
0.0
 45
0.0
 46
0.0
 47
0.0
 48
0.0
 49
0.0
140
0.0
141
0.0
142
1.0
143
1.0
 70
  1712
 72
     0
 73
     0
 74
     0
  7

 75
     0
 76
     0
 77
     2
 78
   300
147
1.0
148
0.0
149
0.0
100
AcDbLayout
  1
Model
 70
     1
 71
     0
 10
0.0
 20
0.0
 11
12.0
 21
9.0
 12
0.0
 22
0.0
 32
0.0
 14
1.000000000000000E+20
 24
1.000000000000000E+20
 34
1.000000000000000E+20
 15
-1.000000000000000E+20
 25
-1.000000000000000E+20
 35
-1.000000000000000E+20
146
0.0
 13
0.0
 23
0.0
 33
0.0
 16
1.0
 26
0.0
 36
0.0
 17
0.0
 27
1.0
 37
0.0
 76
     0
330
1F
331
29
  0
MLINESTYLE
  5
18
102
{ACAD_REACTORS
330
17
102
}
330
17
100
AcDbMlineStyle
  2
Standard
 70
     0
  3

 62
   256
 51
90.0
 52
90.0
 71
     2
 49
0.5
 62
   256
  6
BYLAYER
 49
-0.5
 62
   256
  6
BYLAYER
  0
ACDBPLACEHOLDER
  5
F
102
{ACAD_REACTORS
330
E
102
}
330
E
  0
SCALE
  5
77
102
{ACAD_REACTORS
330
76
102
}
330
76
100
AcDbScale
 70
     0
300
1:1
140
1.0
141
1.0
290
     1
  0
SCALE
  5
78
102
{ACAD_REACTORS
330
76
102
}
330
76
100
AcDbScale
 70
     0
300
1:2
140
1.0
141
2.0
290
     0
  0
SCALE
  5
79
102
{ACAD_REACTORS
330
76
102
}
330
76
100
AcDbScale
 70
     0
300
1:4
140
1.0
141
4.0
290
     0
  0
SCALE
  5
7A
102
{ACAD_REACTORS
330
76
102
}
330
76
100
AcDbScale
 70
     0
300
1:5
140
1.0
141
5.0
290
     0
  0
SCALE
  5
7B
102
{ACAD_REACTORS
330
76
102
}
330
76
100
AcDbScale
 70
     0
300
1:8
140
1.0
141
8.0
290
     0
  0
SCALE
  5
7C
102
{ACAD_REACTORS
330
76
102
}
330
76
100
AcDbScale
 70
     0
300
1:10
140
1.0
141
10.0
290
     0
  0
SCALE
  5
7D
102
{ACAD_REACTORS
330
76
102
}
330
76
100
AcDbScale
 70
     0
300
1:16
140
1.0
141
16.0
290
     0
  0
SCALE
  5
7E
102
{ACAD_REACTORS
330
76
102
}
330
76
100
AcDbScale
 70
     0
300
1:20
140
1.0
141
20.0
290
     0
  0
SCALE
  5
7F
102
{ACAD_REACTORS
330
76
102
}
330
76
100
AcDbScale
 70
     0
300
1:30
140
1.0
141
30.0
290
     0
  0
SCALE
  5
80
102
{ACAD_REACTORS
330
76
102
}
330
76
100
AcDbScale
 70
     0
300
1:40
140
1.0
141
40.0
290
     0
  0
SCALE
  5
81
102
{ACAD_REACTORS
330
76
102
}
330
76
100
AcDbScale
 70
     0
300
1:50
140
1.0
141
50.0
290
     0
  0
SCALE
  5
82
102
{ACAD_REACTORS
330
76
102
}
330
76
100
AcDbScale
 70
     0
300
1:100
140
1.0
141
100.0
290
     0
  0
SCALE
  5
83
102
{ACAD_REACTORS
330
76
102
}
330
76
100
AcDbScale
 70
     0
300
2:1
140
2.0
141
1.0
290
     0
  0
SCALE
  5
84
102
{ACAD_REACTORS
330
76
102
}
330
76
100
AcDbScale
 70
     0
300
4:1
140
4.0
141
1.0
290
     0
  0
SCALE
  5
85
102
{ACAD_REACTORS
330
76
102
}
330
76
100
AcDbScale
 70
     0
300
8:1
140
8.0
141
1.0
290
     0
  0
SCALE
  5
86
102
{ACAD_REACTORS
330
76
102
}
330
76
100
AcDbScale
 70
     0
300
10:1
140
10.0
141
1.0
290
     0
  0
SCALE
  5
87
102
{ACAD_REACTORS
330
76
102
}
330
76
100
AcDbScale
 70
     0
300
100:1
140
100.0
141
1.0
290
     0
  0
SCALE
  5
88
102
{ACAD_REACTORS
330
76
102
}
330
76
100
AcDbScale
 70
     0
300
1/128" = 1'-0"
140
0.0078125
141
12.0
290
     0
  0
SCALE
  5
89
102
{ACAD_REACTORS
330
76
102
}
330
76
100
AcDbScale
 70
     0
300
1/64" = 1'-0"
140
0.015625
141
12.0
290
     0
  0
SCALE
  5
8A
102
{ACAD_REACTORS
330
76
102
}
330
76
100
AcDbScale
 70
     0
300
1/32" = 1'-0"
140
0.03125
141
12.0
290
     0
  0
SCALE
  5
8B
102
{ACAD_REACTORS
330
76
102
}
330
76
100
AcDbScale
 70
     0
300
1/16" = 1'-0"
140
0.0625
141
12.0
290
     0
  0
SCALE
  5
8C
102
{ACAD_REACTORS
330
76
102
}
330
76
100
AcDbScale
 70
     0
300
3/32" = 1'-0"
140
0.09375
141
12.0
290
     0
  0
SCALE
  5
8D
102
{ACAD_REACTORS
330
76
102
}
330
76
100
AcDbScale
 70
     0
300
1/8" = 1'-0"
140
0.125
141
12.0
290
     0
  0
SCALE
  5
8E
102
{ACAD_REACTORS
330
76
102
}
330
76
100
AcDbScale
 70
     0
300
3/16" = 1'-0"
140
0.1875
141
12.0
290
     0
  0
SCALE
  5
8F
102
{ACAD_REACTORS
330
76
102
}
330
76
100
AcDbScale
 70
     0
300
1/4" = 1'-0"
140
0.25
141
12.0
290
     0
  0
SCALE
  5
90
102
{ACAD_REACTORS
330
76
102
}
330
76
100
AcDbScale
 70
     0
300
3/8" = 1'-0"
140
0.375
141
12.0
290
     0
  0
SCALE
  5
91
102
{ACAD_REACTORS
330
76
102
}
330
76
100
AcDbScale
 70
     0
300
1/2" = 1'-0"
140
0.5
141
12.0
290
     0
  0
SCALE
  5
92
102
{ACAD_REACTORS
330
76
102
}
330
76
100
AcDbScale
 70
     0
300
3/4" = 1'-0"
140
0.75
141
12.0
290
     0
  0
SCALE
  5
93
102
{ACAD_REACTORS
330
76
102
}
330
76
100
AcDbScale
 70
     0
300
1" = 1'-0"
140
1.0
141
12.0
290
     0
  0
SCALE
  5
94
102
{ACAD_REACTORS
330
76
102
}
330
76
100
AcDbScale
 70
     0
300
1-1/2" = 1'-0"
140
1.5
141
12.0
290
     0
  0
SCALE
  5
95
102
{ACAD_REACTORS
330
76
102
}
330
76
100
AcDbScale
 70
     0
300
3" = 1'-0"
140
3.0
141
12.0
290
     0
  0
SCALE
  5
96
102
{ACAD_REACTORS
330
76
102
}
330
76
100
AcDbScale
 70
     0
300
6" = 1'-0"
140
6.0
141
12.0
290
     0
  0
SCALE
  5
97
102
{ACAD_REACTORS
330
76
102
}
330
76
100
AcDbScale
 70
     0
300
1'-0" = 1'-0"
140
12.0
141
12.0
290
     0
  0
VISUALSTYLE
  5
2F
102
{ACAD_REACTORS
330
2A
102
}
330
2A
100
AcDbVisualStyle
  2
2dWireframe
 70
     4
 71
     0
 72
     2
 73
     0
 90
        0
 40
-0.6
 41
-30.0
 62
     5
 63
     7
421
 16777215
 74
     1
 91
        4
 64
     7
 65
   257
 75
     1
175
     1
 42
1.0
 92
        0
 66
   257
 43
1.0
 76
     1
 77
     6
 78
     2
 67
     7
 79
     5
170
     0
171
     0
290
     0
174
     0
 93
        1
 44
0.0
173
     0
291
     0
 45
0.0
1001
ACAD
1000
AcDbSavedByObjectVersion
1070
     0
  0
VISUALSTYLE
  5
31
102
{ACAD_REACTORS
330
2A
102
}
330
2A
100
AcDbVisualStyle
  2
3D Hidden
 70
     6
 71
     1
 72
     2
 73
     2
 90
        0
 40
-0.6
 41
-30.0
 62
     5
 63
     7
421
 16777215
 74
     2
 91
        2
 64
     7
 65
   257
 75
     2
175
     1
 42
40.0
 92
        0
 66
   257
 43
1.0
 76
     1
 77
     6
 78
     2
 67
     7
 79
     3
170
     0
171
     0
290
     0
174
     0
 93
        1
 44
0.0
173
     0
291
     0
 45
0.0
1001
ACAD
1000
AcDbSavedByObjectVersion
1070
     0
  0
VISUALSTYLE
  5
30
102
{ACAD_REACTORS
330
2A
102
}
330
2A
100
AcDbVisualStyle
  2
3dWireframe
 70
     5
 71
     0
 72
     2
 73
     0
 90
        0
 40
-0.6
 41
-30.0
 62
     5
 63
     7
421
 16777215
 74
     1
 91
        4
 64
     7
 65
   257
 75
     1
175
     1
 42
1.0
 92
        0
 66
   257
 43
1.0
 76
     1
 77
     6
 78
     2
 67
     7
 79
     5
170
     0
171
     0
290
     0
174
     0
 93
        1
 44
0.0
173
     0
291
     0
 45
0.0
1001
ACAD
1000
AcDbSavedByObjectVersion
1070
     0
  0
VISUALSTYLE
  5
32
102
{ACAD_REACTORS
330
2A
102
}
330
2A
100
AcDbVisualStyle
  2
Basic
 70
     7
 71
     1
 72
     0
 73
     1
 90
        0
 40
-0.6
 41
-30.0
 62
     5
 63
     7
421
 16777215
 74
     0
 91
        4
 64
     7
 65
   257
 75
     1
175
     1
 42
1.0
 92
        8
 66
     7
 43
1.0
 76
     1
 77
     6
 78
     2
 67
     7
 79
     5
170
     0
171
     0
290
     0
174
     0
 93
        1
 44
0.0
173
     0
291
     1
 45
0.0
1001
ACAD
1000
AcDbSavedByObjectVersion
1070
     0
  0
VISUALSTYLE
  5
36
102
{ACAD_REACTORS
330
2A
102
}
330
2A
100
AcDbVisualStyle
  2
Brighten
 70
    12
 71
     2
 72
     2
 73
     0
 90
        0
 40
-0.6
 41
-30.0
 62
     5
 63
     7
421
 16777215
 74
     1
 91
        4
 64
     7
 65
   257
 75
     1
175
     1
 42
1.0
 92
        8
 66
     7
 43
1.0
 76
     1
 77
     6
 78
     2
 67
     7
 79
     5
170
     0
171
     0
290
     0
174
     0
 93
        1
 44
50.0
173
     0
291
     1
 45
0.0
1001
ACAD
1000
AcDbSavedByObjectVersion
1070
     0
  0
VISUALSTYLE
  5
3A
102
{ACAD_REACTORS
330
2A
102
}
330
2A
100
AcDbVisualStyle
  2
ColorChange
 70
    16
 71
     2
 72
     2
 73
     3
 90
        0
 40
-0.6
 41
-30.0
 62
     5
 63
     8
421
  8421504
 74
     1
 91
        4
 64
     7
 65
   257
 75
     1
175
     1
 42
1.0
 92
        8
 66
     8
424
  8421504
 43
1.0
 76
     1
 77
     6
 78
     2
 67
     7
 79
     5
170
     0
171
     0
290
     0
174
     0
 93
        1
 44
0.0
173
     0
291
     1
 45
0.0
1001
ACAD
1000
AcDbSavedByObjectVersion
1070
     0
  0
VISUALSTYLE
  5
34
102
{ACAD_REACTORS
330
2A
102
}
330
2A
100
AcDbVisualStyle
  2
Conceptual
 70
     9
 71
     3
 72
     2
 73
     0
 90
        0
 40
-0.6
 41
-30.0
 62
     5
 63
     7
421
 16777215
 74
     2
 91
        2
 64
     7
 65
   257
 75
     1
175
     1
 42
40.0
 92
        8
 66
     7
 43
1.0
 76
     1
 77
     6
 78
     2
 67
     7
 79
     3
170
     0
171
     0
290
     0
174
     0
 93
        1
 44
0.0
173
     0
291
     0
 45
0.0
1001
ACAD
1000
AcDbSavedByObjectVersion
1070
     0
  0
VISUALSTYLE
  5
35
102
{ACAD_REACTORS
330
2A
102
}
330
2A
100
AcDbVisualStyle
  2
Dim
 70
    11
 71
     2
 72
     2
 73
     0
 90
        0
 40
-0.6
 41
-30.0
 62
     5
 63
     7
421
 16777215
 74
     1
 91
        4
 64
     7
 65
   257
 75
     1
175
     1
 42
1.0
 92
        8
 66
     7
 43
1.0
 76
     1
 77
     6
 78
     2
 67
     7
 79
     5
170
     0
171
     0
290
     0
174
     0
 93
        1
 44
-50.0
173
     0
291
     1
 45
0.0
1001
ACAD
1000
AcDbSavedByObjectVersion
1070
     0
  0
VISUALSTYLE
  5
39
102
{ACAD_REACTORS
330
2A
102
}
330
2A
100
AcDbVisualStyle
  2
Facepattern
 70
    15
 71
     2
 72
     2
 73
     0
 90
        0
 40
-0.6
 41
-30.0
 62
     5
 63
     7
421
 16777215
 74
     1
 91
        4
 64
     7
 65
   257
 75
     1
175
     1
 42
1.0
 92
        8
 66
     7
 43
1.0
 76
     1
 77
     6
 78
     2
 67
     7
 79
     5
170
     0
171
     0
290
     0
174
     0
 93
        1
 44
0.0
173
     0
291
     1
 45
0.0
1001
ACAD
1000
AcDbSavedByObjectVersion
1070
     0
  0
VISUALSTYLE
  5
2B
102
{ACAD_REACTORS
330
2A
102
}
330
2A
100
AcDbVisualStyle
  2
Flat
 70
     0
 71
     2
 72
     1
 73
     1
 90
        2
 40
-0.6
 41
30.0
 62
     5
 63
     7
421
 16777215
 74
     0
 91
        4
 64
     7
 65
   257
 75
     1
175
     1
 42
1.0
 92
        8
 66
     7
 43
1.0
 76
     1
 77
     6
 78
     2
 67
     7
 79
     5
170
     0
171
     0
290
     0
174
     0
 93
       13
 44
0.0
173
     0
291
     1
 45
0.0
1001
ACAD
1000
AcDbSavedByObjectVersion
1070
     0
  0
VISUALSTYLE
  5
2C
102
{ACAD_REACTORS
330
2A
102
}
330
2A
100
AcDbVisualStyle
  2
FlatWithEdges
 70
     1
 71
     2
 72
     1
 73
     1
 90
        2
 40
-0.6
 41
30.0
 62
     5
 63
     7
421
 16777215
 74
     1
 91
        4
 64
     7
 65
   257
 75
     1
175
     1
 42
1.0
 92
        0
 66
   257
 43
1.0
 76
     1
 77
     6
 78
     2
 67
     7
 79
     5
170
     0
171
     0
290
     0
174
     0
 93
       13
 44
0.0
173
     0
291
     1
 45
0.0
1001
ACAD
1000
AcDbSavedByObjectVersion
1070
     0
  0
VISUALSTYLE
  5
2D
102
{ACAD_REACTORS
330
2A
102
}
330
2A
100
AcDbVisualStyle
  2
Gouraud
 70
     2
 71
     2
 72
     2
 73
     1
 90
        2
 40
-0.6
 41
30.0
 62
     5
 63
     7
421
 16777215
 74
     0
 91
        4
 64
     7
 65
   257
 75
     1
175
     1
 42
1.0
 92
        0
 66
     7
 43
1.0
 76
     1
 77
     6
 78
     2
 67
     7
 79
     5
170
     0
171
     0
290
     0
174
     0
 93
       13
 44
0.0
173
     0
291
     1
 45
0.0
1001
ACAD
1000
AcDbSavedByObjectVersion
1070
     0
  0
VISUALSTYLE
  5
2E
102
{ACAD_REACTORS
330
2A
102
}
330
2A
100
AcDbVisualStyle
  2
GouraudWithEdges
 70
     3
 71
     2
 72
     2
 73
     1
 90
        2
 40
-0.6
 41
30.0
 62
     5
 63
     7
421
 16777215
 74
     1
 91
        4
 64
     7
 65
   257
 75
     1
175
     1
 42
1.0
 92
        0
 66
   257
 43
1.0
 76
     1
 77
     6
 78
     2
 67
     7
 79
     5
170
     0
171
     0
290
     0
174
     0
 93
       13
 44
0.0
173
     0
291
     1
 45
0.0
1001
ACAD
1000
AcDbSavedByObjectVersion
1070
     0
  0
VISUALSTYLE
  5
38
102
{ACAD_REACTORS
330
2A
102
}
330
2A
100
AcDbVisualStyle
  2
Linepattern
 70
    14
 71
     2
 72
     2
 73
     0
 90
        0
 40
-0.6
 41
-30.0
 62
     5
 63
     7
421
 16777215
 74
     1
 91
        4
 64
     7
 65
   257
 75
     7
175
     7
 42
1.0
 92
        8
 66
     7
 43
1.0
 76
     1
 77
     6
 78
     2
 67
     7
 79
     5
170
     0
171
     0
290
     0
174
     0
 93
        1
 44
0.0
173
     0
291
     1
 45
0.0
1001
ACAD
1000
AcDbSavedByObjectVersion
1070
     0
  0
VISUALSTYLE
  5
33
102
{ACAD_REACTORS
330
2A
102
}
330
2A
100
AcDbVisualStyle
  2
Realistic
 70
     8
 71
     2
 72
     2
 73
     0
 90
        0
 40
-0.6
 41
-30.0
 62
     5
 63
     7
421
 16777215
 74
     1
 91
        0
 64
     7
 65
   257
 75
     1
175
     1
 42
1.0
 92
        8
 66
     8
424
  7895160
 43
1.0
 76
     1
 77
     6
 78
     2
 67
     7
 79
     5
170
     0
171
     0
290
     0
174
     0
 93
       13
 44
0.0
173
     0
291
     0
 45
0.0
1001
ACAD
1000
AcDbSavedByObjectVersion
1070
     0
  0
VISUALSTYLE
  5
37
102
{ACAD_REACTORS
330
2A
102
}
330
2A
100
AcDbVisualStyle
  2
Thicken
 70
    13
 71
     2
 72
     2
 73
     0
 90
        0
 40
-0.6
 41
-30.0
 62
     5
 63
     7
421
 16777215
 74
     1
 91
        4
 64
     7
 65
   257
 75
     1
175
     1
 42
1.0
 92
       12
 66
     7
 43
1.0
 76
     1
 77
     6
 78
     2
 67
     7
 79
     5
170
     0
171
     0
290
     0
174
     0
 93
        1
 44
0.0
173
     0
291
     1
 45
0.0
1001
ACAD
1000
AcDbSavedByObjectVersion
1070
     0
  0
DICTIONARYVAR
  5
AF
102
{ACAD_REACTORS
330
AE
102
}
330
AE
100
DictionaryVariables
280
     0
  1
1:1
  0
XRECORD
  5
AD
102
{ACAD_REACTORS
330
AC
102
}
330
AC
100
AcDbXrecord
280
     1
1000
This DWG file was created in ArchiCAD(TM)®
  0
ENDSEC
  0
EOF
