  0
SECTION
  2
HEADER
  9
$ACADVER
  1
AC1018
  9
$ACADMAINTVER
 70
     0
  9
$DWGCODEPAGE
  3
ANSI_1252
  9
$INSBASE
 10
0.0
 20
0.0
 30
0.0
  9
$EXTMIN
 10
1.000000000000000E+20
 20
1.000000000000000E+20
 30
1.000000000000000E+20
  9
$EXTMAX
 10
-1.000000000000000E+20
 20
-1.000000000000000E+20
 30
-1.000000000000000E+20
  9
$LIMMIN
 10
0.0
 20
0.0
  9
$LIMMAX
 10
12.0
 20
9.0
  9
$ORTHOMODE
 70
     0
  9
$REGENMODE
 70
     1
  9
$FILLMODE
 70
     1
  9
$QTEXTMODE
 70
     0
  9
$MIRRTEXT
 70
     1
  9
$LTSCALE
 40
1.0
  9
$ATTMODE
 70
     1
  9
$TEXTSIZE
 40
0.2
  9
$TRACEWID
 40
0.05
  9
$TEXTSTYLE
  7
Standard
  9
$CLAYER
  8
0
  9
$CELTYPE
  6
ByLayer
  9
$CECOLOR
 62
   256
  9
$CELTSCALE
 40
1.0
  9
$DISPSILH
 70
     0
  9
$DIMSCALE
 40
1.0
  9
$DIMASZ
 40
0.18
  9
$DIMEXO
 40
0.0625
  9
$DIMDLI
 40
0.38
  9
$DIMRND
 40
0.0
  9
$DIMDLE
 40
0.0
  9
$DIMEXE
 40
0.18
  9
$DIMTP
 40
0.0
  9
$DIMTM
 40
0.0
  9
$DIMTXT
 40
0.18
  9
$DIMCEN
 40
0.09
  9
$DIMTSZ
 40
0.0
  9
$DIMTOL
 70
     0
  9
$DIMLIM
 70
     0
  9
$DIMTIH
 70
     1
  9
$DIMTOH
 70
     1
  9
$DIMSE1
 70
     0
  9
$DIMSE2
 70
     0
  9
$DIMTAD
 70
     0
  9
$DIMZIN
 70
     0
  9
$DIMBLK
  1

  9
$DIMASO
 70
     1
  9
$DIMSHO
 70
     1
  9
$DIMPOST
  1

  9
$DIMAPOST
  1

  9
$DIMALT
 70
     0
  9
$DIMALTD
 70
     2
  9
$DIMALTF
 40
25.4
  9
$DIMLFAC
 40
1.0
  9
$DIMTOFL
 70
     0
  9
$DIMTVP
 40
0.0
  9
$DIMTIX
 70
     0
  9
$DIMSOXD
 70
     0
  9
$DIMSAH
 70
     0
  9
$DIMBLK1
  1

  9
$DIMBLK2
  1

  9
$DIMSTYLE
  2
Standard
  9
$DIMCLRD
 70
     0
  9
$DIMCLRE
 70
     0
  9
$DIMCLRT
 70
     0
  9
$DIMTFAC
 40
1.0
  9
$DIMGAP
 40
0.09
  9
$DIMJUST
 70
     0
  9
$DIMSD1
 70
     0
  9
$DIMSD2
 70
     0
  9
$DIMTOLJ
 70
     1
  9
$DIMTZIN
 70
     0
  9
$DIMALTZ
 70
     0
  9
$DIMALTTZ
 70
     0
  9
$DIMUPT
 70
     0
  9
$DIMDEC
 70
     4
  9
$DIMTDEC
 70
     4
  9
$DIMALTU
 70
     2
  9
$DIMALTTD
 70
     2
  9
$DIMTXSTY
  7
Standard
  9
$DIMAUNIT
 70
     0
  9
$DIMADEC
 70
     0
  9
$DIMALTRND
 40
0.0
  9
$DIMAZIN
 70
     0
  9
$DIMDSEP
 70
    46
  9
$DIMATFIT
 70
     3
  9
$DIMFRAC
 70
     0
  9
$DIMLDRBLK
  1

  9
$DIMLUNIT
 70
     2
  9
$DIMLWD
 70
    -2
  9
$DIMLWE
 70
    -2
  9
$DIMTMOVE
 70
     0
  9
$LUNITS
 70
     2
  9
$LUPREC
 70
     4
  9
$SKETCHINC
 40
0.1
  9
$FILLETRAD
 40
0.5
  9
$AUNITS
 70
     0
  9
$AUPREC
 70
     0
  9
$MENU
  1
.
  9
$ELEVATION
 40
0.0
  9
$PELEVATION
 40
0.0
  9
$THICKNESS
 40
0.0
  9
$LIMCHECK
 70
     0
  9
$CHAMFERA
 40
0.5
  9
$CHAMFERB
 40
0.5
  9
$CHAMFERC
 40
1.0
  9
$CHAMFERD
 40
0.0
  9
$SKPOLY
 70
     0
  9
$TDCREATE
 40
2455966.595718472
  9
$TDUCREATE
 40
2455966.054051806
  9
$TDUPDATE
 40
2455966.595718484
  9
$TDUUPDATE
 40
2455966.054051817
  9
$TDINDWG
 40
0.0000000116
  9
$TDUSRTIMER
 40
0.0000000116
  9
$USRTIMER
 70
     1
  9
$ANGBASE
 50
0.0
  9
$ANGDIR
 70
     0
  9
$PDMODE
 70
     0
  9
$PDSIZE
 40
0.0
  9
$PLINEWID
 40
0.0
  9
$SPLFRAME
 70
     0
  9
$SPLINETYPE
 70
     6
  9
$SPLINESEGS
 70
     8
  9
$HANDSEED
  5
1DD
  9
$SURFTAB1
 70
     6
  9
$SURFTAB2
 70
     6
  9
$SURFTYPE
 70
     6
  9
$SURFU
 70
     6
  9
$SURFV
 70
     6
  9
$UCSBASE
  2

  9
$UCSNAME
  2

  9
$UCSORG
 10
0.0
 20
0.0
 30
0.0
  9
$UCSXDIR
 10
1.0
 20
0.0
 30
0.0
  9
$UCSYDIR
 10
0.0
 20
1.0
 30
0.0
  9
$UCSORTHOREF
  2

  9
$UCSORTHOVIEW
 70
     0
  9
$UCSORGTOP
 10
0.0
 20
0.0
 30
0.0
  9
$UCSORGBOTTOM
 10
0.0
 20
0.0
 30
0.0
  9
$UCSORGLEFT
 10
0.0
 20
0.0
 30
0.0
  9
$UCSORGRIGHT
 10
0.0
 20
0.0
 30
0.0
  9
$UCSORGFRONT
 10
0.0
 20
0.0
 30
0.0
  9
$UCSORGBACK
 10
0.0
 20
0.0
 30
0.0
  9
$PUCSBASE
  2

  9
$PUCSNAME
  2

  9
$PUCSORG
 10
0.0
 20
0.0
 30
0.0
  9
$PUCSXDIR
 10
1.0
 20
0.0
 30
0.0
  9
$PUCSYDIR
 10
0.0
 20
1.0
 30
0.0
  9
$PUCSORTHOREF
  2

  9
$PUCSORTHOVIEW
 70
     0
  9
$PUCSORGTOP
 10
0.0
 20
0.0
 30
0.0
  9
$PUCSORGBOTTOM
 10
0.0
 20
0.0
 30
0.0
  9
$PUCSORGLEFT
 10
0.0
 20
0.0
 30
0.0
  9
$PUCSORGRIGHT
 10
0.0
 20
0.0
 30
0.0
  9
$PUCSORGFRONT
 10
0.0
 20
0.0
 30
0.0
  9
$PUCSORGBACK
 10
0.0
 20
0.0
 30
0.0
  9
$USERI1
 70
     0
  9
$USERI2
 70
     0
  9
$USERI3
 70
     0
  9
$USERI4
 70
     0
  9
$USERI5
 70
     0
  9
$USERR1
 40
0.0
  9
$USERR2
 40
0.0
  9
$USERR3
 40
0.0
  9
$USERR4
 40
0.0
  9
$USERR5
 40
0.0
  9
$WORLDVIEW
 70
     1
  9
$SHADEDGE
 70
     3
  9
$SHADEDIF
 70
    70
  9
$TILEMODE
 70
     1
  9
$MAXACTVP
 70
    64
  9
$PINSBASE
 10
0.0
 20
0.0
 30
0.0
  9
$PLIMCHECK
 70
     0
  9
$PEXTMIN
 10
1.000000000000000E+20
 20
1.000000000000000E+20
 30
1.000000000000000E+20
  9
$PEXTMAX
 10
-1.000000000000000E+20
 20
-1.000000000000000E+20
 30
-1.000000000000000E+20
  9
$PLIMMIN
 10
0.0
 20
0.0
  9
$PLIMMAX
 10
12.0
 20
9.0
  9
$UNITMODE
 70
     0
  9
$VISRETAIN
 70
     1
  9
$PLINEGEN
 70
     0
  9
$PSLTSCALE
 70
     1
  9
$TREEDEPTH
 70
  3020
  9
$CMLSTYLE
  2
Standard
  9
$CMLJUST
 70
     0
  9
$CMLSCALE
 40
1.0
  9
$PROXYGRAPHICS
 70
     1
  9
$MEASUREMENT
 70
     0
  9
$CELWEIGHT
370
    -1
  9
$ENDCAPS
280
     0
  9
$JOINSTYLE
280
     0
  9
$LWDISPLAY
290
     1
  9
$INSUNITS
 70
     0
  9
$HYPERLINKBASE
  1

  9
$STYLESHEET
  1

  9
$XEDIT
290
     1
  9
$CEPSNTYPE
380
     0
  9
$PSTYLEMODE
290
     1
  9
$FINGERPRINTGUID
  2
{9448425A-0582-4E21-8864-AE5CA71B4268}
  9
$VERSIONGUID
  2
{FAEB1C32-E019-11D5-929B-00C0DF256EC4}
  9
$EXTNAMES
290
     1
  9
$PSVPSCALE
 40
0.0
  9
$OLESTARTUP
290
     0
  9
$SORTENTS
280
   127
  9
$INDEXCTL
280
     0
  9
$HIDETEXT
280
     1
  9
$XCLIPFRAME
290
     0
  9
$HALOGAP
280
     0
  9
$OBSCOLOR
 70
   257
  9
$OBSLTYPE
280
     0
  9
$INTERSECTIONDISPLAY
280
     0
  9
$INTERSECTIONCOLOR
 70
   257
  9
$DIMASSOC
280
     2
  9
$PROJECTNAME
  1

  0
ENDSEC
  0
SECTION
  2
CLASSES
  0
CLASS
  1
ACDBDICTIONARYWDFLT
  2
AcDbDictionaryWithDefault
  3
ObjectDBX Classes
 90
        0
 91
        4
280
     0
281
     0
  0
CLASS
  1
VISUALSTYLE
  2
AcDbVisualStyle
  3
ObjectDBX Classes
 90
     4095
 91
        4
280
     0
281
     0
  0
CLASS
  1
SCALE
  2
AcDbScale
  3
ObjectDBX Classes
 90
     1153
 91
        4
280
     0
281
     0
  0
CLASS
  1
DICTIONARYVAR
  2
AcDbDictionaryVar
  3
ObjectDBX Classes
 90
        0
 91
        4
280
     0
281
     0
  0
ENDSEC
  0
SECTION
  2
TABLES
  0
TABLE
  2
VPORT
  5
8
330
0
100
AcDbSymbolTable
 70
     1
  0
VPORT
  5
29
330
8
100
AcDbSymbolTableRecord
100
AcDbViewportTableRecord
  2
*Active
 70
     0
 10
0.0
 20
0.0
 11
1.0
 21
1.0
 12
649.8782328399801
 22
165.6333421003067
 13
0.0
 23
0.0
 14
0.5
 24
0.5
 15
0.5
 25
0.5
 16
0.0
 26
0.0
 36
1.0
 17
0.0
 27
0.0
 37
0.0
 40
3641.23833992991
 41
1.215412294277288
 42
50.0
 43
0.0
 44
0.0
 50
0.0
 51
0.0
 71
     0
 72
   100
 73
     1
 74
     3
 75
     0
 76
     0
 77
     0
 78
     0
281
     0
 65
     1
110
0.0
120
0.0
130
0.0
111
1.0
121
0.0
131
0.0
112
0.0
122
1.0
132
0.0
 79
     0
146
0.0
  0
ENDTAB
  0
TABLE
  2
LTYPE
  5
5
330
0
100
AcDbSymbolTable
 70
     2
  0
LTYPE
  5
14
330
5
100
AcDbSymbolTableRecord
100
AcDbLinetypeTableRecord
  2
ByBlock
 70
     0
  3

 72
    65
 73
     0
 40
0.0
  0
LTYPE
  5
15
330
5
100
AcDbSymbolTableRecord
100
AcDbLinetypeTableRecord
  2
ByLayer
 70
     0
  3

 72
    65
 73
     0
 40
0.0
  0
LTYPE
  5
16
330
5
100
AcDbSymbolTableRecord
100
AcDbLinetypeTableRecord
  2
Continuous
 70
     0
  3
Solid line
 72
    65
 73
     0
 40
0.0
  0
LTYPE
  5
3F
330
5
100
AcDbSymbolTableRecord
100
AcDbLinetypeTableRecord
  2
DASHEDX2
 70
     0
  3
- - - - - 
 72
    65
 73
     2
 40
7.5
 49
5.0
 74
     0
 49
-2.5
 74
     0
  0
ENDTAB
  0
TABLE
  2
LAYER
  5
2
330
0
100
AcDbSymbolTable
 70
     7
  0
LAYER
  5
10
330
2
100
AcDbSymbolTableRecord
100
AcDbLayerTableRecord
  2
0
 70
     0
 62
     7
  6
Continuous
370
    -3
390
F
  0
LAYER
  5
3C
330
2
100
AcDbSymbolTableRecord
100
AcDbLayerTableRecord
  2
chh-09_Pen_No__9_Pen_No__2
 70
     0
 62
     8
420
  8355711
  6
Continuous
370
    15
390
F
  0
LAYER
  5
41
330
2
100
AcDbSymbolTableRecord
100
AcDbLayerTableRecord
  2
0_Pen_No__7_Pen_No__7
 70
     0
 62
     7
  6
Continuous
370
    18
390
F
  0
LAYER
  5
158
330
2
100
AcDbSymbolTableRecord
100
AcDbLayerTableRecord
  2
0_Pen_No__1
 70
     0
 62
     7
  6
Continuous
370
    13
390
F
  0
LAYER
  5
15B
330
2
100
AcDbSymbolTableRecord
100
AcDbLayerTableRecord
  2
0_Pen_No__7
 70
     0
 62
     7
  6
Continuous
370
    18
390
F
  0
LAYER
  5
1CE
330
2
100
AcDbSymbolTableRecord
100
AcDbLayerTableRecord
  2
Defpoints_Pen_No__211_Pen_No__115
 70
     0
 62
   211
420
 16738047
  6
Continuous
370
    13
390
F
  0
LAYER
  5
1D0
330
2
100
AcDbSymbolTableRecord
100
AcDbLayerTableRecord
  2
chh-txt_Pen_No__7_Pen_No__7
 70
     0
 62
     7
  6
Continuous
370
    18
390
F
  0
ENDTAB
  0
TABLE
  2
STYLE
  5
3
330
0
100
AcDbSymbolTable
 70
     3
  0
STYLE
  5
11
330
3
100
AcDbSymbolTableRecord
100
AcDbTextStyleTableRecord
  2
Standard
 70
     0
 40
0.0
 41
1.0
 50
0.0
 71
     0
 42
0.2
  3
txt
  4
BIGFONT.SHX
  0
STYLE
  5
15F
330
3
100
AcDbSymbolTableRecord
100
AcDbTextStyleTableRecord
  2
GENERATED_STYLE_1
 70
     0
 40
0.0
 41
1.0
 50
0.0
 71
     0
 42
0.2
  3

  4

1001
ACAD
1000
Arial Unicode MS
1071
       34
  0
STYLE
  5
1C9
330
3
100
AcDbSymbolTableRecord
100
AcDbTextStyleTableRecord
  2
GENERATED_STYLE_2
 70
     0
 40
0.0
 41
1.0
 50
0.0
 71
     0
 42
0.2
  3

  4

1001
ACAD
1000
Arial
1071
       34
  0
ENDTAB
  0
TABLE
  2
VIEW
  5
6
330
0
100
AcDbSymbolTable
 70
     0
  0
ENDTAB
  0
TABLE
  2
UCS
  5
7
330
0
100
AcDbSymbolTable
 70
     0
  0
ENDTAB
  0
TABLE
  2
APPID
  5
9
330
0
100
AcDbSymbolTable
 70
     1
  0
APPID
  5
12
330
9
100
AcDbSymbolTableRecord
100
AcDbRegAppTableRecord
  2
ACAD
 70
     0
  0
ENDTAB
  0
TABLE
  2
DIMSTYLE
  5
A
330
0
100
AcDbSymbolTable
 70
     3
100
AcDbDimStyleTable
  0
DIMSTYLE
105
27
330
A
100
AcDbSymbolTableRecord
100
AcDbDimStyleTableRecord
  2
Standard
 70
     0
340
11
  0
DIMSTYLE
105
184
102
{ACAD_REACTORS
330
183
330
193
330
19C
330
1A7
102
}
330
A
100
AcDbSymbolTableRecord
100
AcDbDimStyleTableRecord
  2
GENERATED_STYLE__1
 70
     0
 41
10.73688269723557
 42
1.0
 77
     1
140
50.0
172
     1
176
     7
177
     7
178
     7
271
     0
340
15F
342
185
343
185
344
185
  0
DIMSTYLE
105
1B3
102
{ACAD_REACTORS
330
1B2
330
1BD
330
1C8
102
}
330
A
100
AcDbSymbolTableRecord
100
AcDbDimStyleTableRecord
  2
GENERATED_STYLE__2
 70
     0
 41
10.73688269723557
 42
1.0
 73
     0
 74
     0
 77
     1
140
50.0
172
     1
176
     7
177
     7
178
     7
271
     0
340
15F
342
185
343
185
344
185
  0
ENDTAB
  0
TABLE
  2
BLOCK_RECORD
  5
1
330
0
100
AcDbSymbolTable
 70
    10
  0
BLOCK_RECORD
  5
1F
330
1
100
AcDbSymbolTableRecord
100
AcDbBlockTableRecord
  2
*Model_Space
340
22
  0
BLOCK_RECORD
  5
1B
330
1
100
AcDbSymbolTableRecord
100
AcDbBlockTableRecord
  2
*Paper_Space
340
1E
  0
BLOCK_RECORD
  5
23
330
1
100
AcDbSymbolTableRecord
100
AcDbBlockTableRecord
  2
*Paper_Space0
340
26
  0
BLOCK_RECORD
  5
154
330
1
100
AcDbSymbolTableRecord
100
AcDbBlockTableRecord
  2
*D1
340
0
  0
BLOCK_RECORD
  5
185
330
1
100
AcDbSymbolTableRecord
100
AcDbBlockTableRecord
  2
ARROWHEAD_2
340
0
  0
BLOCK_RECORD
  5
18A
330
1
100
AcDbSymbolTableRecord
100
AcDbBlockTableRecord
  2
*D3
340
0
  0
BLOCK_RECORD
  5
194
330
1
100
AcDbSymbolTableRecord
100
AcDbBlockTableRecord
  2
*D4
340
0
  0
BLOCK_RECORD
  5
19D
330
1
100
AcDbSymbolTableRecord
100
AcDbBlockTableRecord
  2
*D5
340
0
  0
BLOCK_RECORD
  5
1A8
330
1
100
AcDbSymbolTableRecord
100
AcDbBlockTableRecord
  2
*D6
340
0
  0
BLOCK_RECORD
  5
1B4
330
1
100
AcDbSymbolTableRecord
100
AcDbBlockTableRecord
  2
*D7
340
0
  0
BLOCK_RECORD
  5
1BE
330
1
100
AcDbSymbolTableRecord
100
AcDbBlockTableRecord
  2
*D8
340
0
  0
BLOCK_RECORD
  5
1D4
330
1
100
AcDbSymbolTableRecord
100
AcDbBlockTableRecord
  2
Untitled _STORY_MARKER
340
0
  0
ENDTAB
  0
ENDSEC
  0
SECTION
  2
BLOCKS
  0
BLOCK
  5
20
330
1F
100
AcDbEntity
  8
0
100
AcDbBlockBegin
  2
*Model_Space
 70
     0
 10
0.0
 20
0.0
 30
0.0
  3
*Model_Space
  1

  0
ENDBLK
  5
21
330
1F
100
AcDbEntity
  8
0
100
AcDbBlockEnd
  0
BLOCK
  5
1C
330
1B
100
AcDbEntity
 67
     1
  8
0
100
AcDbBlockBegin
  2
*Paper_Space
 70
     0
 10
0.0
 20
0.0
 30
0.0
  3
*Paper_Space
  1

  0
ENDBLK
  5
1D
330
1B
100
AcDbEntity
 67
     1
  8
0
100
AcDbBlockEnd
  0
BLOCK
  5
24
330
23
100
AcDbEntity
  8
0
100
AcDbBlockBegin
  2
*Paper_Space0
 70
     0
 10
0.0
 20
0.0
 30
0.0
  3
*Paper_Space0
  1

  0
ENDBLK
  5
25
330
23
100
AcDbEntity
  8
0
100
AcDbBlockEnd
  0
BLOCK
  5
155
330
154
100
AcDbEntity
  8
0
100
AcDbBlockBegin
  2
*D1
 70
     1
 10
0.0
 20
0.0
 30
0.0
  3
*D1
  1

  0
LINE
  5
157
330
154
100
AcDbEntity
  8
0_Pen_No__1
  6
Continuous
100
AcDbLine
 10
-1005.129806555599
 20
1780.620502334972
 30
0.0
 11
-998.2214701885623
 21
1780.620502334972
 31
0.0
  0
LINE
  5
159
330
154
100
AcDbEntity
  8
0_Pen_No__1
  6
Continuous
100
AcDbLine
 10
-998.2214701885623
 20
1780.620502334972
 30
0.0
 11
-398.2214701885627
 21
1780.620502334972
 31
0.0
  0
LINE
  5
15A
330
154
100
AcDbEntity
  8
0_Pen_No__7
  6
Continuous
100
AcDbLine
 10
-994.143220698267
 20
1787.684240951575
 30
0.0
 11
-1002.299719678858
 21
1773.55676371837
 31
0.0
  0
LINE
  5
15C
330
154
100
AcDbEntity
  8
0_Pen_No__1
  6
Continuous
100
AcDbLine
 10
-998.2214701885623
 20
1526.501705205981
 30
0.0
 11
-998.2214701885623
 21
1791.216110259876
 31
0.0
  0
LINE
  5
15D
330
154
100
AcDbEntity
  8
0_Pen_No__1
  6
Continuous
100
AcDbLine
 10
-398.2214701885627
 20
1526.501705205981
 30
0.0
 11
-398.2214701885627
 21
1791.216110259876
 31
0.0
  0
LINE
  5
15E
330
154
100
AcDbEntity
  8
0_Pen_No__7
  6
Continuous
100
AcDbLine
 10
-394.1432206982673
 20
1787.684240951575
 30
0.0
 11
-402.2997196788581
 21
1773.55676371837
 31
0.0
  0
MTEXT
  5
160
330
154
100
AcDbEntity
  8
0_Pen_No__7
100
AcDbMText
 10
-756.8097186798497
 20
1840.620502334972
 30
0.0
 40
50.0
 41
0.0
 71
     1
 72
     1
  1
{600}
  7
GENERATED_STYLE_1
 73
     1
 44
1.0
  0
ENDBLK
  5
156
330
154
100
AcDbEntity
  8
0
100
AcDbBlockEnd
  0
BLOCK
  5
186
330
185
100
AcDbEntity
  8
0
100
AcDbBlockBegin
  2
ARROWHEAD_2
 70
     0
 10
0.0
 20
0.0
 30
0.0
  3
ARROWHEAD_2
  1

  0
LINE
  5
188
330
185
100
AcDbEntity
  8
0
  6
Continuous
 62
     0
370
     0
100
AcDbLine
 10
-0.3781315
 20
-0.655
 30
0.0
 11
0.3781315
 21
0.655
 31
0.0
  0
LINE
  5
189
330
185
100
AcDbEntity
  8
0
  6
Continuous
 62
     0
370
     0
100
AcDbLine
 10
0.0
 20
0.0
 30
0.0
 11
-1.0
 21
0.0
 31
0.0
  0
ENDBLK
  5
187
330
185
100
AcDbEntity
  8
0
100
AcDbBlockEnd
  0
BLOCK
  5
18B
330
18A
100
AcDbEntity
  8
0
100
AcDbBlockBegin
  2
*D3
 70
     1
 10
0.0
 20
0.0
 30
0.0
  3
*D3
  1

  0
LINE
  5
18D
330
18A
100
AcDbEntity
  8
0_Pen_No__1
  6
Continuous
100
AcDbLine
 10
-398.2214701885627
 20
1526.501705205981
 30
0.0
 11
-398.2214701885627
 21
1791.216110259876
 31
0.0
  0
LINE
  5
18E
330
18A
100
AcDbEntity
  8
0_Pen_No__1
  6
Continuous
100
AcDbLine
 10
-398.2214701885627
 20
1780.620502334972
 30
0.0
 11
201.778529811437
 21
1780.620502334972
 31
0.0
  0
LINE
  5
18F
330
18A
100
AcDbEntity
  8
0_Pen_No__7
  6
Continuous
100
AcDbLine
 10
-394.1432206982673
 20
1787.684240951575
 30
0.0
 11
-402.2997196788581
 21
1773.55676371837
 31
0.0
  0
LINE
  5
190
330
18A
100
AcDbEntity
  8
0_Pen_No__1
  6
Continuous
100
AcDbLine
 10
201.778529811437
 20
1526.501705205981
 30
0.0
 11
201.778529811437
 21
1791.216110259876
 31
0.0
  0
LINE
  5
191
330
18A
100
AcDbEntity
  8
0_Pen_No__7
  6
Continuous
100
AcDbLine
 10
205.8567793017324
 20
1787.684240951575
 30
0.0
 11
197.7002803211416
 21
1773.55676371837
 31
0.0
  0
MTEXT
  5
192
330
18A
100
AcDbEntity
  8
0_Pen_No__7
100
AcDbMText
 10
-156.8097186798501
 20
1840.620502334972
 30
0.0
 40
50.0
 41
0.0
 71
     1
 72
     1
  1
{600}
  7
GENERATED_STYLE_1
 73
     1
 44
1.0
  0
ENDBLK
  5
18C
330
18A
100
AcDbEntity
  8
0
100
AcDbBlockEnd
  0
BLOCK
  5
195
330
194
100
AcDbEntity
  8
0
100
AcDbBlockBegin
  2
*D4
 70
     1
 10
0.0
 20
0.0
 30
0.0
  3
*D4
  1

  0
LINE
  5
197
330
194
100
AcDbEntity
  8
0_Pen_No__1
  6
Continuous
100
AcDbLine
 10
201.778529811437
 20
1780.620502334972
 30
0.0
 11
801.7785298114349
 21
1780.620502334972
 31
0.0
  0
LINE
  5
198
330
194
100
AcDbEntity
  8
0_Pen_No__7
  6
Continuous
100
AcDbLine
 10
205.8567793017324
 20
1787.684240951575
 30
0.0
 11
197.7002803211416
 21
1773.55676371837
 31
0.0
  0
LINE
  5
199
330
194
100
AcDbEntity
  8
0_Pen_No__1
  6
Continuous
100
AcDbLine
 10
801.7785298114349
 20
1526.501705205981
 30
0.0
 11
801.7785298114349
 21
1791.216110259876
 31
0.0
  0
LINE
  5
19A
330
194
100
AcDbEntity
  8
0_Pen_No__7
  6
Continuous
100
AcDbLine
 10
805.8567793017302
 20
1787.684240951575
 30
0.0
 11
797.7002803211395
 21
1773.55676371837
 31
0.0
  0
MTEXT
  5
19B
330
194
100
AcDbEntity
  8
0_Pen_No__7
100
AcDbMText
 10
443.1902813201487
 20
1840.620502334972
 30
0.0
 40
50.0
 41
0.0
 71
     1
 72
     1
  1
{600}
  7
GENERATED_STYLE_1
 73
     1
 44
1.0
  0
ENDBLK
  5
196
330
194
100
AcDbEntity
  8
0
100
AcDbBlockEnd
  0
BLOCK
  5
19E
330
19D
100
AcDbEntity
  8
0
100
AcDbBlockBegin
  2
*D5
 70
     1
 10
0.0
 20
0.0
 30
0.0
  3
*D5
  1

  0
LINE
  5
1A0
330
19D
100
AcDbEntity
  8
0_Pen_No__1
  6
Continuous
100
AcDbLine
 10
801.7785298114349
 20
1526.501705205981
 30
0.0
 11
801.7785298114349
 21
1791.216110259876
 31
0.0
  0
LINE
  5
1A1
330
19D
100
AcDbEntity
  8
0_Pen_No__1
  6
Continuous
100
AcDbLine
 10
801.7785298114349
 20
1780.620502334972
 30
0.0
 11
1401.778529811438
 21
1780.620502334972
 31
0.0
  0
LINE
  5
1A2
330
19D
100
AcDbEntity
  8
0_Pen_No__7
  6
Continuous
100
AcDbLine
 10
805.8567793017302
 20
1787.684240951575
 30
0.0
 11
797.7002803211395
 21
1773.55676371837
 31
0.0
  0
LINE
  5
1A3
330
19D
100
AcDbEntity
  8
0_Pen_No__7
  6
Continuous
100
AcDbLine
 10
1397.700280321143
 20
1773.55676371837
 30
0.0
 11
1405.856779301733
 21
1787.684240951575
 31
0.0
  0
LINE
  5
1A4
330
19D
100
AcDbEntity
  8
0_Pen_No__1
  6
Continuous
100
AcDbLine
 10
1401.778529811438
 20
1780.620502334972
 30
0.0
 11
1408.686866178475
 21
1780.620502334972
 31
0.0
  0
LINE
  5
1A5
330
19D
100
AcDbEntity
  8
0_Pen_No__1
  6
Continuous
100
AcDbLine
 10
1401.778529811438
 20
1526.501705205981
 30
0.0
 11
1401.778529811438
 21
1791.216110259876
 31
0.0
  0
MTEXT
  5
1A6
330
19D
100
AcDbEntity
  8
0_Pen_No__7
100
AcDbMText
 10
1043.190281320149
 20
1840.620502334972
 30
0.0
 40
50.0
 41
0.0
 71
     1
 72
     1
  1
{600}
  7
GENERATED_STYLE_1
 73
     1
 44
1.0
  0
ENDBLK
  5
19F
330
19D
100
AcDbEntity
  8
0
100
AcDbBlockEnd
  0
BLOCK
  5
1A9
330
1A8
100
AcDbEntity
  8
0
100
AcDbBlockBegin
  2
*D6
 70
     1
 10
0.0
 20
0.0
 30
0.0
  3
*D6
  1

  0
LINE
  5
1AB
330
1A8
100
AcDbEntity
  8
0_Pen_No__1
  6
Continuous
100
AcDbLine
 10
-1364.869307391265
 20
-1128.483038023206
 30
0.0
 11
-1364.869307391265
 21
-1121.574701656169
 31
0.0
  0
LINE
  5
1AC
330
1A8
100
AcDbEntity
  8
0_Pen_No__1
  6
Continuous
100
AcDbLine
 10
-1364.869307391265
 20
-1121.574701656169
 30
0.0
 11
-1364.869307391265
 21
-329.9080349895029
 31
0.0
  0
LINE
  5
1AD
330
1A8
100
AcDbEntity
  8
0_Pen_No__7
  6
Continuous
100
AcDbLine
 10
-1371.933046007867
 20
-1117.496452165874
 30
0.0
 11
-1357.805568774662
 21
-1125.652951146464
 31
0.0
  0
LINE
  5
1AE
330
1A8
100
AcDbEntity
  8
0_Pen_No__1
  6
Continuous
100
AcDbLine
 10
-1224.049142156813
 20
-1121.574701656169
 30
0.0
 11
-1375.464915316168
 21
-1121.574701656169
 31
0.0
  0
LINE
  5
1AF
330
1A8
100
AcDbEntity
  8
0_Pen_No__1
  6
Continuous
100
AcDbLine
 10
-1224.04914215681
 20
-329.9080349895029
 30
0.0
 11
-1375.464915316168
 21
-329.9080349895029
 31
0.0
  0
LINE
  5
1B0
330
1A8
100
AcDbEntity
  8
0_Pen_No__7
  6
Continuous
100
AcDbLine
 10
-1371.933046007867
 20
-325.8297854992076
 30
0.0
 11
-1357.805568774662
 21
-333.9862844797983
 31
0.0
  0
MTEXT
  5
1B1
330
1A8
100
AcDbEntity
  8
0_Pen_No__7
100
AcDbMText
 10
-1424.869307391265
 20
-784.3296168141231
 30
0.0
 40
50.0
 41
0.0
 71
     1
 72
     1
  1
{800}
  7
GENERATED_STYLE_1
 11
6.123233995736766E-17
 21
1.0
 31
0.0
 73
     1
 44
1.0
  0
ENDBLK
  5
1AA
330
1A8
100
AcDbEntity
  8
0
100
AcDbBlockEnd
  0
BLOCK
  5
1B5
330
1B4
100
AcDbEntity
  8
0
100
AcDbBlockBegin
  2
*D7
 70
     1
 10
0.0
 20
0.0
 30
0.0
  3
*D7
  1

  0
LINE
  5
1B7
330
1B4
100
AcDbEntity
  8
0_Pen_No__1
  6
Continuous
100
AcDbLine
 10
-1224.04914215681
 20
-329.9080349895029
 30
0.0
 11
-1375.464915316168
 21
-329.9080349895029
 31
0.0
  0
LINE
  5
1B8
330
1B4
100
AcDbEntity
  8
0_Pen_No__1
  6
Continuous
100
AcDbLine
 10
-1364.869307391265
 20
-329.9080349895029
 30
0.0
 11
-1364.869307391265
 21
436.7586316771637
 31
0.0
  0
LINE
  5
1B9
330
1B4
100
AcDbEntity
  8
0_Pen_No__7
  6
Continuous
100
AcDbLine
 10
-1371.933046007867
 20
-325.8297854992076
 30
0.0
 11
-1357.805568774662
 21
-333.9862844797983
 31
0.0
  0
LINE
  5
1BA
330
1B4
100
AcDbEntity
  8
0_Pen_No__1
  6
Continuous
100
AcDbLine
 10
-1224.049142156812
 20
436.7586316771637
 30
0.0
 11
-1375.464915316168
 21
436.7586316771637
 31
0.0
  0
LINE
  5
1BB
330
1B4
100
AcDbEntity
  8
0_Pen_No__7
  6
Continuous
100
AcDbLine
 10
-1371.933046007867
 20
440.8368811674591
 30
0.0
 11
-1357.805568774662
 21
432.6803821868683
 31
0.0
  0
MTEXT
  5
1BC
330
1B4
100
AcDbEntity
  8
0_Pen_No__7
100
AcDbMText
 10
-1424.869307391265
 20
-5.16295014745682
 30
0.0
 40
50.0
 41
0.0
 71
     1
 72
     1
  1
{800}
  7
GENERATED_STYLE_1
 11
6.123233995736766E-17
 21
1.0
 31
0.0
 73
     1
 44
1.0
  0
ENDBLK
  5
1B6
330
1B4
100
AcDbEntity
  8
0
100
AcDbBlockEnd
  0
BLOCK
  5
1BF
330
1BE
100
AcDbEntity
  8
0
100
AcDbBlockBegin
  2
*D8
 70
     1
 10
0.0
 20
0.0
 30
0.0
  3
*D8
  1

  0
LINE
  5
1C1
330
1BE
100
AcDbEntity
  8
0_Pen_No__1
  6
Continuous
100
AcDbLine
 10
-1224.049142156812
 20
436.7586316771637
 30
0.0
 11
-1375.464915316168
 21
436.7586316771637
 31
0.0
  0
LINE
  5
1C2
330
1BE
100
AcDbEntity
  8
0_Pen_No__1
  6
Continuous
100
AcDbLine
 10
-1364.869307391265
 20
436.7586316771637
 30
0.0
 11
-1364.869307391265
 21
1228.425298343831
 31
0.0
  0
LINE
  5
1C3
330
1BE
100
AcDbEntity
  8
0_Pen_No__7
  6
Continuous
100
AcDbLine
 10
-1371.933046007867
 20
440.8368811674591
 30
0.0
 11
-1357.805568774662
 21
432.6803821868683
 31
0.0
  0
LINE
  5
1C4
330
1BE
100
AcDbEntity
  8
0_Pen_No__7
  6
Continuous
100
AcDbLine
 10
-1357.805568774662
 20
1224.347048853535
 30
0.0
 11
-1371.933046007867
 21
1232.503547834126
 31
0.0
  0
LINE
  5
1C5
330
1BE
100
AcDbEntity
  8
0_Pen_No__1
  6
Continuous
100
AcDbLine
 10
-1364.869307391265
 20
1228.425298343831
 30
0.0
 11
-1364.869307391265
 21
1235.333634710868
 31
0.0
  0
LINE
  5
1C6
330
1BE
100
AcDbEntity
  8
0_Pen_No__1
  6
Continuous
100
AcDbLine
 10
-1224.049142156813
 20
1228.425298343831
 30
0.0
 11
-1375.464915316168
 21
1228.425298343831
 31
0.0
  0
MTEXT
  5
1C7
330
1BE
100
AcDbEntity
  8
0_Pen_No__7
100
AcDbMText
 10
-1424.869307391264
 20
774.00371651921
 30
0.0
 40
50.0
 41
0.0
 71
     1
 72
     1
  1
{800}
  7
GENERATED_STYLE_1
 11
6.123233995736766E-17
 21
1.0
 31
0.0
 73
     1
 44
1.0
  0
ENDBLK
  5
1C0
330
1BE
100
AcDbEntity
  8
0
100
AcDbBlockEnd
  0
BLOCK
  5
1D5
330
1D4
100
AcDbEntity
  8
0
100
AcDbBlockBegin
  2
Untitled _STORY_MARKER
 70
     0
 10
0.0
 20
0.0
 30
0.0
  3
Untitled _STORY_MARKER
  1

  0
ENDBLK
  5
1D6
330
1D4
100
AcDbEntity
  8
0
100
AcDbBlockEnd
  0
ENDSEC
  0
SECTION
  2
ENTITIES
  0
HATCH
  5
3B
330
1F
100
AcDbEntity
  8
chh-09_Pen_No__9_Pen_No__2
  6
Continuous
100
AcDbHatch
 10
0.0
 20
0.0
 30
0.0
210
0.0
220
0.0
230
1.0
  2
SOLID
 70
     1
 71
     0
 91
        1
 92
        2
 72
     0
 73
     1
 93
        3
 10
941.7302540974082
 20
846.5408223458612
 10
941.7302540974082
 20
874.5408103223328
 10
857.7302901679968
 20
860.5408163341149
 97
        0
 75
     0
 76
     1
 98
        0
  0
HATCH
  5
3D
330
1F
100
AcDbEntity
  8
chh-09_Pen_No__9_Pen_No__2
  6
Continuous
100
AcDbHatch
 10
0.0
 20
0.0
 30
0.0
210
0.0
220
0.0
230
1.0
  2
SOLID
 70
     1
 71
     0
 91
        1
 92
        2
 72
     0
 73
     1
 93
        3
 10
1491.627232463728
 20
-80.05357896857257
 10
1491.627232463728
 20
-52.05359099210006
 10
1407.627268534317
 20
-66.0535849803181
 97
        0
 75
     0
 76
     1
 98
        0
  0
HATCH
  5
3E
330
1F
100
AcDbEntity
  8
chh-09_Pen_No__9_Pen_No__2
  6
Continuous
100
AcDbHatch
 10
0.0
 20
0.0
 30
0.0
210
0.0
220
0.0
230
1.0
  2
SOLID
 70
     1
 71
     0
 91
        1
 92
        2
 72
     0
 73
     1
 93
        3
 10
1491.627232463728
 20
-1200.586337904466
 10
1491.627232463728
 20
-1172.586349927993
 10
1407.627268534317
 20
-1186.586343916211
 97
        0
 75
     0
 76
     1
 98
        0
  0
LINE
  5
40
330
1F
100
AcDbEntity
  8
0_Pen_No__7_Pen_No__7
  6
DASHEDX2
100
AcDbLine
 10
-373.2214701885623
 20
1203.425298343831
 30
0.0
 11
-373.2214701885623
 21
-1096.574701656169
 31
0.0
  0
LINE
  5
42
330
1F
100
AcDbEntity
  8
0_Pen_No__7_Pen_No__7
  6
DASHEDX2
100
AcDbLine
 10
-423.221470188563
 20
1203.425298343831
 30
0.0
 11
-423.221470188563
 21
-1096.574701656169
 31
0.0
  0
LINE
  5
43
330
1F
100
AcDbEntity
  8
0_Pen_No__7_Pen_No__7
  6
DASHEDX2
100
AcDbLine
 10
-373.2214701885623
 20
411.7586316771651
 30
0.0
 11
176.7785298114349
 21
411.7586316771651
 31
0.0
  0
LINE
  5
44
330
1F
100
AcDbEntity
  8
0_Pen_No__7_Pen_No__7
  6
DASHEDX2
100
AcDbLine
 10
-373.2214701885623
 20
461.7586316771649
 30
0.0
 11
176.7785298114349
 21
461.7586316771649
 31
0.0
  0
LINE
  5
45
330
1F
100
AcDbEntity
  8
0_Pen_No__7_Pen_No__7
  6
DASHEDX2
100
AcDbLine
 10
-373.2214701885623
 20
-304.9080349895026
 30
0.0
 11
176.7785298114349
 21
-304.9080349895026
 31
0.0
  0
LINE
  5
46
330
1F
100
AcDbEntity
  8
0_Pen_No__7_Pen_No__7
  6
DASHEDX2
100
AcDbLine
 10
-373.2214701885623
 20
-354.9080349895024
 30
0.0
 11
176.7785298114349
 21
-354.9080349895024
 31
0.0
  0
LINE
  5
47
330
1F
100
AcDbEntity
  8
0_Pen_No__7_Pen_No__7
  6
DASHEDX2
100
AcDbLine
 10
226.7785298114374
 20
1203.425298343831
 30
0.0
 11
226.7785298114374
 21
-1096.574701656169
 31
0.0
  0
LINE
  5
48
330
1F
100
AcDbEntity
  8
0_Pen_No__7_Pen_No__7
  6
DASHEDX2
100
AcDbLine
 10
176.7785298114349
 20
1203.425298343831
 30
0.0
 11
176.7785298114349
 21
-1096.574701656169
 31
0.0
  0
LINE
  5
49
330
1F
100
AcDbEntity
  8
0_Pen_No__7_Pen_No__7
  6
DASHEDX2
100
AcDbLine
 10
226.7785298114374
 20
411.7586316771651
 30
0.0
 11
776.778529811438
 21
411.7586316771651
 31
0.0
  0
LINE
  5
4A
330
1F
100
AcDbEntity
  8
0_Pen_No__7_Pen_No__7
  6
DASHEDX2
100
AcDbLine
 10
226.7785298114374
 20
461.7586316771649
 30
0.0
 11
776.778529811438
 21
461.7586316771649
 31
0.0
  0
LINE
  5
4B
330
1F
100
AcDbEntity
  8
0_Pen_No__7_Pen_No__7
  6
DASHEDX2
100
AcDbLine
 10
226.7785298114374
 20
-304.9080349895026
 30
0.0
 11
776.778529811438
 21
-304.9080349895026
 31
0.0
  0
LINE
  5
4C
330
1F
100
AcDbEntity
  8
0_Pen_No__7_Pen_No__7
  6
DASHEDX2
100
AcDbLine
 10
226.7785298114374
 20
-354.9080349895024
 30
0.0
 11
776.778529811438
 21
-354.9080349895024
 31
0.0
  0
LINE
  5
4D
330
1F
100
AcDbEntity
  8
0_Pen_No__7_Pen_No__7
  6
DASHEDX2
100
AcDbLine
 10
826.778529811437
 20
1203.425298343831
 30
0.0
 11
826.778529811437
 21
-1096.574701656169
 31
0.0
  0
LINE
  5
4E
330
1F
100
AcDbEntity
  8
0_Pen_No__7_Pen_No__7
  6
DASHEDX2
100
AcDbLine
 10
776.778529811438
 20
1203.425298343831
 30
0.0
 11
776.778529811438
 21
-1096.574701656169
 31
0.0
  0
LINE
  5
4F
330
1F
100
AcDbEntity
  8
0_Pen_No__7_Pen_No__7
  6
DASHEDX2
100
AcDbLine
 10
826.778529811437
 20
411.7586316771651
 30
0.0
 11
1376.77852981144
 21
411.7586316771651
 31
0.0
  0
LINE
  5
50
330
1F
100
AcDbEntity
  8
0_Pen_No__7_Pen_No__7
  6
DASHEDX2
100
AcDbLine
 10
826.778529811437
 20
461.7586316771649
 30
0.0
 11
1376.77852981144
 21
461.7586316771649
 31
0.0
  0
LINE
  5
51
330
1F
100
AcDbEntity
  8
0_Pen_No__7_Pen_No__7
  6
DASHEDX2
100
AcDbLine
 10
826.778529811437
 20
-304.9080349895026
 30
0.0
 11
1376.778529811438
 21
-304.9080349895026
 31
0.0
  0
LINE
  5
52
330
1F
100
AcDbEntity
  8
0_Pen_No__7_Pen_No__7
  6
DASHEDX2
100
AcDbLine
 10
826.778529811437
 20
-354.9080349895024
 30
0.0
 11
1376.778529811438
 21
-354.9080349895024
 31
0.0
  0
LINE
  5
53
330
1F
100
AcDbEntity
  8
0_Pen_No__7_Pen_No__7
  6
DASHEDX2
100
AcDbLine
 10
-973.221470188562
 20
1203.425298343831
 30
0.0
 11
-973.221470188562
 21
-1096.574701656169
 31
0.0
  0
LINE
  5
54
330
1F
100
AcDbEntity
  8
0_Pen_No__7_Pen_No__7
  6
Continuous
100
AcDbLine
 10
-1023.221470188563
 20
1203.425298343831
 30
0.0
 11
-1023.221470188563
 21
-1096.574701656169
 31
0.0
  0
LINE
  5
55
330
1F
100
AcDbEntity
  8
0_Pen_No__7_Pen_No__7
  6
DASHEDX2
100
AcDbLine
 10
-973.221470188562
 20
411.7586316771651
 30
0.0
 11
-423.221470188563
 21
411.7586316771651
 31
0.0
  0
LINE
  5
56
330
1F
100
AcDbEntity
  8
0_Pen_No__7_Pen_No__7
  6
DASHEDX2
100
AcDbLine
 10
-973.221470188562
 20
461.7586316771649
 30
0.0
 11
-423.221470188563
 21
461.7586316771649
 31
0.0
  0
LINE
  5
57
330
1F
100
AcDbEntity
  8
0_Pen_No__7_Pen_No__7
  6
DASHEDX2
100
AcDbLine
 10
-973.221470188562
 20
-354.9080349895024
 30
0.0
 11
-423.221470188563
 21
-354.9080349895024
 31
0.0
  0
LINE
  5
58
330
1F
100
AcDbEntity
  8
0_Pen_No__7_Pen_No__7
  6
DASHEDX2
100
AcDbLine
 10
-973.221470188562
 20
-304.9080349895026
 30
0.0
 11
-423.221470188563
 21
-304.9080349895026
 31
0.0
  0
LINE
  5
59
330
1F
100
AcDbEntity
  8
0_Pen_No__7_Pen_No__7
  6
Continuous
100
AcDbLine
 10
-986.2214701885619
 20
-1131.574701656168
 30
0.0
 11
-986.2214701885619
 21
-1111.574701656169
 31
0.0
  0
LINE
  5
5A
330
1F
100
AcDbEntity
  8
0_Pen_No__7_Pen_No__7
  6
Continuous
100
AcDbLine
 10
-996.2214701885616
 20
-1121.574701656169
 30
0.0
 11
-976.2214701885621
 21
-1121.574701656169
 31
0.0
  0
LINE
  5
5B
330
1F
100
AcDbEntity
  8
0_Pen_No__7_Pen_No__7
  6
Continuous
100
AcDbLine
 10
-986.2214701885619
 20
-981.5747016561689
 30
0.0
 11
-986.2214701885619
 21
-961.5747016561688
 31
0.0
  0
LINE
  5
5C
330
1F
100
AcDbEntity
  8
0_Pen_No__7_Pen_No__7
  6
Continuous
100
AcDbLine
 10
-996.2214701885616
 20
-971.574701656169
 30
0.0
 11
-976.2214701885621
 21
-971.574701656169
 31
0.0
  0
LINE
  5
5D
330
1F
100
AcDbEntity
  8
0_Pen_No__7_Pen_No__7
  6
Continuous
100
AcDbLine
 10
-986.2214701885619
 20
-831.5747016561689
 30
0.0
 11
-986.2214701885619
 21
-811.5747016561689
 31
0.0
  0
LINE
  5
5E
330
1F
100
AcDbEntity
  8
0_Pen_No__7_Pen_No__7
  6
Continuous
100
AcDbLine
 10
-996.2214701885616
 20
-821.5747016561692
 30
0.0
 11
-976.2214701885621
 21
-821.5747016561692
 31
0.0
  0
LINE
  5
5F
330
1F
100
AcDbEntity
  8
0_Pen_No__7_Pen_No__7
  6
Continuous
100
AcDbLine
 10
-986.2214701885619
 20
-681.574701656169
 30
0.0
 11
-986.2214701885619
 21
-661.574701656169
 31
0.0
  0
LINE
  5
60
330
1F
100
AcDbEntity
  8
0_Pen_No__7_Pen_No__7
  6
Continuous
100
AcDbLine
 10
-996.2214701885616
 20
-671.5747016561684
 30
0.0
 11
-976.2214701885621
 21
-671.5747016561684
 31
0.0
  0
LINE
  5
61
330
1F
100
AcDbEntity
  8
0_Pen_No__7_Pen_No__7
  6
Continuous
100
AcDbLine
 10
-986.2214701885619
 20
-531.5747016561692
 30
0.0
 11
-986.2214701885619
 21
-511.5747016561692
 31
0.0
  0
LINE
  5
62
330
1F
100
AcDbEntity
  8
0_Pen_No__7_Pen_No__7
  6
Continuous
100
AcDbLine
 10
-996.2214701885616
 20
-521.5747016561689
 30
0.0
 11
-976.2214701885621
 21
-521.5747016561689
 31
0.0
  0
LINE
  5
63
330
1F
100
AcDbEntity
  8
0_Pen_No__7_Pen_No__7
  6
Continuous
100
AcDbLine
 10
-986.2214701885619
 20
-381.5747016561684
 30
0.0
 11
-986.2214701885619
 21
-361.5747016561683
 31
0.0
  0
LINE
  5
64
330
1F
100
AcDbEntity
  8
0_Pen_No__7_Pen_No__7
  6
Continuous
100
AcDbLine
 10
-996.2214701885616
 20
-371.574701656169
 30
0.0
 11
-976.2214701885621
 21
-371.574701656169
 31
0.0
  0
LINE
  5
65
330
1F
100
AcDbEntity
  8
0_Pen_No__7_Pen_No__7
  6
Continuous
100
AcDbLine
 10
-986.2214701885619
 20
-231.5747016561689
 30
0.0
 11
-986.2214701885619
 21
-211.5747016561689
 31
0.0
  0
LINE
  5
66
330
1F
100
AcDbEntity
  8
0_Pen_No__7_Pen_No__7
  6
Continuous
100
AcDbLine
 10
-996.2214701885616
 20
-221.5747016561691
 30
0.0
 11
-976.2214701885621
 21
-221.5747016561691
 31
0.0
  0
LINE
  5
67
330
1F
100
AcDbEntity
  8
0_Pen_No__7_Pen_No__7
  6
Continuous
100
AcDbLine
 10
-986.2214701885619
 20
-81.57470165616898
 30
0.0
 11
-986.2214701885619
 21
-61.57470165616941
 31
0.0
  0
LINE
  5
68
330
1F
100
AcDbEntity
  8
0_Pen_No__7_Pen_No__7
  6
Continuous
100
AcDbLine
 10
-996.2214701885616
 20
-71.5747016561692
 30
0.0
 11
-976.2214701885621
 21
-71.5747016561692
 31
0.0
  0
LINE
  5
69
330
1F
100
AcDbEntity
  8
0_Pen_No__7_Pen_No__7
  6
Continuous
100
AcDbLine
 10
-986.2214701885619
 20
68.42529834383137
 30
0.0
 11
-986.2214701885619
 21
88.42529834383095
 31
0.0
  0
LINE
  5
6A
330
1F
100
AcDbEntity
  8
0_Pen_No__7_Pen_No__7
  6
Continuous
100
AcDbLine
 10
-996.2214701885616
 20
78.42529834383116
 30
0.0
 11
-976.2214701885621
 21
78.42529834383116
 31
0.0
  0
LINE
  5
6B
330
1F
100
AcDbEntity
  8
0_Pen_No__7_Pen_No__7
  6
Continuous
100
AcDbLine
 10
-986.2214701885619
 20
218.4252983438308
 30
0.0
 11
-986.2214701885619
 21
238.4252983438313
 31
0.0
  0
LINE
  5
6C
330
1F
100
AcDbEntity
  8
0_Pen_No__7_Pen_No__7
  6
Continuous
100
AcDbLine
 10
-996.2214701885616
 20
228.4252983438306
 30
0.0
 11
-976.2214701885621
 21
228.4252983438306
 31
0.0
  0
LINE
  5
6D
330
1F
100
AcDbEntity
  8
0_Pen_No__7_Pen_No__7
  6
Continuous
100
AcDbLine
 10
-986.2214701885619
 20
368.4252983438312
 30
0.0
 11
-986.2214701885619
 21
388.4252983438308
 31
0.0
  0
LINE
  5
6E
330
1F
100
AcDbEntity
  8
0_Pen_No__7_Pen_No__7
  6
Continuous
100
AcDbLine
 10
-996.2214701885616
 20
378.425298343831
 30
0.0
 11
-976.2214701885621
 21
378.425298343831
 31
0.0
  0
LINE
  5
6F
330
1F
100
AcDbEntity
  8
0_Pen_No__7_Pen_No__7
  6
Continuous
100
AcDbLine
 10
-986.2214701885619
 20
518.4252983438307
 30
0.0
 11
-986.2214701885619
 21
538.4252983438312
 31
0.0
  0
LINE
  5
70
330
1F
100
AcDbEntity
  8
0_Pen_No__7_Pen_No__7
  6
Continuous
100
AcDbLine
 10
-996.2214701885616
 20
528.4252983438313
 30
0.0
 11
-976.2214701885621
 21
528.4252983438313
 31
0.0
  0
LINE
  5
71
330
1F
100
AcDbEntity
  8
0_Pen_No__7_Pen_No__7
  6
Continuous
100
AcDbLine
 10
-986.2214701885619
 20
668.4252983438311
 30
0.0
 11
-986.2214701885619
 21
688.4252983438306
 31
0.0
  0
LINE
  5
72
330
1F
100
AcDbEntity
  8
0_Pen_No__7_Pen_No__7
  6
Continuous
100
AcDbLine
 10
-996.2214701885616
 20
678.4252983438308
 30
0.0
 11
-976.2214701885621
 21
678.4252983438308
 31
0.0
  0
LINE
  5
73
330
1F
100
AcDbEntity
  8
0_Pen_No__7_Pen_No__7
  6
Continuous
100
AcDbLine
 10
-986.2214701885619
 20
818.4252983438314
 30
0.0
 11
-986.2214701885619
 21
838.425298343831
 31
0.0
  0
LINE
  5
74
330
1F
100
AcDbEntity
  8
0_Pen_No__7_Pen_No__7
  6
Continuous
100
AcDbLine
 10
-996.2214701885616
 20
828.4252983438312
 30
0.0
 11
-976.2214701885621
 21
828.4252983438312
 31
0.0
  0
LINE
  5
75
330
1F
100
AcDbEntity
  8
0_Pen_No__7_Pen_No__7
  6
Continuous
100
AcDbLine
 10
-986.2214701885619
 20
968.4252983438308
 30
0.0
 11
-986.2214701885619
 21
988.4252983438313
 31
0.0
  0
LINE
  5
76
330
1F
100
AcDbEntity
  8
0_Pen_No__7_Pen_No__7
  6
Continuous
100
AcDbLine
 10
-996.2214701885616
 20
978.4252983438306
 30
0.0
 11
-976.2214701885621
 21
978.4252983438306
 31
0.0
  0
LINE
  5
77
330
1F
100
AcDbEntity
  8
0_Pen_No__7_Pen_No__7
  6
Continuous
100
AcDbLine
 10
-986.2214701885619
 20
1118.425298343831
 30
0.0
 11
-986.2214701885619
 21
1138.425298343831
 31
0.0
  0
LINE
  5
78
330
1F
100
AcDbEntity
  8
0_Pen_No__7_Pen_No__7
  6
Continuous
100
AcDbLine
 10
-996.2214701885616
 20
1128.425298343831
 30
0.0
 11
-976.2214701885621
 21
1128.425298343831
 31
0.0
  0
LINE
  5
79
330
1F
100
AcDbEntity
  8
0_Pen_No__7_Pen_No__7
  6
Continuous
100
AcDbLine
 10
-846.2214701885631
 20
-1121.574701656169
 30
0.0
 11
-826.2214701885617
 21
-1121.574701656169
 31
0.0
  0
LINE
  5
7A
330
1F
100
AcDbEntity
  8
0_Pen_No__7_Pen_No__7
  6
Continuous
100
AcDbLine
 10
-836.221470188565
 20
-1111.574701656169
 30
0.0
 11
-836.221470188565
 21
-1131.574701656168
 31
0.0
  0
LINE
  5
7B
330
1F
100
AcDbEntity
  8
0_Pen_No__7_Pen_No__7
  6
Continuous
100
AcDbLine
 10
-696.2214701885628
 20
-1121.574701656169
 30
0.0
 11
-676.2214701885631
 21
-1121.574701656169
 31
0.0
  0
LINE
  5
7C
330
1F
100
AcDbEntity
  8
0_Pen_No__7_Pen_No__7
  6
Continuous
100
AcDbLine
 10
-686.221470188563
 20
-1111.574701656169
 30
0.0
 11
-686.221470188563
 21
-1131.574701656168
 31
0.0
  0
LINE
  5
7D
330
1F
100
AcDbEntity
  8
0_Pen_No__7_Pen_No__7
  6
Continuous
100
AcDbLine
 10
-546.2214701885624
 20
-1121.574701656169
 30
0.0
 11
-526.2214701885628
 21
-1121.574701656169
 31
0.0
  0
LINE
  5
7E
330
1F
100
AcDbEntity
  8
0_Pen_No__7_Pen_No__7
  6
Continuous
100
AcDbLine
 10
-536.2214701885625
 20
-1111.574701656169
 30
0.0
 11
-536.2214701885625
 21
-1131.574701656168
 31
0.0
  0
LINE
  5
7F
330
1F
100
AcDbEntity
  8
0_Pen_No__7_Pen_No__7
  6
Continuous
100
AcDbLine
 10
-396.221470188562
 20
-1121.574701656169
 30
0.0
 11
-376.2214701885624
 21
-1121.574701656169
 31
0.0
  0
LINE
  5
80
330
1F
100
AcDbEntity
  8
0_Pen_No__7_Pen_No__7
  6
Continuous
100
AcDbLine
 10
-386.2214701885623
 20
-1111.574701656169
 30
0.0
 11
-386.2214701885623
 21
-1131.574701656168
 31
0.0
  0
LINE
  5
81
330
1F
100
AcDbEntity
  8
0_Pen_No__7_Pen_No__7
  6
Continuous
100
AcDbLine
 10
-246.2214701885616
 20
-1121.574701656169
 30
0.0
 11
-226.2214701885621
 21
-1121.574701656169
 31
0.0
  0
LINE
  5
82
330
1F
100
AcDbEntity
  8
0_Pen_No__7_Pen_No__7
  6
Continuous
100
AcDbLine
 10
-236.2214701885619
 20
-1111.574701656169
 30
0.0
 11
-236.2214701885619
 21
-1131.574701656168
 31
0.0
  0
LINE
  5
83
330
1F
100
AcDbEntity
  8
0_Pen_No__7_Pen_No__7
  6
Continuous
100
AcDbLine
 10
-96.22147018856306
 20
-1121.574701656169
 30
0.0
 11
-76.22147018856171
 21
-1121.574701656169
 31
0.0
  0
LINE
  5
84
330
1F
100
AcDbEntity
  8
0_Pen_No__7_Pen_No__7
  6
Continuous
100
AcDbLine
 10
-86.22147018856505
 20
-1111.574701656169
 30
0.0
 11
-86.22147018856505
 21
-1131.574701656168
 31
0.0
  0
LINE
  5
85
330
1F
100
AcDbEntity
  8
0_Pen_No__7_Pen_No__7
  6
Continuous
100
AcDbLine
 10
53.77852981143729
 20
-1121.574701656169
 30
0.0
 11
73.77852981143687
 21
-1121.574701656169
 31
0.0
  0
LINE
  5
86
330
1F
100
AcDbEntity
  8
0_Pen_No__7_Pen_No__7
  6
Continuous
100
AcDbLine
 10
63.77852981143708
 20
-1111.574701656169
 30
0.0
 11
63.77852981143708
 21
-1131.574701656168
 31
0.0
  0
LINE
  5
87
330
1F
100
AcDbEntity
  8
0_Pen_No__7_Pen_No__7
  6
Continuous
100
AcDbLine
 10
213.7785298114374
 20
-1131.574701656168
 30
0.0
 11
213.7785298114374
 21
-1111.574701656169
 31
0.0
  0
LINE
  5
88
330
1F
100
AcDbEntity
  8
0_Pen_No__7_Pen_No__7
  6
Continuous
100
AcDbLine
 10
203.7785298114377
 20
-1121.574701656169
 30
0.0
 11
223.7785298114372
 21
-1121.574701656169
 31
0.0
  0
LINE
  5
89
330
1F
100
AcDbEntity
  8
0_Pen_No__7_Pen_No__7
  6
Continuous
100
AcDbLine
 10
213.7785298114374
 20
-981.5747016561689
 30
0.0
 11
213.7785298114374
 21
-961.5747016561688
 31
0.0
  0
LINE
  5
8A
330
1F
100
AcDbEntity
  8
0_Pen_No__7_Pen_No__7
  6
Continuous
100
AcDbLine
 10
203.7785298114377
 20
-971.574701656169
 30
0.0
 11
223.7785298114372
 21
-971.574701656169
 31
0.0
  0
LINE
  5
8B
330
1F
100
AcDbEntity
  8
0_Pen_No__7_Pen_No__7
  6
Continuous
100
AcDbLine
 10
213.7785298114374
 20
-831.5747016561689
 30
0.0
 11
213.7785298114374
 21
-811.5747016561689
 31
0.0
  0
LINE
  5
8C
330
1F
100
AcDbEntity
  8
0_Pen_No__7_Pen_No__7
  6
Continuous
100
AcDbLine
 10
203.7785298114377
 20
-821.5747016561692
 30
0.0
 11
223.7785298114372
 21
-821.5747016561692
 31
0.0
  0
LINE
  5
8D
330
1F
100
AcDbEntity
  8
0_Pen_No__7_Pen_No__7
  6
Continuous
100
AcDbLine
 10
213.7785298114374
 20
-681.574701656169
 30
0.0
 11
213.7785298114374
 21
-661.574701656169
 31
0.0
  0
LINE
  5
8E
330
1F
100
AcDbEntity
  8
0_Pen_No__7_Pen_No__7
  6
Continuous
100
AcDbLine
 10
203.7785298114377
 20
-671.5747016561684
 30
0.0
 11
223.7785298114372
 21
-671.5747016561684
 31
0.0
  0
LINE
  5
8F
330
1F
100
AcDbEntity
  8
0_Pen_No__7_Pen_No__7
  6
Continuous
100
AcDbLine
 10
213.7785298114374
 20
-531.5747016561692
 30
0.0
 11
213.7785298114374
 21
-511.5747016561692
 31
0.0
  0
LINE
  5
90
330
1F
100
AcDbEntity
  8
0_Pen_No__7_Pen_No__7
  6
Continuous
100
AcDbLine
 10
203.7785298114377
 20
-521.5747016561689
 30
0.0
 11
223.7785298114372
 21
-521.5747016561689
 31
0.0
  0
LINE
  5
91
330
1F
100
AcDbEntity
  8
0_Pen_No__7_Pen_No__7
  6
Continuous
100
AcDbLine
 10
213.7785298114374
 20
-381.5747016561684
 30
0.0
 11
213.7785298114374
 21
-361.5747016561683
 31
0.0
  0
LINE
  5
92
330
1F
100
AcDbEntity
  8
0_Pen_No__7_Pen_No__7
  6
Continuous
100
AcDbLine
 10
203.7785298114377
 20
-371.574701656169
 30
0.0
 11
223.7785298114372
 21
-371.574701656169
 31
0.0
  0
LINE
  5
93
330
1F
100
AcDbEntity
  8
0_Pen_No__7_Pen_No__7
  6
Continuous
100
AcDbLine
 10
213.7785298114374
 20
-231.5747016561689
 30
0.0
 11
213.7785298114374
 21
-211.5747016561689
 31
0.0
  0
LINE
  5
94
330
1F
100
AcDbEntity
  8
0_Pen_No__7_Pen_No__7
  6
Continuous
100
AcDbLine
 10
203.7785298114377
 20
-221.5747016561691
 30
0.0
 11
223.7785298114372
 21
-221.5747016561691
 31
0.0
  0
LINE
  5
95
330
1F
100
AcDbEntity
  8
0_Pen_No__7_Pen_No__7
  6
Continuous
100
AcDbLine
 10
213.7785298114374
 20
-81.57470165616898
 30
0.0
 11
213.7785298114374
 21
-61.57470165616941
 31
0.0
  0
LINE
  5
96
330
1F
100
AcDbEntity
  8
0_Pen_No__7_Pen_No__7
  6
Continuous
100
AcDbLine
 10
203.7785298114377
 20
-71.5747016561692
 30
0.0
 11
223.7785298114372
 21
-71.5747016561692
 31
0.0
  0
LINE
  5
97
330
1F
100
AcDbEntity
  8
0_Pen_No__7_Pen_No__7
  6
Continuous
100
AcDbLine
 10
213.7785298114374
 20
68.42529834383137
 30
0.0
 11
213.7785298114374
 21
88.42529834383095
 31
0.0
  0
LINE
  5
98
330
1F
100
AcDbEntity
  8
0_Pen_No__7_Pen_No__7
  6
Continuous
100
AcDbLine
 10
203.7785298114377
 20
78.42529834383116
 30
0.0
 11
223.7785298114372
 21
78.42529834383116
 31
0.0
  0
LINE
  5
99
330
1F
100
AcDbEntity
  8
0_Pen_No__7_Pen_No__7
  6
Continuous
100
AcDbLine
 10
213.7785298114374
 20
218.4252983438308
 30
0.0
 11
213.7785298114374
 21
238.4252983438313
 31
0.0
  0
LINE
  5
9A
330
1F
100
AcDbEntity
  8
0_Pen_No__7_Pen_No__7
  6
Continuous
100
AcDbLine
 10
203.7785298114377
 20
228.4252983438306
 30
0.0
 11
223.7785298114372
 21
228.4252983438306
 31
0.0
  0
LINE
  5
9B
330
1F
100
AcDbEntity
  8
0_Pen_No__7_Pen_No__7
  6
Continuous
100
AcDbLine
 10
213.7785298114374
 20
368.4252983438312
 30
0.0
 11
213.7785298114374
 21
388.4252983438308
 31
0.0
  0
LINE
  5
9C
330
1F
100
AcDbEntity
  8
0_Pen_No__7_Pen_No__7
  6
Continuous
100
AcDbLine
 10
203.7785298114377
 20
378.425298343831
 30
0.0
 11
223.7785298114372
 21
378.425298343831
 31
0.0
  0
LINE
  5
9D
330
1F
100
AcDbEntity
  8
0_Pen_No__7_Pen_No__7
  6
Continuous
100
AcDbLine
 10
213.7785298114374
 20
518.4252983438307
 30
0.0
 11
213.7785298114374
 21
538.4252983438312
 31
0.0
  0
LINE
  5
9E
330
1F
100
AcDbEntity
  8
0_Pen_No__7_Pen_No__7
  6
Continuous
100
AcDbLine
 10
203.7785298114377
 20
528.4252983438313
 30
0.0
 11
223.7785298114372
 21
528.4252983438313
 31
0.0
  0
LINE
  5
9F
330
1F
100
AcDbEntity
  8
0_Pen_No__7_Pen_No__7
  6
Continuous
100
AcDbLine
 10
213.7785298114374
 20
668.4252983438311
 30
0.0
 11
213.7785298114374
 21
688.4252983438306
 31
0.0
  0
LINE
  5
A0
330
1F
100
AcDbEntity
  8
0_Pen_No__7_Pen_No__7
  6
Continuous
100
AcDbLine
 10
203.7785298114377
 20
678.4252983438308
 30
0.0
 11
223.7785298114372
 21
678.4252983438308
 31
0.0
  0
LINE
  5
A1
330
1F
100
AcDbEntity
  8
0_Pen_No__7_Pen_No__7
  6
Continuous
100
AcDbLine
 10
213.7785298114374
 20
818.4252983438314
 30
0.0
 11
213.7785298114374
 21
838.425298343831
 31
0.0
  0
LINE
  5
A2
330
1F
100
AcDbEntity
  8
0_Pen_No__7_Pen_No__7
  6
Continuous
100
AcDbLine
 10
203.7785298114377
 20
828.4252983438312
 30
0.0
 11
223.7785298114372
 21
828.4252983438312
 31
0.0
  0
LINE
  5
A3
330
1F
100
AcDbEntity
  8
0_Pen_No__7_Pen_No__7
  6
Continuous
100
AcDbLine
 10
213.7785298114374
 20
968.4252983438308
 30
0.0
 11
213.7785298114374
 21
988.4252983438313
 31
0.0
  0
LINE
  5
A4
330
1F
100
AcDbEntity
  8
0_Pen_No__7_Pen_No__7
  6
Continuous
100
AcDbLine
 10
203.7785298114377
 20
978.4252983438306
 30
0.0
 11
223.7785298114372
 21
978.4252983438306
 31
0.0
  0
LINE
  5
A5
330
1F
100
AcDbEntity
  8
0_Pen_No__7_Pen_No__7
  6
Continuous
100
AcDbLine
 10
213.7785298114374
 20
1118.425298343831
 30
0.0
 11
213.7785298114374
 21
1138.425298343831
 31
0.0
  0
LINE
  5
A6
330
1F
100
AcDbEntity
  8
0_Pen_No__7_Pen_No__7
  6
Continuous
100
AcDbLine
 10
203.7785298114377
 20
1128.425298343831
 30
0.0
 11
223.7785298114372
 21
1128.425298343831
 31
0.0
  0
LINE
  5
A7
330
1F
100
AcDbEntity
  8
0_Pen_No__7_Pen_No__7
  6
Continuous
100
AcDbLine
 10
189.7785298114383
 20
-1131.574701656168
 30
0.0
 11
189.7785298114383
 21
-1111.574701656169
 31
0.0
  0
LINE
  5
A8
330
1F
100
AcDbEntity
  8
0_Pen_No__7_Pen_No__7
  6
Continuous
100
AcDbLine
 10
179.778529811435
 20
-1121.574701656169
 30
0.0
 11
199.7785298114381
 21
-1121.574701656169
 31
0.0
  0
LINE
  5
A9
330
1F
100
AcDbEntity
  8
0_Pen_No__7_Pen_No__7
  6
Continuous
100
AcDbLine
 10
189.7785298114383
 20
-981.5747016561689
 30
0.0
 11
189.7785298114383
 21
-961.5747016561688
 31
0.0
  0
LINE
  5
AA
330
1F
100
AcDbEntity
  8
0_Pen_No__7_Pen_No__7
  6
Continuous
100
AcDbLine
 10
179.778529811435
 20
-971.574701656169
 30
0.0
 11
199.7785298114381
 21
-971.574701656169
 31
0.0
  0
LINE
  5
AB
330
1F
100
AcDbEntity
  8
0_Pen_No__7_Pen_No__7
  6
Continuous
100
AcDbLine
 10
189.7785298114383
 20
-831.5747016561689
 30
0.0
 11
189.7785298114383
 21
-811.5747016561689
 31
0.0
  0
LINE
  5
AC
330
1F
100
AcDbEntity
  8
0_Pen_No__7_Pen_No__7
  6
Continuous
100
AcDbLine
 10
179.778529811435
 20
-821.5747016561692
 30
0.0
 11
199.7785298114381
 21
-821.5747016561692
 31
0.0
  0
LINE
  5
AD
330
1F
100
AcDbEntity
  8
0_Pen_No__7_Pen_No__7
  6
Continuous
100
AcDbLine
 10
189.7785298114383
 20
-681.574701656169
 30
0.0
 11
189.7785298114383
 21
-661.574701656169
 31
0.0
  0
LINE
  5
AE
330
1F
100
AcDbEntity
  8
0_Pen_No__7_Pen_No__7
  6
Continuous
100
AcDbLine
 10
179.778529811435
 20
-671.5747016561684
 30
0.0
 11
199.7785298114381
 21
-671.5747016561684
 31
0.0
  0
LINE
  5
AF
330
1F
100
AcDbEntity
  8
0_Pen_No__7_Pen_No__7
  6
Continuous
100
AcDbLine
 10
189.7785298114383
 20
-531.5747016561692
 30
0.0
 11
189.7785298114383
 21
-511.5747016561692
 31
0.0
  0
LINE
  5
B0
330
1F
100
AcDbEntity
  8
0_Pen_No__7_Pen_No__7
  6
Continuous
100
AcDbLine
 10
179.778529811435
 20
-521.5747016561689
 30
0.0
 11
199.7785298114381
 21
-521.5747016561689
 31
0.0
  0
LINE
  5
B1
330
1F
100
AcDbEntity
  8
0_Pen_No__7_Pen_No__7
  6
Continuous
100
AcDbLine
 10
189.7785298114383
 20
-381.5747016561684
 30
0.0
 11
189.7785298114383
 21
-361.5747016561683
 31
0.0
  0
LINE
  5
B2
330
1F
100
AcDbEntity
  8
0_Pen_No__7_Pen_No__7
  6
Continuous
100
AcDbLine
 10
179.778529811435
 20
-371.574701656169
 30
0.0
 11
199.7785298114381
 21
-371.574701656169
 31
0.0
  0
LINE
  5
B3
330
1F
100
AcDbEntity
  8
0_Pen_No__7_Pen_No__7
  6
Continuous
100
AcDbLine
 10
189.7785298114383
 20
-231.5747016561689
 30
0.0
 11
189.7785298114383
 21
-211.5747016561689
 31
0.0
  0
LINE
  5
B4
330
1F
100
AcDbEntity
  8
0_Pen_No__7_Pen_No__7
  6
Continuous
100
AcDbLine
 10
179.778529811435
 20
-221.5747016561691
 30
0.0
 11
199.7785298114381
 21
-221.5747016561691
 31
0.0
  0
LINE
  5
B5
330
1F
100
AcDbEntity
  8
0_Pen_No__7_Pen_No__7
  6
Continuous
100
AcDbLine
 10
189.7785298114383
 20
-81.57470165616898
 30
0.0
 11
189.7785298114383
 21
-61.57470165616941
 31
0.0
  0
LINE
  5
B6
330
1F
100
AcDbEntity
  8
0_Pen_No__7_Pen_No__7
  6
Continuous
100
AcDbLine
 10
179.778529811435
 20
-71.5747016561692
 30
0.0
 11
199.7785298114381
 21
-71.5747016561692
 31
0.0
  0
LINE
  5
B7
330
1F
100
AcDbEntity
  8
0_Pen_No__7_Pen_No__7
  6
Continuous
100
AcDbLine
 10
189.7785298114383
 20
68.42529834383137
 30
0.0
 11
189.7785298114383
 21
88.42529834383095
 31
0.0
  0
LINE
  5
B8
330
1F
100
AcDbEntity
  8
0_Pen_No__7_Pen_No__7
  6
Continuous
100
AcDbLine
 10
179.778529811435
 20
78.42529834383116
 30
0.0
 11
199.7785298114381
 21
78.42529834383116
 31
0.0
  0
LINE
  5
B9
330
1F
100
AcDbEntity
  8
0_Pen_No__7_Pen_No__7
  6
Continuous
100
AcDbLine
 10
189.7785298114383
 20
218.4252983438308
 30
0.0
 11
189.7785298114383
 21
238.4252983438313
 31
0.0
  0
LINE
  5
BA
330
1F
100
AcDbEntity
  8
0_Pen_No__7_Pen_No__7
  6
Continuous
100
AcDbLine
 10
179.778529811435
 20
228.4252983438306
 30
0.0
 11
199.7785298114381
 21
228.4252983438306
 31
0.0
  0
LINE
  5
BB
330
1F
100
AcDbEntity
  8
0_Pen_No__7_Pen_No__7
  6
Continuous
100
AcDbLine
 10
189.7785298114383
 20
368.4252983438312
 30
0.0
 11
189.7785298114383
 21
388.4252983438308
 31
0.0
  0
LINE
  5
BC
330
1F
100
AcDbEntity
  8
0_Pen_No__7_Pen_No__7
  6
Continuous
100
AcDbLine
 10
179.778529811435
 20
378.425298343831
 30
0.0
 11
199.7785298114381
 21
378.425298343831
 31
0.0
  0
LINE
  5
BD
330
1F
100
AcDbEntity
  8
0_Pen_No__7_Pen_No__7
  6
Continuous
100
AcDbLine
 10
189.7785298114383
 20
518.4252983438307
 30
0.0
 11
189.7785298114383
 21
538.4252983438312
 31
0.0
  0
LINE
  5
BE
330
1F
100
AcDbEntity
  8
0_Pen_No__7_Pen_No__7
  6
Continuous
100
AcDbLine
 10
179.778529811435
 20
528.4252983438313
 30
0.0
 11
199.7785298114381
 21
528.4252983438313
 31
0.0
  0
LINE
  5
BF
330
1F
100
AcDbEntity
  8
0_Pen_No__7_Pen_No__7
  6
Continuous
100
AcDbLine
 10
189.7785298114383
 20
668.4252983438311
 30
0.0
 11
189.7785298114383
 21
688.4252983438306
 31
0.0
  0
LINE
  5
C0
330
1F
100
AcDbEntity
  8
0_Pen_No__7_Pen_No__7
  6
Continuous
100
AcDbLine
 10
179.778529811435
 20
678.4252983438308
 30
0.0
 11
199.7785298114381
 21
678.4252983438308
 31
0.0
  0
LINE
  5
C1
330
1F
100
AcDbEntity
  8
0_Pen_No__7_Pen_No__7
  6
Continuous
100
AcDbLine
 10
189.7785298114383
 20
818.4252983438314
 30
0.0
 11
189.7785298114383
 21
838.425298343831
 31
0.0
  0
LINE
  5
C2
330
1F
100
AcDbEntity
  8
0_Pen_No__7_Pen_No__7
  6
Continuous
100
AcDbLine
 10
179.778529811435
 20
828.4252983438312
 30
0.0
 11
199.7785298114381
 21
828.4252983438312
 31
0.0
  0
LINE
  5
C3
330
1F
100
AcDbEntity
  8
0_Pen_No__7_Pen_No__7
  6
Continuous
100
AcDbLine
 10
189.7785298114383
 20
968.4252983438308
 30
0.0
 11
189.7785298114383
 21
988.4252983438313
 31
0.0
  0
LINE
  5
C4
330
1F
100
AcDbEntity
  8
0_Pen_No__7_Pen_No__7
  6
Continuous
100
AcDbLine
 10
179.778529811435
 20
978.4252983438306
 30
0.0
 11
199.7785298114381
 21
978.4252983438306
 31
0.0
  0
LINE
  5
C5
330
1F
100
AcDbEntity
  8
0_Pen_No__7_Pen_No__7
  6
Continuous
100
AcDbLine
 10
189.7785298114383
 20
1118.425298343831
 30
0.0
 11
189.7785298114383
 21
1138.425298343831
 31
0.0
  0
LINE
  5
C6
330
1F
100
AcDbEntity
  8
0_Pen_No__7_Pen_No__7
  6
Continuous
100
AcDbLine
 10
179.778529811435
 20
1128.425298343831
 30
0.0
 11
199.7785298114381
 21
1128.425298343831
 31
0.0
  0
LINE
  5
C7
330
1F
100
AcDbEntity
  8
0_Pen_No__7_Pen_No__7
  6
Continuous
100
AcDbLine
 10
-408.2214701885625
 20
-946.5747016561692
 30
0.0
 11
-388.2214701885629
 21
-946.5747016561692
 31
0.0
  0
LINE
  5
C8
330
1F
100
AcDbEntity
  8
0_Pen_No__7_Pen_No__7
  6
Continuous
100
AcDbLine
 10
-398.2214701885627
 20
-936.5747016561689
 30
0.0
 11
-398.2214701885627
 21
-956.5747016561689
 31
0.0
  0
LINE
  5
C9
330
1F
100
AcDbEntity
  8
0_Pen_No__7_Pen_No__7
  6
Continuous
100
AcDbLine
 10
-408.2214701885625
 20
-646.5747016561689
 30
0.0
 11
-388.2214701885629
 21
-646.5747016561689
 31
0.0
  0
LINE
  5
CA
330
1F
100
AcDbEntity
  8
0_Pen_No__7_Pen_No__7
  6
Continuous
100
AcDbLine
 10
-398.2214701885627
 20
-636.5747016561692
 30
0.0
 11
-398.2214701885627
 21
-656.5747016561692
 31
0.0
  0
LINE
  5
CB
330
1F
100
AcDbEntity
  8
0_Pen_No__7_Pen_No__7
  6
Continuous
100
AcDbLine
 10
-408.2214701885625
 20
-346.5747016561691
 30
0.0
 11
-388.2214701885629
 21
-346.5747016561691
 31
0.0
  0
LINE
  5
CC
330
1F
100
AcDbEntity
  8
0_Pen_No__7_Pen_No__7
  6
Continuous
100
AcDbLine
 10
-398.2214701885627
 20
-336.5747016561689
 30
0.0
 11
-398.2214701885627
 21
-356.5747016561689
 31
0.0
  0
LINE
  5
CD
330
1F
100
AcDbEntity
  8
0_Pen_No__7_Pen_No__7
  6
Continuous
100
AcDbLine
 10
-408.2214701885625
 20
-46.57470165616884
 30
0.0
 11
-388.2214701885629
 21
-46.57470165616884
 31
0.0
  0
LINE
  5
CE
330
1F
100
AcDbEntity
  8
0_Pen_No__7_Pen_No__7
  6
Continuous
100
AcDbLine
 10
-398.2214701885627
 20
-36.57470165616905
 30
0.0
 11
-398.2214701885627
 21
-56.57470165616863
 31
0.0
  0
LINE
  5
CF
330
1F
100
AcDbEntity
  8
0_Pen_No__7_Pen_No__7
  6
Continuous
100
AcDbLine
 10
-408.2214701885625
 20
253.425298343831
 30
0.0
 11
-388.2214701885629
 21
253.425298343831
 31
0.0
  0
LINE
  5
D0
330
1F
100
AcDbEntity
  8
0_Pen_No__7_Pen_No__7
  6
Continuous
100
AcDbLine
 10
-398.2214701885627
 20
263.4252983438308
 30
0.0
 11
-398.2214701885627
 21
243.4252983438312
 31
0.0
  0
LINE
  5
D1
330
1F
100
AcDbEntity
  8
0_Pen_No__7_Pen_No__7
  6
Continuous
100
AcDbLine
 10
-408.2214701885625
 20
553.4252983438308
 30
0.0
 11
-388.2214701885629
 21
553.4252983438308
 31
0.0
  0
LINE
  5
D2
330
1F
100
AcDbEntity
  8
0_Pen_No__7_Pen_No__7
  6
Continuous
100
AcDbLine
 10
-398.2214701885627
 20
563.4252983438306
 30
0.0
 11
-398.2214701885627
 21
543.4252983438311
 31
0.0
  0
LINE
  5
D3
330
1F
100
AcDbEntity
  8
0_Pen_No__7_Pen_No__7
  6
Continuous
100
AcDbLine
 10
-408.2214701885625
 20
853.4252983438306
 30
0.0
 11
-388.2214701885629
 21
853.4252983438306
 31
0.0
  0
LINE
  5
D4
330
1F
100
AcDbEntity
  8
0_Pen_No__7_Pen_No__7
  6
Continuous
100
AcDbLine
 10
-398.2214701885627
 20
863.4252983438313
 30
0.0
 11
-398.2214701885627
 21
843.4252983438308
 31
0.0
  0
LINE
  5
D5
330
1F
100
AcDbEntity
  8
0_Pen_No__7_Pen_No__7
  6
Continuous
100
AcDbLine
 10
-408.2214701885625
 20
1153.425298343831
 30
0.0
 11
-388.2214701885629
 21
1153.425298343831
 31
0.0
  0
LINE
  5
D6
330
1F
100
AcDbEntity
  8
0_Pen_No__7_Pen_No__7
  6
Continuous
100
AcDbLine
 10
-398.2214701885627
 20
1163.425298343831
 30
0.0
 11
-398.2214701885627
 21
1143.425298343831
 31
0.0
  0
LINE
  5
D7
330
1F
100
AcDbEntity
  8
0_Pen_No__7_Pen_No__7
  6
Continuous
100
AcDbLine
 10
-408.2214701885625
 20
103.4252983438306
 30
0.0
 11
-388.2214701885629
 21
103.4252983438306
 31
0.0
  0
LINE
  5
D8
330
1F
100
AcDbEntity
  8
0_Pen_No__7_Pen_No__7
  6
Continuous
100
AcDbLine
 10
-398.2214701885627
 20
113.4252983438313
 30
0.0
 11
-398.2214701885627
 21
93.42529834383085
 31
0.0
  0
LINE
  5
D9
330
1F
100
AcDbEntity
  8
0_Pen_No__7_Pen_No__7
  6
Continuous
100
AcDbLine
 10
791.7785298114368
 20
-946.5747016561692
 30
0.0
 11
811.7785298114381
 21
-946.5747016561692
 31
0.0
  0
LINE
  5
DA
330
1F
100
AcDbEntity
  8
0_Pen_No__7_Pen_No__7
  6
Continuous
100
AcDbLine
 10
801.7785298114349
 20
-936.5747016561689
 30
0.0
 11
801.7785298114349
 21
-956.5747016561689
 31
0.0
  0
LINE
  5
DB
330
1F
100
AcDbEntity
  8
0_Pen_No__7_Pen_No__7
  6
Continuous
100
AcDbLine
 10
791.7785298114368
 20
-646.5747016561689
 30
0.0
 11
811.7785298114381
 21
-646.5747016561689
 31
0.0
  0
LINE
  5
DC
330
1F
100
AcDbEntity
  8
0_Pen_No__7_Pen_No__7
  6
Continuous
100
AcDbLine
 10
801.7785298114349
 20
-636.5747016561692
 30
0.0
 11
801.7785298114349
 21
-656.5747016561692
 31
0.0
  0
LINE
  5
DD
330
1F
100
AcDbEntity
  8
0_Pen_No__7_Pen_No__7
  6
Continuous
100
AcDbLine
 10
791.7785298114368
 20
-346.5747016561691
 30
0.0
 11
811.7785298114381
 21
-346.5747016561691
 31
0.0
  0
LINE
  5
DE
330
1F
100
AcDbEntity
  8
0_Pen_No__7_Pen_No__7
  6
Continuous
100
AcDbLine
 10
801.7785298114349
 20
-336.5747016561689
 30
0.0
 11
801.7785298114349
 21
-356.5747016561689
 31
0.0
  0
LINE
  5
DF
330
1F
100
AcDbEntity
  8
0_Pen_No__7_Pen_No__7
  6
Continuous
100
AcDbLine
 10
791.7785298114368
 20
-46.57470165616884
 30
0.0
 11
811.7785298114381
 21
-46.57470165616884
 31
0.0
  0
LINE
  5
E0
330
1F
100
AcDbEntity
  8
0_Pen_No__7_Pen_No__7
  6
Continuous
100
AcDbLine
 10
801.7785298114349
 20
-36.57470165616905
 30
0.0
 11
801.7785298114349
 21
-56.57470165616863
 31
0.0
  0
LINE
  5
E1
330
1F
100
AcDbEntity
  8
0_Pen_No__7_Pen_No__7
  6
Continuous
100
AcDbLine
 10
791.7785298114368
 20
253.425298343831
 30
0.0
 11
811.7785298114381
 21
253.425298343831
 31
0.0
  0
LINE
  5
E2
330
1F
100
AcDbEntity
  8
0_Pen_No__7_Pen_No__7
  6
Continuous
100
AcDbLine
 10
801.7785298114349
 20
263.4252983438308
 30
0.0
 11
801.7785298114349
 21
243.4252983438312
 31
0.0
  0
LINE
  5
E3
330
1F
100
AcDbEntity
  8
0_Pen_No__7_Pen_No__7
  6
Continuous
100
AcDbLine
 10
791.7785298114368
 20
553.4252983438308
 30
0.0
 11
811.7785298114381
 21
553.4252983438308
 31
0.0
  0
LINE
  5
E4
330
1F
100
AcDbEntity
  8
0_Pen_No__7_Pen_No__7
  6
Continuous
100
AcDbLine
 10
801.7785298114349
 20
563.4252983438306
 30
0.0
 11
801.7785298114349
 21
543.4252983438311
 31
0.0
  0
LINE
  5
E5
330
1F
100
AcDbEntity
  8
0_Pen_No__7_Pen_No__7
  6
Continuous
100
AcDbLine
 10
791.7785298114368
 20
853.4252983438306
 30
0.0
 11
811.7785298114381
 21
853.4252983438306
 31
0.0
  0
LINE
  5
E6
330
1F
100
AcDbEntity
  8
0_Pen_No__7_Pen_No__7
  6
Continuous
100
AcDbLine
 10
801.7785298114349
 20
863.4252983438313
 30
0.0
 11
801.7785298114349
 21
843.4252983438308
 31
0.0
  0
LINE
  5
E7
330
1F
100
AcDbEntity
  8
0_Pen_No__7_Pen_No__7
  6
Continuous
100
AcDbLine
 10
791.7785298114368
 20
1153.425298343831
 30
0.0
 11
811.7785298114381
 21
1153.425298343831
 31
0.0
  0
LINE
  5
E8
330
1F
100
AcDbEntity
  8
0_Pen_No__7_Pen_No__7
  6
Continuous
100
AcDbLine
 10
801.7785298114349
 20
1163.425298343831
 30
0.0
 11
801.7785298114349
 21
1143.425298343831
 31
0.0
  0
LINE
  5
E9
330
1F
100
AcDbEntity
  8
0_Pen_No__7_Pen_No__7
  6
Continuous
100
AcDbLine
 10
791.7785298114368
 20
103.4252983438306
 30
0.0
 11
811.7785298114381
 21
103.4252983438306
 31
0.0
  0
LINE
  5
EA
330
1F
100
AcDbEntity
  8
0_Pen_No__7_Pen_No__7
  6
Continuous
100
AcDbLine
 10
801.7785298114349
 20
113.4252983438313
 30
0.0
 11
801.7785298114349
 21
93.42529834383085
 31
0.0
  0
LINE
  5
EB
330
1F
100
AcDbEntity
  8
0_Pen_No__7_Pen_No__7
  6
Continuous
100
AcDbLine
 10
-708.2214701885632
 20
-329.9080349895025
 30
0.0
 11
-688.2214701885619
 21
-329.9080349895025
 31
0.0
  0
LINE
  5
EC
330
1F
100
AcDbEntity
  8
0_Pen_No__7_Pen_No__7
  6
Continuous
100
AcDbLine
 10
-698.2214701885651
 20
-319.9080349895018
 30
0.0
 11
-698.2214701885651
 21
-339.9080349895019
 31
0.0
  0
LINE
  5
ED
330
1F
100
AcDbEntity
  8
0_Pen_No__7_Pen_No__7
  6
Continuous
100
AcDbLine
 10
-708.2214701885632
 20
436.7586316771645
 30
0.0
 11
-688.2214701885619
 21
436.7586316771645
 31
0.0
  0
LINE
  5
EE
330
1F
100
AcDbEntity
  8
0_Pen_No__7_Pen_No__7
  6
Continuous
100
AcDbLine
 10
-698.2214701885651
 20
446.7586316771652
 30
0.0
 11
-698.2214701885651
 21
426.7586316771648
 31
0.0
  0
LINE
  5
EF
330
1F
100
AcDbEntity
  8
0_Pen_No__7_Pen_No__7
  6
Continuous
100
AcDbLine
 10
-108.2214701885617
 20
436.7586316771645
 30
0.0
 11
-88.22147018856217
 21
436.7586316771645
 31
0.0
  0
LINE
  5
F0
330
1F
100
AcDbEntity
  8
0_Pen_No__7_Pen_No__7
  6
Continuous
100
AcDbLine
 10
-98.22147018856195
 20
446.7586316771652
 30
0.0
 11
-98.22147018856195
 21
426.7586316771648
 31
0.0
  0
LINE
  5
F1
330
1F
100
AcDbEntity
  8
0_Pen_No__7_Pen_No__7
  6
Continuous
100
AcDbLine
 10
491.7785298114379
 20
436.7586316771645
 30
0.0
 11
511.7785298114375
 21
436.7586316771645
 31
0.0
  0
LINE
  5
F2
330
1F
100
AcDbEntity
  8
0_Pen_No__7_Pen_No__7
  6
Continuous
100
AcDbLine
 10
501.7785298114377
 20
446.7586316771652
 30
0.0
 11
501.7785298114377
 21
426.7586316771648
 31
0.0
  0
LINE
  5
F3
330
1F
100
AcDbEntity
  8
0_Pen_No__7_Pen_No__7
  6
Continuous
100
AcDbLine
 10
1091.778529811439
 20
436.7586316771637
 30
0.0
 11
1111.778529811439
 21
436.7586316771637
 31
0.0
  0
LINE
  5
F4
330
1F
100
AcDbEntity
  8
0_Pen_No__7_Pen_No__7
  6
Continuous
100
AcDbLine
 10
1101.778529811439
 20
446.7586316771643
 30
0.0
 11
1101.778529811439
 21
426.7586316771639
 31
0.0
  0
LINE
  5
F5
330
1F
100
AcDbEntity
  8
0_Pen_No__7_Pen_No__7
  6
Continuous
100
AcDbLine
 10
1091.778529811437
 20
-329.9080349895029
 30
0.0
 11
1111.778529811437
 21
-329.9080349895029
 31
0.0
  0
LINE
  5
F6
330
1F
100
AcDbEntity
  8
0_Pen_No__7_Pen_No__7
  6
Continuous
100
AcDbLine
 10
1101.778529811437
 20
-319.9080349895032
 30
0.0
 11
1101.778529811437
 21
-339.9080349895023
 31
0.0
  0
LINE
  5
F7
330
1F
100
AcDbEntity
  8
0_Pen_No__7_Pen_No__7
  6
Continuous
100
AcDbLine
 10
491.7785298114379
 20
-329.9080349895025
 30
0.0
 11
511.7785298114375
 21
-329.9080349895025
 31
0.0
  0
LINE
  5
F8
330
1F
100
AcDbEntity
  8
0_Pen_No__7_Pen_No__7
  6
Continuous
100
AcDbLine
 10
501.7785298114377
 20
-319.9080349895018
 30
0.0
 11
501.7785298114377
 21
-339.9080349895019
 31
0.0
  0
LINE
  5
F9
330
1F
100
AcDbEntity
  8
0_Pen_No__7_Pen_No__7
  6
Continuous
100
AcDbLine
 10
-108.2214701885617
 20
-329.9080349895025
 30
0.0
 11
-88.22147018856217
 21
-329.9080349895025
 31
0.0
  0
LINE
  5
FA
330
1F
100
AcDbEntity
  8
0_Pen_No__7_Pen_No__7
  6
Continuous
100
AcDbLine
 10
-98.22147018856195
 20
-319.9080349895018
 30
0.0
 11
-98.22147018856195
 21
-339.9080349895019
 31
0.0
  0
LINE
  5
FB
330
1F
100
AcDbEntity
  8
0_Pen_No__7_Pen_No__7
  6
Continuous
100
AcDbLine
 10
-846.2214701885631
 20
1228.425298343831
 30
0.0
 11
-826.2214701885617
 21
1228.425298343831
 31
0.0
  0
LINE
  5
FC
330
1F
100
AcDbEntity
  8
0_Pen_No__7_Pen_No__7
  6
Continuous
100
AcDbLine
 10
-836.221470188565
 20
1238.425298343831
 30
0.0
 11
-836.221470188565
 21
1218.425298343831
 31
0.0
  0
LINE
  5
FD
330
1F
100
AcDbEntity
  8
0_Pen_No__7_Pen_No__7
  6
Continuous
100
AcDbLine
 10
-696.2214701885628
 20
1228.425298343831
 30
0.0
 11
-676.2214701885631
 21
1228.425298343831
 31
0.0
  0
LINE
  5
FE
330
1F
100
AcDbEntity
  8
0_Pen_No__7_Pen_No__7
  6
Continuous
100
AcDbLine
 10
-686.221470188563
 20
1238.425298343831
 30
0.0
 11
-686.221470188563
 21
1218.425298343831
 31
0.0
  0
LINE
  5
FF
330
1F
100
AcDbEntity
  8
0_Pen_No__7_Pen_No__7
  6
Continuous
100
AcDbLine
 10
-546.2214701885624
 20
1228.425298343831
 30
0.0
 11
-526.2214701885628
 21
1228.425298343831
 31
0.0
  0
LINE
  5
100
330
1F
100
AcDbEntity
  8
0_Pen_No__7_Pen_No__7
  6
Continuous
100
AcDbLine
 10
-536.2214701885625
 20
1238.425298343831
 30
0.0
 11
-536.2214701885625
 21
1218.425298343831
 31
0.0
  0
LINE
  5
101
330
1F
100
AcDbEntity
  8
0_Pen_No__7_Pen_No__7
  6
Continuous
100
AcDbLine
 10
-396.221470188562
 20
1228.425298343831
 30
0.0
 11
-376.2214701885624
 21
1228.425298343831
 31
0.0
  0
LINE
  5
102
330
1F
100
AcDbEntity
  8
0_Pen_No__7_Pen_No__7
  6
Continuous
100
AcDbLine
 10
-386.2214701885623
 20
1238.425298343831
 30
0.0
 11
-386.2214701885623
 21
1218.425298343831
 31
0.0
  0
LINE
  5
103
330
1F
100
AcDbEntity
  8
0_Pen_No__7_Pen_No__7
  6
Continuous
100
AcDbLine
 10
-246.2214701885616
 20
1228.425298343831
 30
0.0
 11
-226.2214701885621
 21
1228.425298343831
 31
0.0
  0
LINE
  5
104
330
1F
100
AcDbEntity
  8
0_Pen_No__7_Pen_No__7
  6
Continuous
100
AcDbLine
 10
-236.2214701885619
 20
1238.425298343831
 30
0.0
 11
-236.2214701885619
 21
1218.425298343831
 31
0.0
  0
LINE
  5
105
330
1F
100
AcDbEntity
  8
0_Pen_No__7_Pen_No__7
  6
Continuous
100
AcDbLine
 10
-96.22147018856306
 20
1228.425298343831
 30
0.0
 11
-76.22147018856171
 21
1228.425298343831
 31
0.0
  0
LINE
  5
106
330
1F
100
AcDbEntity
  8
0_Pen_No__7_Pen_No__7
  6
Continuous
100
AcDbLine
 10
-86.22147018856505
 20
1238.425298343831
 30
0.0
 11
-86.22147018856505
 21
1218.425298343831
 31
0.0
  0
LINE
  5
107
330
1F
100
AcDbEntity
  8
0_Pen_No__7_Pen_No__7
  6
Continuous
100
AcDbLine
 10
53.77852981143729
 20
1228.425298343831
 30
0.0
 11
73.77852981143687
 21
1228.425298343831
 31
0.0
  0
LINE
  5
108
330
1F
100
AcDbEntity
  8
0_Pen_No__7_Pen_No__7
  6
Continuous
100
AcDbLine
 10
63.77852981143708
 20
1238.425298343831
 30
0.0
 11
63.77852981143708
 21
1218.425298343831
 31
0.0
  0
LINE
  5
109
330
1F
100
AcDbEntity
  8
0_Pen_No__7_Pen_No__7
  6
Continuous
100
AcDbLine
 10
1389.778529811437
 20
-1131.574701656168
 30
0.0
 11
1389.778529811437
 21
-1111.574701656169
 31
0.0
  0
LINE
  5
10A
330
1F
100
AcDbEntity
  8
0_Pen_No__7_Pen_No__7
  6
Continuous
100
AcDbLine
 10
1379.778529811438
 20
-1121.574701656169
 30
0.0
 11
1399.778529811437
 21
-1121.574701656169
 31
0.0
  0
LINE
  5
10B
330
1F
100
AcDbEntity
  8
0_Pen_No__7_Pen_No__7
  6
Continuous
100
AcDbLine
 10
1389.778529811437
 20
-981.5747016561689
 30
0.0
 11
1389.778529811437
 21
-961.5747016561688
 31
0.0
  0
LINE
  5
10C
330
1F
100
AcDbEntity
  8
0_Pen_No__7_Pen_No__7
  6
Continuous
100
AcDbLine
 10
1379.778529811438
 20
-971.574701656169
 30
0.0
 11
1399.778529811437
 21
-971.574701656169
 31
0.0
  0
LINE
  5
10D
330
1F
100
AcDbEntity
  8
0_Pen_No__7_Pen_No__7
  6
Continuous
100
AcDbLine
 10
1389.778529811437
 20
-831.5747016561689
 30
0.0
 11
1389.778529811437
 21
-811.5747016561689
 31
0.0
  0
LINE
  5
10E
330
1F
100
AcDbEntity
  8
0_Pen_No__7_Pen_No__7
  6
Continuous
100
AcDbLine
 10
1379.778529811438
 20
-821.5747016561692
 30
0.0
 11
1399.778529811437
 21
-821.5747016561692
 31
0.0
  0
LINE
  5
10F
330
1F
100
AcDbEntity
  8
0_Pen_No__7_Pen_No__7
  6
Continuous
100
AcDbLine
 10
1389.778529811437
 20
-681.574701656169
 30
0.0
 11
1389.778529811437
 21
-661.574701656169
 31
0.0
  0
LINE
  5
110
330
1F
100
AcDbEntity
  8
0_Pen_No__7_Pen_No__7
  6
Continuous
100
AcDbLine
 10
1379.778529811438
 20
-671.5747016561684
 30
0.0
 11
1399.778529811437
 21
-671.5747016561684
 31
0.0
  0
LINE
  5
111
330
1F
100
AcDbEntity
  8
0_Pen_No__7_Pen_No__7
  6
Continuous
100
AcDbLine
 10
1389.778529811437
 20
-531.5747016561692
 30
0.0
 11
1389.778529811437
 21
-511.5747016561692
 31
0.0
  0
LINE
  5
112
330
1F
100
AcDbEntity
  8
0_Pen_No__7_Pen_No__7
  6
Continuous
100
AcDbLine
 10
1379.778529811438
 20
-521.5747016561689
 30
0.0
 11
1399.778529811437
 21
-521.5747016561689
 31
0.0
  0
LINE
  5
113
330
1F
100
AcDbEntity
  8
0_Pen_No__7_Pen_No__7
  6
Continuous
100
AcDbLine
 10
1389.778529811437
 20
-381.5747016561684
 30
0.0
 11
1389.778529811437
 21
-361.5747016561683
 31
0.0
  0
LINE
  5
114
330
1F
100
AcDbEntity
  8
0_Pen_No__7_Pen_No__7
  6
Continuous
100
AcDbLine
 10
1379.778529811438
 20
-371.574701656169
 30
0.0
 11
1399.778529811437
 21
-371.574701656169
 31
0.0
  0
LINE
  5
115
330
1F
100
AcDbEntity
  8
0_Pen_No__7_Pen_No__7
  6
Continuous
100
AcDbLine
 10
1389.778529811437
 20
-231.5747016561689
 30
0.0
 11
1389.778529811437
 21
-211.5747016561689
 31
0.0
  0
LINE
  5
116
330
1F
100
AcDbEntity
  8
0_Pen_No__7_Pen_No__7
  6
Continuous
100
AcDbLine
 10
1379.778529811438
 20
-221.5747016561691
 30
0.0
 11
1399.778529811437
 21
-221.5747016561691
 31
0.0
  0
LINE
  5
117
330
1F
100
AcDbEntity
  8
0_Pen_No__7_Pen_No__7
  6
Continuous
100
AcDbLine
 10
1389.778529811437
 20
-81.57470165616898
 30
0.0
 11
1389.778529811437
 21
-61.57470165616941
 31
0.0
  0
LINE
  5
118
330
1F
100
AcDbEntity
  8
0_Pen_No__7_Pen_No__7
  6
Continuous
100
AcDbLine
 10
1379.778529811438
 20
-71.5747016561692
 30
0.0
 11
1399.778529811437
 21
-71.5747016561692
 31
0.0
  0
LINE
  5
119
330
1F
100
AcDbEntity
  8
0_Pen_No__7_Pen_No__7
  6
Continuous
100
AcDbLine
 10
1389.778529811437
 20
68.42529834383137
 30
0.0
 11
1389.778529811437
 21
88.42529834383095
 31
0.0
  0
LINE
  5
11A
330
1F
100
AcDbEntity
  8
0_Pen_No__7_Pen_No__7
  6
Continuous
100
AcDbLine
 10
1379.778529811438
 20
78.42529834383116
 30
0.0
 11
1399.778529811437
 21
78.42529834383116
 31
0.0
  0
LINE
  5
11B
330
1F
100
AcDbEntity
  8
0_Pen_No__7_Pen_No__7
  6
Continuous
100
AcDbLine
 10
1389.778529811437
 20
218.4252983438308
 30
0.0
 11
1389.778529811437
 21
238.4252983438313
 31
0.0
  0
LINE
  5
11C
330
1F
100
AcDbEntity
  8
0_Pen_No__7_Pen_No__7
  6
Continuous
100
AcDbLine
 10
1379.778529811438
 20
228.4252983438306
 30
0.0
 11
1399.778529811437
 21
228.4252983438306
 31
0.0
  0
LINE
  5
11D
330
1F
100
AcDbEntity
  8
0_Pen_No__7_Pen_No__7
  6
Continuous
100
AcDbLine
 10
1389.778529811437
 20
368.4252983438312
 30
0.0
 11
1389.778529811437
 21
388.4252983438308
 31
0.0
  0
LINE
  5
11E
330
1F
100
AcDbEntity
  8
0_Pen_No__7_Pen_No__7
  6
Continuous
100
AcDbLine
 10
1379.778529811438
 20
378.425298343831
 30
0.0
 11
1399.778529811437
 21
378.425298343831
 31
0.0
  0
LINE
  5
11F
330
1F
100
AcDbEntity
  8
0_Pen_No__7_Pen_No__7
  6
Continuous
100
AcDbLine
 10
1389.778529811437
 20
518.4252983438307
 30
0.0
 11
1389.778529811437
 21
538.4252983438312
 31
0.0
  0
LINE
  5
120
330
1F
100
AcDbEntity
  8
0_Pen_No__7_Pen_No__7
  6
Continuous
100
AcDbLine
 10
1379.778529811438
 20
528.4252983438313
 30
0.0
 11
1399.778529811437
 21
528.4252983438313
 31
0.0
  0
LINE
  5
121
330
1F
100
AcDbEntity
  8
0_Pen_No__7_Pen_No__7
  6
Continuous
100
AcDbLine
 10
1389.778529811437
 20
668.4252983438311
 30
0.0
 11
1389.778529811437
 21
688.4252983438306
 31
0.0
  0
LINE
  5
122
330
1F
100
AcDbEntity
  8
0_Pen_No__7_Pen_No__7
  6
Continuous
100
AcDbLine
 10
1379.778529811438
 20
678.4252983438308
 30
0.0
 11
1399.778529811437
 21
678.4252983438308
 31
0.0
  0
LINE
  5
123
330
1F
100
AcDbEntity
  8
0_Pen_No__7_Pen_No__7
  6
Continuous
100
AcDbLine
 10
1389.778529811437
 20
818.4252983438314
 30
0.0
 11
1389.778529811437
 21
838.425298343831
 31
0.0
  0
LINE
  5
124
330
1F
100
AcDbEntity
  8
0_Pen_No__7_Pen_No__7
  6
Continuous
100
AcDbLine
 10
1379.778529811438
 20
828.4252983438312
 30
0.0
 11
1399.778529811437
 21
828.4252983438312
 31
0.0
  0
LINE
  5
125
330
1F
100
AcDbEntity
  8
0_Pen_No__7_Pen_No__7
  6
Continuous
100
AcDbLine
 10
1389.778529811437
 20
968.4252983438308
 30
0.0
 11
1389.778529811437
 21
988.4252983438313
 31
0.0
  0
LINE
  5
126
330
1F
100
AcDbEntity
  8
0_Pen_No__7_Pen_No__7
  6
Continuous
100
AcDbLine
 10
1379.778529811438
 20
978.4252983438306
 30
0.0
 11
1399.778529811437
 21
978.4252983438306
 31
0.0
  0
LINE
  5
127
330
1F
100
AcDbEntity
  8
0_Pen_No__7_Pen_No__7
  6
Continuous
100
AcDbLine
 10
1389.778529811437
 20
1118.425298343831
 30
0.0
 11
1389.778529811437
 21
1138.425298343831
 31
0.0
  0
LINE
  5
128
330
1F
100
AcDbEntity
  8
0_Pen_No__7_Pen_No__7
  6
Continuous
100
AcDbLine
 10
1379.778529811438
 20
1128.425298343831
 30
0.0
 11
1399.778529811437
 21
1128.425298343831
 31
0.0
  0
LINE
  5
129
330
1F
100
AcDbEntity
  8
0_Pen_No__7_Pen_No__7
  6
DASHEDX2
100
AcDbLine
 10
1376.778529811441
 20
1203.425298343831
 30
0.0
 11
1376.778529811436
 21
-1096.57470165617
 31
0.0
  0
LINE
  5
12A
330
1F
100
AcDbEntity
  8
0_Pen_No__7_Pen_No__7
  6
Continuous
100
AcDbLine
 10
1426.778529811442
 20
1203.425298343831
 30
0.0
 11
1426.778529811433
 21
-1096.57470165617
 31
0.0
  0
LINE
  5
12B
330
1F
100
AcDbEntity
  8
0_Pen_No__7_Pen_No__7
  6
Continuous
100
AcDbLine
 10
349.7785298114349
 20
-1121.57470165617
 30
0.0
 11
329.7785298114371
 21
-1121.57470165617
 31
0.0
  0
LINE
  5
12C
330
1F
100
AcDbEntity
  8
0_Pen_No__7_Pen_No__7
  6
Continuous
100
AcDbLine
 10
339.7785298114368
 20
-1111.57470165617
 30
0.0
 11
339.7785298114368
 21
-1131.57470165617
 31
0.0
  0
LINE
  5
12D
330
1F
100
AcDbEntity
  8
0_Pen_No__7_Pen_No__7
  6
Continuous
100
AcDbLine
 10
499.778529811437
 20
-1121.57470165617
 30
0.0
 11
479.7785298114374
 21
-1121.57470165617
 31
0.0
  0
LINE
  5
12E
330
1F
100
AcDbEntity
  8
0_Pen_No__7_Pen_No__7
  6
Continuous
100
AcDbLine
 10
489.7785298114372
 20
-1111.57470165617
 30
0.0
 11
489.7785298114372
 21
-1131.57470165617
 31
0.0
  0
LINE
  5
12F
330
1F
100
AcDbEntity
  8
0_Pen_No__7_Pen_No__7
  6
Continuous
100
AcDbLine
 10
649.7785298114374
 20
-1121.57470165617
 30
0.0
 11
629.7785298114378
 21
-1121.57470165617
 31
0.0
  0
LINE
  5
130
330
1F
100
AcDbEntity
  8
0_Pen_No__7_Pen_No__7
  6
Continuous
100
AcDbLine
 10
639.7785298114376
 20
-1111.57470165617
 30
0.0
 11
639.7785298114376
 21
-1131.57470165617
 31
0.0
  0
LINE
  5
131
330
1F
100
AcDbEntity
  8
0_Pen_No__7_Pen_No__7
  6
Continuous
100
AcDbLine
 10
799.7785298114377
 20
-1121.57470165617
 30
0.0
 11
779.7785298114381
 21
-1121.57470165617
 31
0.0
  0
LINE
  5
132
330
1F
100
AcDbEntity
  8
0_Pen_No__7_Pen_No__7
  6
Continuous
100
AcDbLine
 10
789.7785298114379
 20
-1111.57470165617
 30
0.0
 11
789.7785298114379
 21
-1131.57470165617
 31
0.0
  0
LINE
  5
133
330
1F
100
AcDbEntity
  8
0_Pen_No__7_Pen_No__7
  6
Continuous
100
AcDbLine
 10
949.778529811438
 20
-1121.57470165617
 30
0.0
 11
929.778529811435
 21
-1121.57470165617
 31
0.0
  0
LINE
  5
134
330
1F
100
AcDbEntity
  8
0_Pen_No__7_Pen_No__7
  6
Continuous
100
AcDbLine
 10
939.7785298114383
 20
-1111.57470165617
 30
0.0
 11
939.7785298114383
 21
-1131.57470165617
 31
0.0
  0
LINE
  5
135
330
1F
100
AcDbEntity
  8
0_Pen_No__7_Pen_No__7
  6
Continuous
100
AcDbLine
 10
1099.778529811435
 20
-1121.57470165617
 30
0.0
 11
1079.778529811437
 21
-1121.57470165617
 31
0.0
  0
LINE
  5
136
330
1F
100
AcDbEntity
  8
0_Pen_No__7_Pen_No__7
  6
Continuous
100
AcDbLine
 10
1089.778529811437
 20
-1111.57470165617
 30
0.0
 11
1089.778529811437
 21
-1131.57470165617
 31
0.0
  0
LINE
  5
137
330
1F
100
AcDbEntity
  8
0_Pen_No__7_Pen_No__7
  6
Continuous
100
AcDbLine
 10
1249.778529811437
 20
-1121.57470165617
 30
0.0
 11
1229.778529811437
 21
-1121.57470165617
 31
0.0
  0
LINE
  5
138
330
1F
100
AcDbEntity
  8
0_Pen_No__7_Pen_No__7
  6
Continuous
100
AcDbLine
 10
1239.778529811437
 20
-1111.57470165617
 30
0.0
 11
1239.778529811437
 21
-1131.57470165617
 31
0.0
  0
LINE
  5
139
330
1F
100
AcDbEntity
  8
0_Pen_No__7_Pen_No__7
  6
Continuous
100
AcDbLine
 10
349.7785298114349
 20
1228.425298343831
 30
0.0
 11
329.7785298114371
 21
1228.425298343831
 31
0.0
  0
LINE
  5
13A
330
1F
100
AcDbEntity
  8
0_Pen_No__7_Pen_No__7
  6
Continuous
100
AcDbLine
 10
339.7785298114368
 20
1238.425298343831
 30
0.0
 11
339.7785298114368
 21
1218.425298343831
 31
0.0
  0
LINE
  5
13B
330
1F
100
AcDbEntity
  8
0_Pen_No__7_Pen_No__7
  6
Continuous
100
AcDbLine
 10
499.778529811437
 20
1228.425298343831
 30
0.0
 11
479.7785298114374
 21
1228.425298343831
 31
0.0
  0
LINE
  5
13C
330
1F
100
AcDbEntity
  8
0_Pen_No__7_Pen_No__7
  6
Continuous
100
AcDbLine
 10
489.7785298114372
 20
1238.425298343831
 30
0.0
 11
489.7785298114372
 21
1218.425298343831
 31
0.0
  0
LINE
  5
13D
330
1F
100
AcDbEntity
  8
0_Pen_No__7_Pen_No__7
  6
Continuous
100
AcDbLine
 10
649.7785298114374
 20
1228.425298343831
 30
0.0
 11
629.7785298114378
 21
1228.425298343831
 31
0.0
  0
LINE
  5
13E
330
1F
100
AcDbEntity
  8
0_Pen_No__7_Pen_No__7
  6
Continuous
100
AcDbLine
 10
639.7785298114376
 20
1238.425298343831
 30
0.0
 11
639.7785298114376
 21
1218.425298343831
 31
0.0
  0
LINE
  5
13F
330
1F
100
AcDbEntity
  8
0_Pen_No__7_Pen_No__7
  6
Continuous
100
AcDbLine
 10
799.7785298114377
 20
1228.425298343831
 30
0.0
 11
779.7785298114381
 21
1228.425298343831
 31
0.0
  0
LINE
  5
140
330
1F
100
AcDbEntity
  8
0_Pen_No__7_Pen_No__7
  6
Continuous
100
AcDbLine
 10
789.7785298114379
 20
1238.425298343831
 30
0.0
 11
789.7785298114379
 21
1218.425298343831
 31
0.0
  0
LINE
  5
141
330
1F
100
AcDbEntity
  8
0_Pen_No__7_Pen_No__7
  6
Continuous
100
AcDbLine
 10
949.778529811438
 20
1228.425298343831
 30
0.0
 11
929.778529811435
 21
1228.425298343831
 31
0.0
  0
LINE
  5
142
330
1F
100
AcDbEntity
  8
0_Pen_No__7_Pen_No__7
  6
Continuous
100
AcDbLine
 10
939.7785298114383
 20
1238.425298343831
 30
0.0
 11
939.7785298114383
 21
1218.425298343831
 31
0.0
  0
LINE
  5
143
330
1F
100
AcDbEntity
  8
0_Pen_No__7_Pen_No__7
  6
Continuous
100
AcDbLine
 10
1099.778529811435
 20
1228.425298343831
 30
0.0
 11
1079.778529811437
 21
1228.425298343831
 31
0.0
  0
LINE
  5
144
330
1F
100
AcDbEntity
  8
0_Pen_No__7_Pen_No__7
  6
Continuous
100
AcDbLine
 10
1089.778529811437
 20
1238.425298343831
 30
0.0
 11
1089.778529811437
 21
1218.425298343831
 31
0.0
  0
LINE
  5
145
330
1F
100
AcDbEntity
  8
0_Pen_No__7_Pen_No__7
  6
Continuous
100
AcDbLine
 10
1249.778529811437
 20
1228.425298343831
 30
0.0
 11
1229.778529811437
 21
1228.425298343831
 31
0.0
  0
LINE
  5
146
330
1F
100
AcDbEntity
  8
0_Pen_No__7_Pen_No__7
  6
Continuous
100
AcDbLine
 10
1239.778529811437
 20
1238.425298343831
 30
0.0
 11
1239.778529811437
 21
1218.425298343831
 31
0.0
  0
LWPOLYLINE
  5
147
330
1F
100
AcDbEntity
  8
0_Pen_No__7_Pen_No__7
  6
DASHEDX2
100
AcDbPolyline
 90
        2
 70
   128
 43
0.0
 10
-998.2214701885623
 20
1203.425298343831
 10
1401.778529811438
 20
1203.425298343831
  0
LWPOLYLINE
  5
148
330
1F
100
AcDbEntity
  8
0_Pen_No__7_Pen_No__7
  6
Continuous
100
AcDbPolyline
 90
        2
 70
   128
 43
0.0
 10
1401.778529811438
 20
1253.425298343831
 10
-998.2214701885623
 20
1253.425298343831
  0
LWPOLYLINE
  5
149
330
1F
100
AcDbEntity
  8
0_Pen_No__7_Pen_No__7
  6
Continuous
100
AcDbPolyline
 90
        2
 70
   128
 43
0.0
 10
-998.2214701885623
 20
-1146.574701656169
 10
1401.778529811438
 20
-1146.574701656169
  0
LWPOLYLINE
  5
14A
330
1F
100
AcDbEntity
  8
0_Pen_No__7_Pen_No__7
  6
DASHEDX2
100
AcDbPolyline
 90
        2
 70
   128
 43
0.0
 10
1401.778529811438
 20
-1096.574701656169
 10
-998.2214701885623
 20
-1096.574701656169
  0
LWPOLYLINE
  5
14B
330
1F
100
AcDbEntity
  8
0_Pen_No__7_Pen_No__7
  6
Continuous
100
AcDbPolyline
 90
        4
 70
   129
 43
0.0
 10
-998.2214701885623
 20
-1186.574701656169
 10
201.778529811437
 20
-1186.574701656169
 10
201.778529811437
 20
1253.425298343831
 10
-998.2214701885623
 20
1253.425298343831
  0
LWPOLYLINE
  5
14C
330
1F
100
AcDbEntity
  8
0_Pen_No__7_Pen_No__7
  6
Continuous
100
AcDbPolyline
 90
        4
 70
   129
 43
0.0
 10
201.778529811437
 20
-1186.574701656169
 10
1401.778529811438
 20
-1186.574701656169
 10
1401.778529811438
 20
1253.425298343831
 10
201.778529811437
 20
1253.425298343831
  0
LWPOLYLINE
  5
14D
330
1F
100
AcDbEntity
  8
0_Pen_No__7_Pen_No__7
  6
Continuous
100
AcDbPolyline
 90
        4
 70
   128
 43
0.0
 10
-998.2214701885623
 20
-1146.574701656169
 10
-1163.221470188565
 20
-1146.574701656169
 10
-1163.221470188565
 20
-1096.574701656169
 10
-998.2214701885623
 20
-1096.574701656169
  0
LWPOLYLINE
  5
14E
330
1F
100
AcDbEntity
  8
0_Pen_No__7_Pen_No__7
  6
Continuous
100
AcDbPolyline
 90
        4
 70
   128
 43
0.0
 10
-998.2214701885623
 20
1203.425298343831
 10
-1163.221470188565
 20
1203.425298343831
 10
-1163.221470188565
 20
1253.425298343831
 10
-998.2214701885623
 20
1253.425298343831
  0
LWPOLYLINE
  5
14F
330
1F
100
AcDbEntity
  8
0_Pen_No__7_Pen_No__7
  6
Continuous
100
AcDbPolyline
 90
        4
 70
   128
 43
0.0
 10
1401.778529811438
 20
-1146.574701656169
 10
1566.778529811437
 20
-1146.574701656169
 10
1566.778529811437
 20
-1096.57470165617
 10
1401.778529811438
 20
-1096.57470165617
  0
LWPOLYLINE
  5
150
330
1F
100
AcDbEntity
  8
0_Pen_No__7_Pen_No__7
  6
Continuous
100
AcDbPolyline
 90
        4
 70
   128
 43
0.0
 10
1401.778529811438
 20
1203.425298343831
 10
1566.778529811437
 20
1203.425298343831
 10
1566.778529811437
 20
1253.425298343831
 10
1401.778529811438
 20
1253.425298343831
  0
LWPOLYLINE
  5
151
330
1F
100
AcDbEntity
  8
chh-09_Pen_No__9_Pen_No__2
  6
Continuous
100
AcDbPolyline
 90
        2
 70
   128
 43
0.0
 10
1866.513914350096
 20
860.5408163340962
 10
941.7302540974082
 20
860.5408163340962
  0
LWPOLYLINE
  5
152
330
1F
100
AcDbEntity
  8
chh-09_Pen_No__9_Pen_No__2
  6
Continuous
100
AcDbPolyline
 90
        2
 70
   128
 43
0.0
 10
1871.452325408307
 20
-66.05358498033675
 10
1491.627232463728
 20
-66.05358498033675
  0
LWPOLYLINE
  5
153
330
1F
100
AcDbEntity
  8
chh-09_Pen_No__9_Pen_No__2
  6
Continuous
100
AcDbPolyline
 90
        2
 70
   128
 43
0.0
 10
1871.452325408307
 20
-1186.586343916229
 10
1491.627232463728
 20
-1186.586343916229
  0
DIMENSION
  5
183
330
1F
100
AcDbEntity
  8
0
  6
Continuous
100
AcDbDimension
  2
*D1
 10
-998.2214701885623
 20
1780.620502334972
 30
0.0
 11
-700.5809686798497
 21
1815.620502334972
 31
0.0
 70
    32
 71
     5
 42
-1.0
  3
GENERATED_STYLE__1
100
AcDbAlignedDimension
 13
-998.2214701885623
 23
1525.501705205981
 33
0.0
 14
-398.2214701885627
 24
1525.501705205981
 34
0.0
100
AcDbRotatedDimension
  0
DIMENSION
  5
193
330
1F
100
AcDbEntity
  8
0
  6
Continuous
100
AcDbDimension
  2
*D3
 10
-998.2214701885623
 20
1780.620502334972
 30
0.0
 11
-100.5809686798501
 21
1815.620502334972
 31
0.0
 70
    32
 71
     5
 42
-1.0
  3
GENERATED_STYLE__1
100
AcDbAlignedDimension
 13
-398.2214701885627
 23
1525.501705205981
 33
0.0
 14
201.778529811437
 24
1525.501705205981
 34
0.0
100
AcDbRotatedDimension
  0
DIMENSION
  5
19C
330
1F
100
AcDbEntity
  8
0
  6
Continuous
100
AcDbDimension
  2
*D4
 10
-998.2214701885623
 20
1780.620502334972
 30
0.0
 11
499.4190313201487
 21
1815.620502334972
 31
0.0
 70
    32
 71
     5
 42
-1.0
  3
GENERATED_STYLE__1
100
AcDbAlignedDimension
 13
201.778529811437
 23
1525.501705205981
 33
0.0
 14
801.7785298114349
 24
1525.501705205981
 34
0.0
100
AcDbRotatedDimension
  0
DIMENSION
  5
1A7
330
1F
100
AcDbEntity
  8
0
  6
Continuous
100
AcDbDimension
  2
*D5
 10
-998.2214701885623
 20
1780.620502334972
 30
0.0
 11
1099.419031320149
 21
1815.620502334972
 31
0.0
 70
    32
 71
     5
 42
-1.0
  3
GENERATED_STYLE__1
100
AcDbAlignedDimension
 13
801.7785298114349
 23
1525.501705205981
 33
0.0
 14
1401.778529811438
 24
1525.501705205981
 34
0.0
100
AcDbRotatedDimension
  0
DIMENSION
  5
1B2
330
1F
100
AcDbEntity
  8
0
  6
Continuous
100
AcDbDimension
  2
*D6
 10
-1364.869307391265
 20
-1121.574701656169
 30
0.0
 11
-1399.869307391265
 21
-728.1008668141232
 31
0.0
 70
    32
  1
\A1;800
 71
     5
 42
-1.0
  3
GENERATED_STYLE__2
100
AcDbAlignedDimension
 13
-1223.049142156814
 23
-1121.574701656169
 33
0.0
 14
-1223.04914215681
 24
-329.9080349895029
 34
0.0
 50
90.0
100
AcDbRotatedDimension
  0
DIMENSION
  5
1BD
330
1F
100
AcDbEntity
  8
0
  6
Continuous
100
AcDbDimension
  2
*D7
 10
-1364.869307391265
 20
-1121.574701656169
 30
0.0
 11
-1399.869307391265
 21
51.06579985254317
 31
0.0
 70
    32
  1
\A1;800
 71
     5
 42
-1.0
  3
GENERATED_STYLE__2
100
AcDbAlignedDimension
 13
-1223.04914215681
 23
-329.9080349895029
 33
0.0
 14
-1223.049142156812
 24
436.7586316771637
 34
0.0
 50
90.0
100
AcDbRotatedDimension
  0
DIMENSION
  5
1C8
330
1F
100
AcDbEntity
  8
0
  6
Continuous
100
AcDbDimension
  2
*D8
 10
-1364.869307391265
 20
-1121.574701656169
 30
0.0
 11
-1399.869307391264
 21
830.23246651921
 31
0.0
 70
    32
  1
\A1;800
 71
     5
 42
-1.0
  3
GENERATED_STYLE__2
100
AcDbAlignedDimension
 13
-1223.049142156812
 23
436.7586316771637
 33
0.0
 14
-1223.049142156814
 24
1228.425298343831
 34
0.0
 50
90.0
100
AcDbRotatedDimension
  0
MTEXT
  5
1CA
330
1F
100
AcDbEntity
  8
0_Pen_No__7_Pen_No__7
  6
Continuous
100
AcDbMText
 10
-118.4337744975296
 20
1917.804096967909
 30
0.0
 40
50.0
 41
0.0
 71
     4
 72
     1
  1
{Framing Centres}
  7
GENERATED_STYLE_2
 73
     1
 44
1.0
  0
MTEXT
  5
1CB
330
1F
100
AcDbEntity
  8
0_Pen_No__7_Pen_No__7
  6
Continuous
100
AcDbMText
 10
1964.588943673425
 20
-69.99759902609901
 30
0.0
 40
50.0
 41
0.0
 71
     7
 72
     1
  1
{Nails at 150mm centres to }
  7
GENERATED_STYLE_2
 73
     1
 44
1.0
  0
MTEXT
  5
1CC
330
1F
100
AcDbEntity
  8
0_Pen_No__7_Pen_No__7
  6
Continuous
100
AcDbMText
 10
1951.242862616763
 20
845.8715986422151
 30
0.0
 40
50.0
 41
0.0
 71
     7
 72
     1
  1
{Nails at 300mm centres to }
  7
GENERATED_STYLE_2
 73
     1
 44
1.0
  0
MTEXT
  5
1CD
330
1F
100
AcDbEntity
  8
Defpoints_Pen_No__211_Pen_No__115
  6
Continuous
100
AcDbMText
 10
-1319.584952756677
 20
-1619.287412767296
 30
0.0
 40
62.49999999999999
 41
0.0
 71
     7
 72
     1
  1
{SC003 Shadowclad Fastener Layout}
  7
GENERATED_STYLE_2
 73
     1
 44
1.0
  0
MTEXT
  5
1CF
330
1F
100
AcDbEntity
  8
chh-txt_Pen_No__7_Pen_No__7
  6
Continuous
100
AcDbMText
 10
-1454.886396936802
 20
-284.6799744660723
 30
0.0
 40
50.0
 41
0.0
 71
     7
 72
     1
  1
{Maximum nog spacing}
  7
GENERATED_STYLE_2
 11
6.123233995736766E-17
 21
1.0
 31
0.0
 73
     1
 44
1.0
  0
MTEXT
  5
1D1
330
1F
100
AcDbEntity
  8
0_Pen_No__7_Pen_No__7
  6
Continuous
100
AcDbMText
 10
1958.988943673424
 20
-247.3633133118134
 30
0.0
 40
50.0
 41
0.0
 71
     7
 72
     1
  1
{all sides of sheet perimeter}
  7
GENERATED_STYLE_2
 73
     1
 44
1.0
  0
MTEXT
  5
1D2
330
1F
100
AcDbEntity
  8
0_Pen_No__7_Pen_No__7
  6
Continuous
100
AcDbMText
 10
1949.942862616763
 20
667.843027213643
 30
0.0
 40
50.0
 41
0.0
 71
     7
 72
     1
  1
{intermediate studs and nogs}
  7
GENERATED_STYLE_2
 73
     1
 44
1.0
  0
MTEXT
  5
1D3
330
1F
100
AcDbEntity
  8
0_Pen_No__7_Pen_No__7
  6
Continuous
100
AcDbMText
 10
1959.788943673424
 20
-1203.661786533421
 30
0.0
 40
50.0
 41
0.0
 71
     7
 72
     1
  1
{50mm min. sheet overhang}
  7
GENERATED_STYLE_2
 73
     1
 44
1.0
  0
ENDSEC
  0
SECTION
  2
OBJECTS
  0
DICTIONARY
  5
C
330
0
100
AcDbDictionary
281
     1
  3
ACAD_GROUP
350
D
  3
ACAD_LAYOUT
350
1A
  3
ACAD_MLEADERSTYLE
350
1DC
  3
ACAD_MLINESTYLE
350
17
  3
ACAD_PLOTSETTINGS
350
19
  3
ACAD_PLOTSTYLENAME
350
E
  3
ACAD_SCALELIST
350
161
  3
ACAD_TABLESTYLE
350
1DB
  3
ACAD_VISUALSTYLE
350
2A
  3
AcDbVariableDictionary
350
1D9
  3
WATERMARKS
350
1D7
  0
DICTIONARY
  5
D
102
{ACAD_REACTORS
330
C
102
}
330
C
100
AcDbDictionary
281
     1
  0
DICTIONARY
  5
1A
102
{ACAD_REACTORS
330
C
102
}
330
C
100
AcDbDictionary
281
     1
  3
Layout1
350
1E
  3
Layout2
350
26
  3
Model
350
22
  0
DICTIONARY
  5
1DC
102
{ACAD_REACTORS
330
C
102
}
330
C
100
AcDbDictionary
281
     1
  0
DICTIONARY
  5
17
102
{ACAD_REACTORS
330
C
102
}
330
C
100
AcDbDictionary
281
     1
  3
Standard
350
18
  0
DICTIONARY
  5
19
102
{ACAD_REACTORS
330
C
102
}
330
C
100
AcDbDictionary
281
     1
  0
ACDBDICTIONARYWDFLT
  5
E
102
{ACAD_REACTORS
330
C
102
}
330
C
100
AcDbDictionary
281
     1
  3
Normal
350
F
100
AcDbDictionaryWithDefault
340
F
  0
DICTIONARY
  5
161
102
{ACAD_REACTORS
330
C
102
}
330
C
100
AcDbDictionary
281
     1
  3
A0
350
162
  3
A1
350
163
  3
A2
350
164
  3
A3
350
165
  3
A4
350
166
  3
A5
350
167
  3
A6
350
168
  3
A7
350
169
  3
A8
350
16A
  3
A9
350
16B
  3
B0
350
16C
  3
B1
350
16D
  3
B2
350
16E
  3
B3
350
16F
  3
B4
350
170
  3
B5
350
171
  3
B6
350
172
  3
B7
350
173
  3
B8
350
174
  3
B9
350
175
  3
C0
350
176
  3
C1
350
177
  3
C2
350
178
  3
C3
350
179
  3
C4
350
17A
  3
C5
350
17B
  3
C6
350
17C
  3
C7
350
17D
  3
C8
350
17E
  3
C9
350
17F
  3
D0
350
180
  3
D1
350
181
  3
D2
350
182
  0
DICTIONARY
  5
1DB
102
{ACAD_REACTORS
330
C
102
}
330
C
100
AcDbDictionary
281
     1
  0
DICTIONARY
  5
2A
102
{ACAD_REACTORS
330
C
102
}
330
C
100
AcDbDictionary
281
     1
  3
2dWireframe
350
2F
  3
3D Hidden
350
31
  3
3dWireframe
350
30
  3
Basic
350
32
  3
Brighten
350
36
  3
ColorChange
350
3A
  3
Conceptual
350
34
  3
Dim
350
35
  3
Facepattern
350
39
  3
Flat
350
2B
  3
FlatWithEdges
350
2C
  3
Gouraud
350
2D
  3
GouraudWithEdges
350
2E
  3
Linepattern
350
38
  3
Realistic
350
33
  3
Thicken
350
37
  0
DICTIONARY
  5
1D9
102
{ACAD_REACTORS
330
C
102
}
330
C
100
AcDbDictionary
281
     1
  3
CANNOSCALE
350
1DA
  0
DICTIONARY
  5
1D7
102
{ACAD_REACTORS
330
C
102
}
330
C
100
AcDbDictionary
281
     1
  3
AC_WATERMARK
350
1D8
  0
LAYOUT
  5
1E
102
{ACAD_REACTORS
330
1A
102
}
330
1A
100
AcDbPlotSettings
  1

  2
none_device
  4

  6

 40
0.0
 41
0.0
 42
0.0
 43
0.0
 44
0.0
 45
0.0
 46
0.0
 47
0.0
 48
0.0
 49
0.0
140
0.0
141
0.0
142
1.0
143
1.0
 70
   688
 72
     0
 73
     0
 74
     5
  7

 75
    16
 76
     0
 77
     2
 78
   300
147
1.0
148
0.0
149
0.0
100
AcDbLayout
  1
Layout1
 70
     1
 71
     1
 10
0.0
 20
0.0
 11
12.0
 21
9.0
 12
0.0
 22
0.0
 32
0.0
 14
1.000000000000000E+20
 24
1.000000000000000E+20
 34
1.000000000000000E+20
 15
-1.000000000000000E+20
 25
-1.000000000000000E+20
 35
-1.000000000000000E+20
146
0.0
 13
0.0
 23
0.0
 33
0.0
 16
1.0
 26
0.0
 36
0.0
 17
0.0
 27
1.0
 37
0.0
 76
     0
330
1B
  0
LAYOUT
  5
26
102
{ACAD_REACTORS
330
1A
102
}
330
1A
100
AcDbPlotSettings
  1

  2
none_device
  4

  6

 40
0.0
 41
0.0
 42
0.0
 43
0.0
 44
0.0
 45
0.0
 46
0.0
 47
0.0
 48
0.0
 49
0.0
140
0.0
141
0.0
142
1.0
143
1.0
 70
   688
 72
     0
 73
     0
 74
     5
  7

 75
    16
 76
     0
 77
     2
 78
   300
147
1.0
148
0.0
149
0.0
100
AcDbLayout
  1
Layout2
 70
     1
 71
     2
 10
0.0
 20
0.0
 11
0.0
 21
0.0
 12
0.0
 22
0.0
 32
0.0
 14
0.0
 24
0.0
 34
0.0
 15
0.0
 25
0.0
 35
0.0
146
0.0
 13
0.0
 23
0.0
 33
0.0
 16
1.0
 26
0.0
 36
0.0
 17
0.0
 27
1.0
 37
0.0
 76
     0
330
23
  0
LAYOUT
  5
22
102
{ACAD_REACTORS
330
1A
102
}
330
1A
100
AcDbPlotSettings
  1

  2
none_device
  4

  6

 40
0.0
 41
0.0
 42
0.0
 43
0.0
 44
0.0
 45
0.0
 46
0.0
 47
0.0
 48
0.0
 49
0.0
140
0.0
141
0.0
142
1.0
143
1.0
 70
  1712
 72
     0
 73
     0
 74
     0
  7

 75
     0
 76
     0
 77
     2
 78
   300
147
1.0
148
0.0
149
0.0
100
AcDbLayout
  1
Model
 70
     1
 71
     0
 10
0.0
 20
0.0
 11
12.0
 21
9.0
 12
0.0
 22
0.0
 32
0.0
 14
1.000000000000000E+20
 24
1.000000000000000E+20
 34
1.000000000000000E+20
 15
-1.000000000000000E+20
 25
-1.000000000000000E+20
 35
-1.000000000000000E+20
146
0.0
 13
0.0
 23
0.0
 33
0.0
 16
1.0
 26
0.0
 36
0.0
 17
0.0
 27
1.0
 37
0.0
 76
     0
330
1F
331
29
  0
MLINESTYLE
  5
18
102
{ACAD_REACTORS
330
17
102
}
330
17
100
AcDbMlineStyle
  2
Standard
 70
     0
  3

 62
   256
 51
90.0
 52
90.0
 71
     2
 49
0.5
 62
   256
  6
BYLAYER
 49
-0.5
 62
   256
  6
BYLAYER
  0
ACDBPLACEHOLDER
  5
F
102
{ACAD_REACTORS
330
E
102
}
330
E
  0
SCALE
  5
162
102
{ACAD_REACTORS
330
161
102
}
330
161
100
AcDbScale
 70
     0
300
1:1
140
1.0
141
1.0
290
     1
  0
SCALE
  5
163
102
{ACAD_REACTORS
330
161
102
}
330
161
100
AcDbScale
 70
     0
300
1:2
140
1.0
141
2.0
290
     0
  0
SCALE
  5
164
102
{ACAD_REACTORS
330
161
102
}
330
161
100
AcDbScale
 70
     0
300
1:4
140
1.0
141
4.0
290
     0
  0
SCALE
  5
165
102
{ACAD_REACTORS
330
161
102
}
330
161
100
AcDbScale
 70
     0
300
1:5
140
1.0
141
5.0
290
     0
  0
SCALE
  5
166
102
{ACAD_REACTORS
330
161
102
}
330
161
100
AcDbScale
 70
     0
300
1:8
140
1.0
141
8.0
290
     0
  0
SCALE
  5
167
102
{ACAD_REACTORS
330
161
102
}
330
161
100
AcDbScale
 70
     0
300
1:10
140
1.0
141
10.0
290
     0
  0
SCALE
  5
168
102
{ACAD_REACTORS
330
161
102
}
330
161
100
AcDbScale
 70
     0
300
1:16
140
1.0
141
16.0
290
     0
  0
SCALE
  5
169
102
{ACAD_REACTORS
330
161
102
}
330
161
100
AcDbScale
 70
     0
300
1:20
140
1.0
141
20.0
290
     0
  0
SCALE
  5
16A
102
{ACAD_REACTORS
330
161
102
}
330
161
100
AcDbScale
 70
     0
300
1:30
140
1.0
141
30.0
290
     0
  0
SCALE
  5
16B
102
{ACAD_REACTORS
330
161
102
}
330
161
100
AcDbScale
 70
     0
300
1:40
140
1.0
141
40.0
290
     0
  0
SCALE
  5
16C
102
{ACAD_REACTORS
330
161
102
}
330
161
100
AcDbScale
 70
     0
300
1:50
140
1.0
141
50.0
290
     0
  0
SCALE
  5
16D
102
{ACAD_REACTORS
330
161
102
}
330
161
100
AcDbScale
 70
     0
300
1:100
140
1.0
141
100.0
290
     0
  0
SCALE
  5
16E
102
{ACAD_REACTORS
330
161
102
}
330
161
100
AcDbScale
 70
     0
300
2:1
140
2.0
141
1.0
290
     0
  0
SCALE
  5
16F
102
{ACAD_REACTORS
330
161
102
}
330
161
100
AcDbScale
 70
     0
300
4:1
140
4.0
141
1.0
290
     0
  0
SCALE
  5
170
102
{ACAD_REACTORS
330
161
102
}
330
161
100
AcDbScale
 70
     0
300
8:1
140
8.0
141
1.0
290
     0
  0
SCALE
  5
171
102
{ACAD_REACTORS
330
161
102
}
330
161
100
AcDbScale
 70
     0
300
10:1
140
10.0
141
1.0
290
     0
  0
SCALE
  5
172
102
{ACAD_REACTORS
330
161
102
}
330
161
100
AcDbScale
 70
     0
300
100:1
140
100.0
141
1.0
290
     0
  0
SCALE
  5
173
102
{ACAD_REACTORS
330
161
102
}
330
161
100
AcDbScale
 70
     0
300
1/128" = 1'-0"
140
0.0078125
141
12.0
290
     0
  0
SCALE
  5
174
102
{ACAD_REACTORS
330
161
102
}
330
161
100
AcDbScale
 70
     0
300
1/64" = 1'-0"
140
0.015625
141
12.0
290
     0
  0
SCALE
  5
175
102
{ACAD_REACTORS
330
161
102
}
330
161
100
AcDbScale
 70
     0
300
1/32" = 1'-0"
140
0.03125
141
12.0
290
     0
  0
SCALE
  5
176
102
{ACAD_REACTORS
330
161
102
}
330
161
100
AcDbScale
 70
     0
300
1/16" = 1'-0"
140
0.0625
141
12.0
290
     0
  0
SCALE
  5
177
102
{ACAD_REACTORS
330
161
102
}
330
161
100
AcDbScale
 70
     0
300
3/32" = 1'-0"
140
0.09375
141
12.0
290
     0
  0
SCALE
  5
178
102
{ACAD_REACTORS
330
161
102
}
330
161
100
AcDbScale
 70
     0
300
1/8" = 1'-0"
140
0.125
141
12.0
290
     0
  0
SCALE
  5
179
102
{ACAD_REACTORS
330
161
102
}
330
161
100
AcDbScale
 70
     0
300
3/16" = 1'-0"
140
0.1875
141
12.0
290
     0
  0
SCALE
  5
17A
102
{ACAD_REACTORS
330
161
102
}
330
161
100
AcDbScale
 70
     0
300
1/4" = 1'-0"
140
0.25
141
12.0
290
     0
  0
SCALE
  5
17B
102
{ACAD_REACTORS
330
161
102
}
330
161
100
AcDbScale
 70
     0
300
3/8" = 1'-0"
140
0.375
141
12.0
290
     0
  0
SCALE
  5
17C
102
{ACAD_REACTORS
330
161
102
}
330
161
100
AcDbScale
 70
     0
300
1/2" = 1'-0"
140
0.5
141
12.0
290
     0
  0
SCALE
  5
17D
102
{ACAD_REACTORS
330
161
102
}
330
161
100
AcDbScale
 70
     0
300
3/4" = 1'-0"
140
0.75
141
12.0
290
     0
  0
SCALE
  5
17E
102
{ACAD_REACTORS
330
161
102
}
330
161
100
AcDbScale
 70
     0
300
1" = 1'-0"
140
1.0
141
12.0
290
     0
  0
SCALE
  5
17F
102
{ACAD_REACTORS
330
161
102
}
330
161
100
AcDbScale
 70
     0
300
1-1/2" = 1'-0"
140
1.5
141
12.0
290
     0
  0
SCALE
  5
180
102
{ACAD_REACTORS
330
161
102
}
330
161
100
AcDbScale
 70
     0
300
3" = 1'-0"
140
3.0
141
12.0
290
     0
  0
SCALE
  5
181
102
{ACAD_REACTORS
330
161
102
}
330
161
100
AcDbScale
 70
     0
300
6" = 1'-0"
140
6.0
141
12.0
290
     0
  0
SCALE
  5
182
102
{ACAD_REACTORS
330
161
102
}
330
161
100
AcDbScale
 70
     0
300
1'-0" = 1'-0"
140
12.0
141
12.0
290
     0
  0
VISUALSTYLE
  5
2F
102
{ACAD_REACTORS
330
2A
102
}
330
2A
100
AcDbVisualStyle
  2
2dWireframe
 70
     4
 71
     0
 72
     2
 73
     0
 90
        0
 40
-0.6
 41
-30.0
 62
     5
 63
     7
421
 16777215
 74
     1
 91
        4
 64
     7
 65
   257
 75
     1
175
     1
 42
1.0
 92
        0
 66
   257
 43
1.0
 76
     1
 77
     6
 78
     2
 67
     7
 79
     5
170
     0
171
     0
290
     0
174
     0
 93
        1
 44
0.0
173
     0
291
     0
 45
0.0
1001
ACAD
1000
AcDbSavedByObjectVersion
1070
     0
  0
VISUALSTYLE
  5
31
102
{ACAD_REACTORS
330
2A
102
}
330
2A
100
AcDbVisualStyle
  2
3D Hidden
 70
     6
 71
     1
 72
     2
 73
     2
 90
        0
 40
-0.6
 41
-30.0
 62
     5
 63
     7
421
 16777215
 74
     2
 91
        2
 64
     7
 65
   257
 75
     2
175
     1
 42
40.0
 92
        0
 66
   257
 43
1.0
 76
     1
 77
     6
 78
     2
 67
     7
 79
     3
170
     0
171
     0
290
     0
174
     0
 93
        1
 44
0.0
173
     0
291
     0
 45
0.0
1001
ACAD
1000
AcDbSavedByObjectVersion
1070
     0
  0
VISUALSTYLE
  5
30
102
{ACAD_REACTORS
330
2A
102
}
330
2A
100
AcDbVisualStyle
  2
3dWireframe
 70
     5
 71
     0
 72
     2
 73
     0
 90
        0
 40
-0.6
 41
-30.0
 62
     5
 63
     7
421
 16777215
 74
     1
 91
        4
 64
     7
 65
   257
 75
     1
175
     1
 42
1.0
 92
        0
 66
   257
 43
1.0
 76
     1
 77
     6
 78
     2
 67
     7
 79
     5
170
     0
171
     0
290
     0
174
     0
 93
        1
 44
0.0
173
     0
291
     0
 45
0.0
1001
ACAD
1000
AcDbSavedByObjectVersion
1070
     0
  0
VISUALSTYLE
  5
32
102
{ACAD_REACTORS
330
2A
102
}
330
2A
100
AcDbVisualStyle
  2
Basic
 70
     7
 71
     1
 72
     0
 73
     1
 90
        0
 40
-0.6
 41
-30.0
 62
     5
 63
     7
421
 16777215
 74
     0
 91
        4
 64
     7
 65
   257
 75
     1
175
     1
 42
1.0
 92
        8
 66
     7
 43
1.0
 76
     1
 77
     6
 78
     2
 67
     7
 79
     5
170
     0
171
     0
290
     0
174
     0
 93
        1
 44
0.0
173
     0
291
     1
 45
0.0
1001
ACAD
1000
AcDbSavedByObjectVersion
1070
     0
  0
VISUALSTYLE
  5
36
102
{ACAD_REACTORS
330
2A
102
}
330
2A
100
AcDbVisualStyle
  2
Brighten
 70
    12
 71
     2
 72
     2
 73
     0
 90
        0
 40
-0.6
 41
-30.0
 62
     5
 63
     7
421
 16777215
 74
     1
 91
        4
 64
     7
 65
   257
 75
     1
175
     1
 42
1.0
 92
        8
 66
     7
 43
1.0
 76
     1
 77
     6
 78
     2
 67
     7
 79
     5
170
     0
171
     0
290
     0
174
     0
 93
        1
 44
50.0
173
     0
291
     1
 45
0.0
1001
ACAD
1000
AcDbSavedByObjectVersion
1070
     0
  0
VISUALSTYLE
  5
3A
102
{ACAD_REACTORS
330
2A
102
}
330
2A
100
AcDbVisualStyle
  2
ColorChange
 70
    16
 71
     2
 72
     2
 73
     3
 90
        0
 40
-0.6
 41
-30.0
 62
     5
 63
     8
421
  8421504
 74
     1
 91
        4
 64
     7
 65
   257
 75
     1
175
     1
 42
1.0
 92
        8
 66
     8
424
  8421504
 43
1.0
 76
     1
 77
     6
 78
     2
 67
     7
 79
     5
170
     0
171
     0
290
     0
174
     0
 93
        1
 44
0.0
173
     0
291
     1
 45
0.0
1001
ACAD
1000
AcDbSavedByObjectVersion
1070
     0
  0
VISUALSTYLE
  5
34
102
{ACAD_REACTORS
330
2A
102
}
330
2A
100
AcDbVisualStyle
  2
Conceptual
 70
     9
 71
     3
 72
     2
 73
     0
 90
        0
 40
-0.6
 41
-30.0
 62
     5
 63
     7
421
 16777215
 74
     2
 91
        2
 64
     7
 65
   257
 75
     1
175
     1
 42
40.0
 92
        8
 66
     7
 43
1.0
 76
     1
 77
     6
 78
     2
 67
     7
 79
     3
170
     0
171
     0
290
     0
174
     0
 93
        1
 44
0.0
173
     0
291
     0
 45
0.0
1001
ACAD
1000
AcDbSavedByObjectVersion
1070
     0
  0
VISUALSTYLE
  5
35
102
{ACAD_REACTORS
330
2A
102
}
330
2A
100
AcDbVisualStyle
  2
Dim
 70
    11
 71
     2
 72
     2
 73
     0
 90
        0
 40
-0.6
 41
-30.0
 62
     5
 63
     7
421
 16777215
 74
     1
 91
        4
 64
     7
 65
   257
 75
     1
175
     1
 42
1.0
 92
        8
 66
     7
 43
1.0
 76
     1
 77
     6
 78
     2
 67
     7
 79
     5
170
     0
171
     0
290
     0
174
     0
 93
        1
 44
-50.0
173
     0
291
     1
 45
0.0
1001
ACAD
1000
AcDbSavedByObjectVersion
1070
     0
  0
VISUALSTYLE
  5
39
102
{ACAD_REACTORS
330
2A
102
}
330
2A
100
AcDbVisualStyle
  2
Facepattern
 70
    15
 71
     2
 72
     2
 73
     0
 90
        0
 40
-0.6
 41
-30.0
 62
     5
 63
     7
421
 16777215
 74
     1
 91
        4
 64
     7
 65
   257
 75
     1
175
     1
 42
1.0
 92
        8
 66
     7
 43
1.0
 76
     1
 77
     6
 78
     2
 67
     7
 79
     5
170
     0
171
     0
290
     0
174
     0
 93
        1
 44
0.0
173
     0
291
     1
 45
0.0
1001
ACAD
1000
AcDbSavedByObjectVersion
1070
     0
  0
VISUALSTYLE
  5
2B
102
{ACAD_REACTORS
330
2A
102
}
330
2A
100
AcDbVisualStyle
  2
Flat
 70
     0
 71
     2
 72
     1
 73
     1
 90
        2
 40
-0.6
 41
30.0
 62
     5
 63
     7
421
 16777215
 74
     0
 91
        4
 64
     7
 65
   257
 75
     1
175
     1
 42
1.0
 92
        8
 66
     7
 43
1.0
 76
     1
 77
     6
 78
     2
 67
     7
 79
     5
170
     0
171
     0
290
     0
174
     0
 93
       13
 44
0.0
173
     0
291
     1
 45
0.0
1001
ACAD
1000
AcDbSavedByObjectVersion
1070
     0
  0
VISUALSTYLE
  5
2C
102
{ACAD_REACTORS
330
2A
102
}
330
2A
100
AcDbVisualStyle
  2
FlatWithEdges
 70
     1
 71
     2
 72
     1
 73
     1
 90
        2
 40
-0.6
 41
30.0
 62
     5
 63
     7
421
 16777215
 74
     1
 91
        4
 64
     7
 65
   257
 75
     1
175
     1
 42
1.0
 92
        0
 66
   257
 43
1.0
 76
     1
 77
     6
 78
     2
 67
     7
 79
     5
170
     0
171
     0
290
     0
174
     0
 93
       13
 44
0.0
173
     0
291
     1
 45
0.0
1001
ACAD
1000
AcDbSavedByObjectVersion
1070
     0
  0
VISUALSTYLE
  5
2D
102
{ACAD_REACTORS
330
2A
102
}
330
2A
100
AcDbVisualStyle
  2
Gouraud
 70
     2
 71
     2
 72
     2
 73
     1
 90
        2
 40
-0.6
 41
30.0
 62
     5
 63
     7
421
 16777215
 74
     0
 91
        4
 64
     7
 65
   257
 75
     1
175
     1
 42
1.0
 92
        0
 66
     7
 43
1.0
 76
     1
 77
     6
 78
     2
 67
     7
 79
     5
170
     0
171
     0
290
     0
174
     0
 93
       13
 44
0.0
173
     0
291
     1
 45
0.0
1001
ACAD
1000
AcDbSavedByObjectVersion
1070
     0
  0
VISUALSTYLE
  5
2E
102
{ACAD_REACTORS
330
2A
102
}
330
2A
100
AcDbVisualStyle
  2
GouraudWithEdges
 70
     3
 71
     2
 72
     2
 73
     1
 90
        2
 40
-0.6
 41
30.0
 62
     5
 63
     7
421
 16777215
 74
     1
 91
        4
 64
     7
 65
   257
 75
     1
175
     1
 42
1.0
 92
        0
 66
   257
 43
1.0
 76
     1
 77
     6
 78
     2
 67
     7
 79
     5
170
     0
171
     0
290
     0
174
     0
 93
       13
 44
0.0
173
     0
291
     1
 45
0.0
1001
ACAD
1000
AcDbSavedByObjectVersion
1070
     0
  0
VISUALSTYLE
  5
38
102
{ACAD_REACTORS
330
2A
102
}
330
2A
100
AcDbVisualStyle
  2
Linepattern
 70
    14
 71
     2
 72
     2
 73
     0
 90
        0
 40
-0.6
 41
-30.0
 62
     5
 63
     7
421
 16777215
 74
     1
 91
        4
 64
     7
 65
   257
 75
     7
175
     7
 42
1.0
 92
        8
 66
     7
 43
1.0
 76
     1
 77
     6
 78
     2
 67
     7
 79
     5
170
     0
171
     0
290
     0
174
     0
 93
        1
 44
0.0
173
     0
291
     1
 45
0.0
1001
ACAD
1000
AcDbSavedByObjectVersion
1070
     0
  0
VISUALSTYLE
  5
33
102
{ACAD_REACTORS
330
2A
102
}
330
2A
100
AcDbVisualStyle
  2
Realistic
 70
     8
 71
     2
 72
     2
 73
     0
 90
        0
 40
-0.6
 41
-30.0
 62
     5
 63
     7
421
 16777215
 74
     1
 91
        0
 64
     7
 65
   257
 75
     1
175
     1
 42
1.0
 92
        8
 66
     8
424
  7895160
 43
1.0
 76
     1
 77
     6
 78
     2
 67
     7
 79
     5
170
     0
171
     0
290
     0
174
     0
 93
       13
 44
0.0
173
     0
291
     0
 45
0.0
1001
ACAD
1000
AcDbSavedByObjectVersion
1070
     0
  0
VISUALSTYLE
  5
37
102
{ACAD_REACTORS
330
2A
102
}
330
2A
100
AcDbVisualStyle
  2
Thicken
 70
    13
 71
     2
 72
     2
 73
     0
 90
        0
 40
-0.6
 41
-30.0
 62
     5
 63
     7
421
 16777215
 74
     1
 91
        4
 64
     7
 65
   257
 75
     1
175
     1
 42
1.0
 92
       12
 66
     7
 43
1.0
 76
     1
 77
     6
 78
     2
 67
     7
 79
     5
170
     0
171
     0
290
     0
174
     0
 93
        1
 44
0.0
173
     0
291
     1
 45
0.0
1001
ACAD
1000
AcDbSavedByObjectVersion
1070
     0
  0
DICTIONARYVAR
  5
1DA
102
{ACAD_REACTORS
330
1D9
102
}
330
1D9
100
DictionaryVariables
280
     0
  1
1:1
  0
XRECORD
  5
1D8
102
{ACAD_REACTORS
330
1D7
102
}
330
1D7
100
AcDbXrecord
280
     1
1000
This DWG file was created in ArchiCAD(TM)®
  0
ENDSEC
  0
EOF
