  0
SECTION
  2
HEADER
  9
$ACADVER
  1
AC1018
  9
$ACADMAINTVER
 70
     0
  9
$DWGCODEPAGE
  3
ANSI_1252
  9
$INSBASE
 10
0.0
 20
0.0
 30
0.0
  9
$EXTMIN
 10
1.000000000000000E+20
 20
1.000000000000000E+20
 30
1.000000000000000E+20
  9
$EXTMAX
 10
-1.000000000000000E+20
 20
-1.000000000000000E+20
 30
-1.000000000000000E+20
  9
$LIMMIN
 10
0.0
 20
0.0
  9
$LIMMAX
 10
12.0
 20
9.0
  9
$ORTHOMODE
 70
     0
  9
$REGENMODE
 70
     1
  9
$FILLMODE
 70
     1
  9
$QTEXTMODE
 70
     0
  9
$MIRRTEXT
 70
     1
  9
$LTSCALE
 40
1.0
  9
$ATTMODE
 70
     1
  9
$TEXTSIZE
 40
0.2
  9
$TRACEWID
 40
0.05
  9
$TEXTSTYLE
  7
Standard
  9
$CLAYER
  8
0
  9
$CELTYPE
  6
ByLayer
  9
$CECOLOR
 62
   256
  9
$CELTSCALE
 40
1.0
  9
$DISPSILH
 70
     0
  9
$DIMSCALE
 40
1.0
  9
$DIMASZ
 40
0.18
  9
$DIMEXO
 40
0.0625
  9
$DIMDLI
 40
0.38
  9
$DIMRND
 40
0.0
  9
$DIMDLE
 40
0.0
  9
$DIMEXE
 40
0.18
  9
$DIMTP
 40
0.0
  9
$DIMTM
 40
0.0
  9
$DIMTXT
 40
0.18
  9
$DIMCEN
 40
0.09
  9
$DIMTSZ
 40
0.0
  9
$DIMTOL
 70
     0
  9
$DIMLIM
 70
     0
  9
$DIMTIH
 70
     1
  9
$DIMTOH
 70
     1
  9
$DIMSE1
 70
     0
  9
$DIMSE2
 70
     0
  9
$DIMTAD
 70
     0
  9
$DIMZIN
 70
     0
  9
$DIMBLK
  1

  9
$DIMASO
 70
     1
  9
$DIMSHO
 70
     1
  9
$DIMPOST
  1

  9
$DIMAPOST
  1

  9
$DIMALT
 70
     0
  9
$DIMALTD
 70
     2
  9
$DIMALTF
 40
25.4
  9
$DIMLFAC
 40
1.0
  9
$DIMTOFL
 70
     0
  9
$DIMTVP
 40
0.0
  9
$DIMTIX
 70
     0
  9
$DIMSOXD
 70
     0
  9
$DIMSAH
 70
     0
  9
$DIMBLK1
  1

  9
$DIMBLK2
  1

  9
$DIMSTYLE
  2
Standard
  9
$DIMCLRD
 70
     0
  9
$DIMCLRE
 70
     0
  9
$DIMCLRT
 70
     0
  9
$DIMTFAC
 40
1.0
  9
$DIMGAP
 40
0.09
  9
$DIMJUST
 70
     0
  9
$DIMSD1
 70
     0
  9
$DIMSD2
 70
     0
  9
$DIMTOLJ
 70
     1
  9
$DIMTZIN
 70
     0
  9
$DIMALTZ
 70
     0
  9
$DIMALTTZ
 70
     0
  9
$DIMUPT
 70
     0
  9
$DIMDEC
 70
     4
  9
$DIMTDEC
 70
     4
  9
$DIMALTU
 70
     2
  9
$DIMALTTD
 70
     2
  9
$DIMTXSTY
  7
Standard
  9
$DIMAUNIT
 70
     0
  9
$DIMADEC
 70
     0
  9
$DIMALTRND
 40
0.0
  9
$DIMAZIN
 70
     0
  9
$DIMDSEP
 70
    46
  9
$DIMATFIT
 70
     3
  9
$DIMFRAC
 70
     0
  9
$DIMLDRBLK
  1

  9
$DIMLUNIT
 70
     2
  9
$DIMLWD
 70
    -2
  9
$DIMLWE
 70
    -2
  9
$DIMTMOVE
 70
     0
  9
$LUNITS
 70
     2
  9
$LUPREC
 70
     4
  9
$SKETCHINC
 40
0.1
  9
$FILLETRAD
 40
0.5
  9
$AUNITS
 70
     0
  9
$AUPREC
 70
     0
  9
$MENU
  1
.
  9
$ELEVATION
 40
0.0
  9
$PELEVATION
 40
0.0
  9
$THICKNESS
 40
0.0
  9
$LIMCHECK
 70
     0
  9
$CHAMFERA
 40
0.5
  9
$CHAMFERB
 40
0.5
  9
$CHAMFERC
 40
1.0
  9
$CHAMFERD
 40
0.0
  9
$SKPOLY
 70
     0
  9
$TDCREATE
 40
2455966.678173912
  9
$TDUCREATE
 40
2455966.136507245
  9
$TDUPDATE
 40
2455966.678173923
  9
$TDUUPDATE
 40
2455966.136507257
  9
$TDINDWG
 40
0.0000000116
  9
$TDUSRTIMER
 40
0.0000000116
  9
$USRTIMER
 70
     1
  9
$ANGBASE
 50
0.0
  9
$ANGDIR
 70
     0
  9
$PDMODE
 70
     0
  9
$PDSIZE
 40
0.0
  9
$PLINEWID
 40
0.0
  9
$SPLFRAME
 70
     0
  9
$SPLINETYPE
 70
     6
  9
$SPLINESEGS
 70
     8
  9
$HANDSEED
  5
10B
  9
$SURFTAB1
 70
     6
  9
$SURFTAB2
 70
     6
  9
$SURFTYPE
 70
     6
  9
$SURFU
 70
     6
  9
$SURFV
 70
     6
  9
$UCSBASE
  2

  9
$UCSNAME
  2

  9
$UCSORG
 10
0.0
 20
0.0
 30
0.0
  9
$UCSXDIR
 10
1.0
 20
0.0
 30
0.0
  9
$UCSYDIR
 10
0.0
 20
1.0
 30
0.0
  9
$UCSORTHOREF
  2

  9
$UCSORTHOVIEW
 70
     0
  9
$UCSORGTOP
 10
0.0
 20
0.0
 30
0.0
  9
$UCSORGBOTTOM
 10
0.0
 20
0.0
 30
0.0
  9
$UCSORGLEFT
 10
0.0
 20
0.0
 30
0.0
  9
$UCSORGRIGHT
 10
0.0
 20
0.0
 30
0.0
  9
$UCSORGFRONT
 10
0.0
 20
0.0
 30
0.0
  9
$UCSORGBACK
 10
0.0
 20
0.0
 30
0.0
  9
$PUCSBASE
  2

  9
$PUCSNAME
  2

  9
$PUCSORG
 10
0.0
 20
0.0
 30
0.0
  9
$PUCSXDIR
 10
1.0
 20
0.0
 30
0.0
  9
$PUCSYDIR
 10
0.0
 20
1.0
 30
0.0
  9
$PUCSORTHOREF
  2

  9
$PUCSORTHOVIEW
 70
     0
  9
$PUCSORGTOP
 10
0.0
 20
0.0
 30
0.0
  9
$PUCSORGBOTTOM
 10
0.0
 20
0.0
 30
0.0
  9
$PUCSORGLEFT
 10
0.0
 20
0.0
 30
0.0
  9
$PUCSORGRIGHT
 10
0.0
 20
0.0
 30
0.0
  9
$PUCSORGFRONT
 10
0.0
 20
0.0
 30
0.0
  9
$PUCSORGBACK
 10
0.0
 20
0.0
 30
0.0
  9
$USERI1
 70
     0
  9
$USERI2
 70
     0
  9
$USERI3
 70
     0
  9
$USERI4
 70
     0
  9
$USERI5
 70
     0
  9
$USERR1
 40
0.0
  9
$USERR2
 40
0.0
  9
$USERR3
 40
0.0
  9
$USERR4
 40
0.0
  9
$USERR5
 40
0.0
  9
$WORLDVIEW
 70
     1
  9
$SHADEDGE
 70
     3
  9
$SHADEDIF
 70
    70
  9
$TILEMODE
 70
     1
  9
$MAXACTVP
 70
    64
  9
$PINSBASE
 10
0.0
 20
0.0
 30
0.0
  9
$PLIMCHECK
 70
     0
  9
$PEXTMIN
 10
1.000000000000000E+20
 20
1.000000000000000E+20
 30
1.000000000000000E+20
  9
$PEXTMAX
 10
-1.000000000000000E+20
 20
-1.000000000000000E+20
 30
-1.000000000000000E+20
  9
$PLIMMIN
 10
0.0
 20
0.0
  9
$PLIMMAX
 10
12.0
 20
9.0
  9
$UNITMODE
 70
     0
  9
$VISRETAIN
 70
     1
  9
$PLINEGEN
 70
     0
  9
$PSLTSCALE
 70
     1
  9
$TREEDEPTH
 70
  3020
  9
$CMLSTYLE
  2
Standard
  9
$CMLJUST
 70
     0
  9
$CMLSCALE
 40
1.0
  9
$PROXYGRAPHICS
 70
     1
  9
$MEASUREMENT
 70
     0
  9
$CELWEIGHT
370
    -1
  9
$ENDCAPS
280
     0
  9
$JOINSTYLE
280
     0
  9
$LWDISPLAY
290
     1
  9
$INSUNITS
 70
     0
  9
$HYPERLINKBASE
  1

  9
$STYLESHEET
  1

  9
$XEDIT
290
     1
  9
$CEPSNTYPE
380
     0
  9
$PSTYLEMODE
290
     1
  9
$FINGERPRINTGUID
  2
{3660465C-121D-4293-8FBF-59F5AA200467}
  9
$VERSIONGUID
  2
{FAEB1C32-E019-11D5-929B-00C0DF256EC4}
  9
$EXTNAMES
290
     1
  9
$PSVPSCALE
 40
0.0
  9
$OLESTARTUP
290
     0
  9
$SORTENTS
280
   127
  9
$INDEXCTL
280
     0
  9
$HIDETEXT
280
     1
  9
$XCLIPFRAME
290
     0
  9
$HALOGAP
280
     0
  9
$OBSCOLOR
 70
   257
  9
$OBSLTYPE
280
     0
  9
$INTERSECTIONDISPLAY
280
     0
  9
$INTERSECTIONCOLOR
 70
   257
  9
$DIMASSOC
280
     2
  9
$PROJECTNAME
  1

  0
ENDSEC
  0
SECTION
  2
CLASSES
  0
CLASS
  1
ACDBDICTIONARYWDFLT
  2
AcDbDictionaryWithDefault
  3
ObjectDBX Classes
 90
        0
 91
        4
280
     0
281
     0
  0
CLASS
  1
VISUALSTYLE
  2
AcDbVisualStyle
  3
ObjectDBX Classes
 90
     4095
 91
        4
280
     0
281
     0
  0
CLASS
  1
SCALE
  2
AcDbScale
  3
ObjectDBX Classes
 90
     1153
 91
        4
280
     0
281
     0
  0
CLASS
  1
DICTIONARYVAR
  2
AcDbDictionaryVar
  3
ObjectDBX Classes
 90
        0
 91
        4
280
     0
281
     0
  0
ENDSEC
  0
SECTION
  2
TABLES
  0
TABLE
  2
VPORT
  5
8
330
0
100
AcDbSymbolTable
 70
     1
  0
VPORT
  5
29
330
8
100
AcDbSymbolTableRecord
100
AcDbViewportTableRecord
  2
*Active
 70
     0
 10
0.0
 20
0.0
 11
1.0
 21
1.0
 12
46.82636971374566
 22
-62.66559159614792
 13
0.0
 23
0.0
 14
0.5
 24
0.5
 15
0.5
 25
0.5
 16
0.0
 26
0.0
 36
1.0
 17
0.0
 27
0.0
 37
0.0
 40
553.8478479478373
 41
0.8884124321730064
 42
50.0
 43
0.0
 44
0.0
 50
0.0
 51
0.0
 71
     0
 72
   100
 73
     1
 74
     3
 75
     0
 76
     0
 77
     0
 78
     0
281
     0
 65
     1
110
0.0
120
0.0
130
0.0
111
1.0
121
0.0
131
0.0
112
0.0
122
1.0
132
0.0
 79
     0
146
0.0
  0
ENDTAB
  0
TABLE
  2
LTYPE
  5
5
330
0
100
AcDbSymbolTable
 70
     4
  0
LTYPE
  5
14
330
5
100
AcDbSymbolTableRecord
100
AcDbLinetypeTableRecord
  2
ByBlock
 70
     0
  3

 72
    65
 73
     0
 40
0.0
  0
LTYPE
  5
15
330
5
100
AcDbSymbolTableRecord
100
AcDbLinetypeTableRecord
  2
ByLayer
 70
     0
  3

 72
    65
 73
     0
 40
0.0
  0
LTYPE
  5
16
330
5
100
AcDbSymbolTableRecord
100
AcDbLinetypeTableRecord
  2
Continuous
 70
     0
  3
Solid line
 72
    65
 73
     0
 40
0.0
  0
LTYPE
  5
61
330
5
100
AcDbSymbolTableRecord
100
AcDbLinetypeTableRecord
  2
DASHEDX2
 70
     0
  3
- - - - - 
 72
    65
 73
     2
 40
7.5
 49
5.0
 74
     0
 49
-2.5
 74
     0
  0
LTYPE
  5
80
330
5
100
AcDbSymbolTableRecord
100
AcDbLinetypeTableRecord
  2
DOT
 70
     0
  3
- - - - - 
 72
    65
 73
     2
 40
65.0
 49
50.0
 74
     0
 49
-15.0
 74
     0
  0
LTYPE
  5
89
330
5
100
AcDbSymbolTableRecord
100
AcDbLinetypeTableRecord
  2
Hidden
 70
     0
  3
- - - - - 
 72
    65
 73
     2
 40
2.469444990158081
 49
1.411111354827881
 74
     0
 49
-1.0583336353302
 74
     0
  0
ENDTAB
  0
TABLE
  2
LAYER
  5
2
330
0
100
AcDbSymbolTable
 70
    17
  0
LAYER
  5
10
330
2
100
AcDbSymbolTableRecord
100
AcDbLayerTableRecord
  2
0
 70
     0
 62
     7
  6
Continuous
370
    -3
390
F
  0
LAYER
  5
3C
330
2
100
AcDbSymbolTableRecord
100
AcDbLayerTableRecord
  2
chh-08_Pen_No__8_Pen_No__101
 70
     0
 62
     8
  6
Continuous
370
    13
390
F
  0
LAYER
  5
3E
330
2
100
AcDbSymbolTableRecord
100
AcDbLayerTableRecord
  2
chh-08_Pen_No__8_Pen_No__81
 70
     0
 62
   251
420
  6974058
  6
Continuous
370
    20
390
F
  0
LAYER
  5
40
330
2
100
AcDbSymbolTableRecord
100
AcDbLayerTableRecord
  2
chh-09_Pen_No__9_Pen_No__2
 70
     0
 62
     8
420
  8355711
  6
Continuous
370
    15
390
F
  0
LAYER
  5
4A
330
2
100
AcDbSymbolTableRecord
100
AcDbLayerTableRecord
  2
Documentation_ Floor_Pen_No__18
 70
     0
 62
     9
  6
Continuous
370
    15
390
F
  0
LAYER
  5
4B
330
2
100
AcDbSymbolTableRecord
100
AcDbLayerTableRecord
  2
Documentation_ Floor_Pen_No__1
 70
     0
 62
     7
  6
Continuous
370
    13
390
F
  0
LAYER
  5
4E
330
2
100
AcDbSymbolTableRecord
100
AcDbLayerTableRecord
  2
chh-08_Pen_No__8_Pen_No__250
 70
     0
 62
   254
420
 15263976
  6
Continuous
370
    13
390
F
  0
LAYER
  5
50
330
2
100
AcDbSymbolTableRecord
100
AcDbLayerTableRecord
  2
chh-08_Pen_No__8_Pen_No__1
 70
     0
 62
     7
  6
Continuous
370
    13
390
F
  0
LAYER
  5
5A
330
2
100
AcDbSymbolTableRecord
100
AcDbLayerTableRecord
  2
chh-07_Pen_No__7_Pen_No__7
 70
     0
 62
     7
  6
Continuous
370
    18
390
F
  0
LAYER
  5
5E
330
2
100
AcDbSymbolTableRecord
100
AcDbLayerTableRecord
  2
chh-06_Pen_No__7_Pen_No__7
 70
     0
 62
     7
  6
Continuous
370
    18
390
F
  0
LAYER
  5
67
330
2
100
AcDbSymbolTableRecord
100
AcDbLayerTableRecord
  2
chh-08_Pen_No__8_Pen_No__7
 70
     0
 62
     7
  6
Continuous
370
    18
390
F
  0
LAYER
  5
76
330
2
100
AcDbSymbolTableRecord
100
AcDbLayerTableRecord
  2
chh-05_Pen_No__7_Pen_No__7
 70
     0
 62
     7
  6
Continuous
370
    18
390
F
  0
LAYER
  5
8B
330
2
100
AcDbSymbolTableRecord
100
AcDbLayerTableRecord
  2
chh-txt_Pen_No__7_Pen_No__7
 70
     0
 62
     7
  6
Continuous
370
    18
390
F
  0
LAYER
  5
95
330
2
100
AcDbSymbolTableRecord
100
AcDbLayerTableRecord
  2
chh-txt_Pen_No__1
 70
     0
 62
     7
  6
Continuous
370
    13
390
F
  0
LAYER
  5
98
330
2
100
AcDbSymbolTableRecord
100
AcDbLayerTableRecord
  2
chh-txt_Pen_No__7
 70
     0
 62
     7
  6
Continuous
370
    18
390
F
  0
LAYER
  5
C2
330
2
100
AcDbSymbolTableRecord
100
AcDbLayerTableRecord
  2
chh-txt
 70
     0
 62
     7
  6
Continuous
370
    -3
390
F
  0
LAYER
  5
EE
330
2
100
AcDbSymbolTableRecord
100
AcDbLayerTableRecord
  2
Defpoints_Pen_No__211_Pen_No__115
 70
     0
 62
   211
420
 16738047
  6
Continuous
370
    13
390
F
  0
ENDTAB
  0
TABLE
  2
STYLE
  5
3
330
0
100
AcDbSymbolTable
 70
     2
  0
STYLE
  5
11
330
3
100
AcDbSymbolTableRecord
100
AcDbTextStyleTableRecord
  2
Standard
 70
     0
 40
0.0
 41
1.0
 50
0.0
 71
     0
 42
0.2
  3
txt
  4
BIGFONT.SHX
  0
STYLE
  5
9D
330
3
100
AcDbSymbolTableRecord
100
AcDbTextStyleTableRecord
  2
GENERATED_STYLE_1
 70
     0
 40
0.0
 41
1.0
 50
0.0
 71
     0
 42
0.2
  3

  4

1001
ACAD
1000
Arial Unicode MS
1071
       34
  0
ENDTAB
  0
TABLE
  2
VIEW
  5
6
330
0
100
AcDbSymbolTable
 70
     0
  0
ENDTAB
  0
TABLE
  2
UCS
  5
7
330
0
100
AcDbSymbolTable
 70
     0
  0
ENDTAB
  0
TABLE
  2
APPID
  5
9
330
0
100
AcDbSymbolTable
 70
     1
  0
APPID
  5
12
330
9
100
AcDbSymbolTableRecord
100
AcDbRegAppTableRecord
  2
ACAD
 70
     0
  0
ENDTAB
  0
TABLE
  2
DIMSTYLE
  5
A
330
0
100
AcDbSymbolTable
 70
     2
100
AcDbDimStyleTable
  0
DIMSTYLE
105
27
330
A
100
AcDbSymbolTableRecord
100
AcDbDimStyleTableRecord
  2
Standard
 70
     0
340
11
  0
DIMSTYLE
105
C3
102
{ACAD_REACTORS
330
C1
330
D4
330
E0
330
EC
102
}
330
A
100
AcDbSymbolTableRecord
100
AcDbDimStyleTableRecord
  2
GENERATED_STYLE__1
 70
     0
 41
0.0214737653944711
 42
1.0
 73
     0
 74
     0
 77
     1
140
5.0
172
     1
176
     7
177
     7
178
     7
271
     0
340
9D
342
C4
343
C4
344
C4
  0
ENDTAB
  0
TABLE
  2
BLOCK_RECORD
  5
1
330
0
100
AcDbSymbolTable
 70
     7
  0
BLOCK_RECORD
  5
1F
330
1
100
AcDbSymbolTableRecord
100
AcDbBlockTableRecord
  2
*Model_Space
340
22
  0
BLOCK_RECORD
  5
1B
330
1
100
AcDbSymbolTableRecord
100
AcDbBlockTableRecord
  2
*Paper_Space
340
1E
  0
BLOCK_RECORD
  5
23
330
1
100
AcDbSymbolTableRecord
100
AcDbBlockTableRecord
  2
*Paper_Space0
340
26
  0
BLOCK_RECORD
  5
91
330
1
100
AcDbSymbolTableRecord
100
AcDbBlockTableRecord
  2
*D1
340
0
  0
BLOCK_RECORD
  5
C4
330
1
100
AcDbSymbolTableRecord
100
AcDbBlockTableRecord
  2
ARROWHEAD_2
340
0
  0
BLOCK_RECORD
  5
C9
330
1
100
AcDbSymbolTableRecord
100
AcDbBlockTableRecord
  2
*D3
340
0
  0
BLOCK_RECORD
  5
D5
330
1
100
AcDbSymbolTableRecord
100
AcDbBlockTableRecord
  2
*D4
340
0
  0
BLOCK_RECORD
  5
E1
330
1
100
AcDbSymbolTableRecord
100
AcDbBlockTableRecord
  2
*D5
340
0
  0
BLOCK_RECORD
  5
102
330
1
100
AcDbSymbolTableRecord
100
AcDbBlockTableRecord
  2
Untitled _STORY_MARKER
340
0
  0
ENDTAB
  0
ENDSEC
  0
SECTION
  2
BLOCKS
  0
BLOCK
  5
20
330
1F
100
AcDbEntity
  8
0
100
AcDbBlockBegin
  2
*Model_Space
 70
     0
 10
0.0
 20
0.0
 30
0.0
  3
*Model_Space
  1

  0
ENDBLK
  5
21
330
1F
100
AcDbEntity
  8
0
100
AcDbBlockEnd
  0
BLOCK
  5
1C
330
1B
100
AcDbEntity
 67
     1
  8
0
100
AcDbBlockBegin
  2
*Paper_Space
 70
     0
 10
0.0
 20
0.0
 30
0.0
  3
*Paper_Space
  1

  0
ENDBLK
  5
1D
330
1B
100
AcDbEntity
 67
     1
  8
0
100
AcDbBlockEnd
  0
BLOCK
  5
24
330
23
100
AcDbEntity
  8
0
100
AcDbBlockBegin
  2
*Paper_Space0
 70
     0
 10
0.0
 20
0.0
 30
0.0
  3
*Paper_Space0
  1

  0
ENDBLK
  5
25
330
23
100
AcDbEntity
  8
0
100
AcDbBlockEnd
  0
BLOCK
  5
92
330
91
100
AcDbEntity
  8
0
100
AcDbBlockBegin
  2
*D1
 70
     1
 10
0.0
 20
0.0
 30
0.0
  3
*D1
  1

  0
LINE
  5
94
330
91
100
AcDbEntity
  8
chh-txt_Pen_No__1
  6
Continuous
100
AcDbLine
 10
50.62555994098683
 20
-94.96085191178076
 30
0.0
 11
50.62555994098683
 21
-94.94703523904668
 31
0.0
  0
LINE
  5
96
330
91
100
AcDbEntity
  8
chh-txt_Pen_No__1
  6
Continuous
100
AcDbLine
 10
50.62555994098683
 20
-94.94703523904668
 30
0.0
 11
50.62555994098683
 21
-84.9470352390469
 31
0.0
  0
LINE
  5
97
330
91
100
AcDbEntity
  8
chh-txt_Pen_No__7
  6
Continuous
100
AcDbLine
 10
50.61143246375362
 20
-94.9388787400661
 30
0.0
 11
50.63968741822003
 21
-94.95519173802727
 31
0.0
  0
LINE
  5
99
330
91
100
AcDbEntity
  8
chh-txt_Pen_No__7
  6
Continuous
100
AcDbLine
 10
50.63968741822003
 20
-84.95519173802748
 30
0.0
 11
50.61143246375362
 21
-84.93887874006631
 31
0.0
  0
LINE
  5
9A
330
91
100
AcDbEntity
  8
chh-txt_Pen_No__1
  6
Continuous
100
AcDbLine
 10
50.62555994098683
 20
-84.9470352390469
 30
0.0
 11
50.62555994098683
 21
-84.93321856631282
 31
0.0
  0
LINE
  5
9B
330
91
100
AcDbEntity
  8
chh-txt_Pen_No__1
  6
Continuous
100
AcDbLine
 10
50.64675115683664
 20
-94.94703523904668
 30
0.0
 11
35.41155032971577
 21
-94.94703523904668
 31
0.0
  0
LINE
  5
9C
330
91
100
AcDbEntity
  8
chh-txt_Pen_No__1
  6
Continuous
100
AcDbLine
 10
50.64675115683664
 20
-84.9470352390469
 30
0.0
 11
35.41155032971577
 21
-84.9470352390469
 31
0.0
  0
MTEXT
  5
9E
330
91
100
AcDbEntity
  8
chh-txt_Pen_No__7
100
AcDbMText
 10
44.62555994098683
 20
-133.7317016227918
 30
0.0
 40
5.0
 41
0.0
 71
     1
 72
     1
  1
{10mm cover}
  7
GENERATED_STYLE_1
 11
6.123233995736766E-17
 21
1.0
 31
0.0
 73
     1
 44
1.0
  0
ENDBLK
  5
93
330
91
100
AcDbEntity
  8
0
100
AcDbBlockEnd
  0
BLOCK
  5
C5
330
C4
100
AcDbEntity
  8
0
100
AcDbBlockBegin
  2
ARROWHEAD_2
 70
     0
 10
0.0
 20
0.0
 30
0.0
  3
ARROWHEAD_2
  1

  0
LINE
  5
C7
330
C4
100
AcDbEntity
  8
0
  6
Continuous
 62
     0
370
     0
100
AcDbLine
 10
-0.3781315
 20
-0.655
 30
0.0
 11
0.3781315
 21
0.655
 31
0.0
  0
LINE
  5
C8
330
C4
100
AcDbEntity
  8
0
  6
Continuous
 62
     0
370
     0
100
AcDbLine
 10
0.0
 20
0.0
 30
0.0
 11
-1.0
 21
0.0
 31
0.0
  0
ENDBLK
  5
C6
330
C4
100
AcDbEntity
  8
0
100
AcDbBlockEnd
  0
BLOCK
  5
CA
330
C9
100
AcDbEntity
  8
0
100
AcDbBlockBegin
  2
*D3
 70
     1
 10
0.0
 20
0.0
 30
0.0
  3
*D3
  1

  0
LINE
  5
CC
330
C9
100
AcDbEntity
  8
chh-txt_Pen_No__1
  6
Continuous
100
AcDbLine
 10
52.45279620928282
 20
-63.18392270860966
 30
0.0
 11
52.45279620928282
 21
-63.17010603587558
 31
0.0
  0
LINE
  5
CD
330
C9
100
AcDbEntity
  8
chh-txt_Pen_No__1
  6
Continuous
100
AcDbLine
 10
52.45279620928282
 20
-63.17010603587558
 30
0.0
 11
52.45279620928282
 21
-13.17010603587532
 31
0.0
  0
LINE
  5
CE
330
C9
100
AcDbEntity
  8
chh-txt_Pen_No__7
  6
Continuous
100
AcDbLine
 10
52.43866873204961
 20
-63.16194953689499
 30
0.0
 11
52.46692368651603
 21
-63.17826253485617
 31
0.0
  0
LINE
  5
CF
330
C9
100
AcDbEntity
  8
chh-txt_Pen_No__7
  6
Continuous
100
AcDbLine
 10
52.46692368651603
 20
-13.17826253485591
 30
0.0
 11
52.43866873204961
 21
-13.16194953689473
 31
0.0
  0
LINE
  5
D0
330
C9
100
AcDbEntity
  8
chh-txt_Pen_No__1
  6
Continuous
100
AcDbLine
 10
52.45279620928282
 20
-13.17010603587532
 30
0.0
 11
52.45279620928282
 21
-13.15628936314124
 31
0.0
  0
LINE
  5
D1
330
C9
100
AcDbEntity
  8
chh-txt_Pen_No__1
  6
Continuous
100
AcDbLine
 10
52.47398742513262
 20
-63.17010603587558
 30
0.0
 11
21.67036663557298
 21
-63.17010603587558
 31
0.0
  0
LINE
  5
D2
330
C9
100
AcDbEntity
  8
chh-txt_Pen_No__1
  6
Continuous
100
AcDbLine
 10
52.47398742513262
 20
-13.17010603587532
 30
0.0
 11
21.67036663557298
 21
-13.17010603587532
 31
0.0
  0
MTEXT
  5
D3
330
C9
100
AcDbEntity
  8
chh-txt_Pen_No__7
100
AcDbMText
 10
46.45279620928282
 20
-57.5583563868276
 30
0.0
 40
5.0
 41
0.0
 71
     1
 72
     1
  1
{50mm cover}
  7
GENERATED_STYLE_1
 11
6.123233995736766E-17
 21
1.0
 31
0.0
 73
     1
 44
1.0
  0
ENDBLK
  5
CB
330
C9
100
AcDbEntity
  8
0
100
AcDbBlockEnd
  0
BLOCK
  5
D6
330
D5
100
AcDbEntity
  8
0
100
AcDbBlockBegin
  2
*D4
 70
     1
 10
0.0
 20
0.0
 30
0.0
  3
*D4
  1

  0
LINE
  5
D8
330
D5
100
AcDbEntity
  8
chh-txt_Pen_No__1
  6
Continuous
100
AcDbLine
 10
34.80994384904952
 20
-81.95737490043615
 30
0.0
 11
34.80365106802932
 21
-81.96967536191012
 31
0.0
  0
LINE
  5
D9
330
D5
100
AcDbEntity
  8
chh-txt_Pen_No__1
  6
Continuous
100
AcDbLine
 10
34.80365106802932
 20
-81.96967536191012
 30
0.0
 11
31.14624903725985
 21
-89.11877726611938
 31
0.0
  0
LINE
  5
DA
330
D5
100
AcDbEntity
  8
chh-txt_Pen_No__7
  6
Continuous
100
AcDbLine
 10
34.81251336286772
 20
-81.98337112106368
 30
0.0
 11
34.79478877319093
 21
-81.95597960275656
 31
0.0
  0
LINE
  5
DB
330
D5
100
AcDbEntity
  8
chh-txt_Pen_No__7
  6
Continuous
100
AcDbLine
 10
31.13738674242146
 20
-89.10508150696582
 30
0.0
 11
31.15511133209825
 21
-89.13247302527296
 31
0.0
  0
LINE
  5
DC
330
D5
100
AcDbEntity
  8
chh-txt_Pen_No__1
  6
Continuous
100
AcDbLine
 10
31.14624903725985
 20
-89.11877726611938
 30
0.0
 11
31.13995625623965
 21
-89.13107772759335
 31
0.0
  0
LINE
  5
DD
330
D5
100
AcDbEntity
  8
chh-txt_Pen_No__1
  6
Continuous
100
AcDbLine
 10
25.09311048168327
 20
-77.00186942820807
 30
0.0
 11
34.82251680648631
 21
-81.97932686654232
 31
0.0
  0
LINE
  5
DE
330
D5
100
AcDbEntity
  8
chh-txt_Pen_No__1
  6
Continuous
100
AcDbLine
 10
22.21383783793606
 20
-84.54905378227316
 30
0.0
 11
31.16511477571684
 21
-89.1284287707516
 31
0.0
  0
MTEXT
  5
DF
330
D5
100
AcDbEntity
  8
chh-txt_Pen_No__7
100
AcDbMText
 10
29.46579691055414
 20
-79.22971556806553
 30
0.0
 40
5.0
 41
0.0
 71
     1
 72
     1
  1
{8mm}
  7
GENERATED_STYLE_1
 11
0.4554483659931931
 21
0.8902622006544647
 31
0.0
 73
     1
 44
1.0
  0
ENDBLK
  5
D7
330
D5
100
AcDbEntity
  8
0
100
AcDbBlockEnd
  0
BLOCK
  5
E2
330
E1
100
AcDbEntity
  8
0
100
AcDbBlockBegin
  2
*D5
 70
     1
 10
0.0
 20
0.0
 30
0.0
  3
*D5
  1

  0
LINE
  5
E4
330
E1
100
AcDbEntity
  8
chh-txt_Pen_No__1
  6
Continuous
100
AcDbLine
 10
-181.2462493570297
 20
-108.3609210675382
 30
0.0
 11
-181.2462493570297
 21
-108.3471043948041
 31
0.0
  0
LINE
  5
E5
330
E1
100
AcDbEntity
  8
chh-txt_Pen_No__1
  6
Continuous
100
AcDbLine
 10
-181.2462493570297
 20
-108.3471043948041
 30
0.0
 11
-181.2462493570297
 21
-100.8471043948047
 31
0.0
  0
LINE
  5
E6
330
E1
100
AcDbEntity
  8
chh-txt_Pen_No__7
  6
Continuous
100
AcDbLine
 10
-181.2603768342629
 20
-108.3389478958235
 30
0.0
 11
-181.2321218797965
 21
-108.3552608937847
 31
0.0
  0
LINE
  5
E7
330
E1
100
AcDbEntity
  8
chh-txt_Pen_No__7
  6
Continuous
100
AcDbLine
 10
-181.2321218797965
 20
-100.8552608937853
 30
0.0
 11
-181.2603768342629
 21
-100.8389478958241
 31
0.0
  0
LINE
  5
E8
330
E1
100
AcDbEntity
  8
chh-txt_Pen_No__1
  6
Continuous
100
AcDbLine
 10
-181.2462493570297
 20
-100.8471043948047
 30
0.0
 11
-181.2462493570297
 21
-100.8332877220706
 31
0.0
  0
LINE
  5
E9
330
E1
100
AcDbEntity
  8
chh-txt_Pen_No__1
  6
Continuous
100
AcDbLine
 10
-149.4293018147149
 20
-108.3471043948041
 30
0.0
 11
-181.2674405728795
 21
-108.3471043948041
 31
0.0
  0
LINE
  5
EA
330
E1
100
AcDbEntity
  8
chh-txt_Pen_No__1
  6
Continuous
100
AcDbLine
 10
-148.827883024368
 20
-100.8471043948047
 30
0.0
 11
-181.2674405728795
 21
-100.8471043948047
 31
0.0
  0
MTEXT
  5
EB
330
E1
100
AcDbEntity
  8
chh-txt_Pen_No__7
100
AcDbMText
 10
-187.2462493570297
 20
-129.9082199820404
 30
0.0
 40
5.0
 41
0.0
 71
     1
 72
     1
  1
{7.5mm}
  7
GENERATED_STYLE_1
 11
6.123233995736766E-17
 21
1.0
 31
0.0
 73
     1
 44
1.0
  0
ENDBLK
  5
E3
330
E1
100
AcDbEntity
  8
0
100
AcDbBlockEnd
  0
BLOCK
  5
103
330
102
100
AcDbEntity
  8
0
100
AcDbBlockBegin
  2
Untitled _STORY_MARKER
 70
     0
 10
0.0
 20
0.0
 30
0.0
  3
Untitled _STORY_MARKER
  1

  0
ENDBLK
  5
104
330
102
100
AcDbEntity
  8
0
100
AcDbBlockEnd
  0
ENDSEC
  0
SECTION
  2
ENTITIES
  0
HATCH
  5
3B
330
1F
100
AcDbEntity
  8
chh-08_Pen_No__8_Pen_No__101
  6
Continuous
100
AcDbHatch
 10
0.0
 20
0.0
 30
0.0
210
0.0
220
0.0
230
1.0
  2
Plaster
 70
     0
 71
     0
 91
        1
 92
        2
 72
     0
 73
     1
 93
        4
 10
-121.0767633483583
 20
199.0147981110986
 10
-131.0767633483583
 20
199.0147981110986
 10
-131.0767633483583
 20
-115.7648983074355
 10
-121.0767633483583
 20
-115.7648983074355
 97
        0
 75
     0
 76
     2
 52
0.0
 41
1.0
 77
     0
 78
     2
 53
0.0
 43
0.0
 44
0.0
 45
0.0
 46
1.732050807568877
 79
     2
 49
0.0
 49
-1.0
 53
0.0
 43
0.5
 44
0.8660253882408142
 45
0.0
 46
1.732050807568877
 79
     2
 49
0.0
 49
-1.0
 98
        0
  0
HATCH
  5
3D
330
1F
100
AcDbEntity
  8
chh-08_Pen_No__8_Pen_No__81
  6
Continuous
100
AcDbHatch
 10
0.0
 20
0.0
 30
0.0
210
0.0
220
0.0
230
1.0
  2
Plywood_90
 70
     0
 71
     0
 91
        1
 92
        2
 72
     0
 73
     1
 93
        4
 10
7.923236651641297
 20
199.0147981110986
 10
-4.076763348358714
 20
199.0147981110986
 10
-4.076763348358714
 20
-62.12824278345508
 10
7.923236651641297
 20
-68.26731101290395
 97
        0
 75
     0
 76
     2
 52
0.0
 41
1.0
 77
     0
 78
     1
 53
90.0
 43
0.0
 44
0.0
 45
-2.0
 46
0.0
 79
     0
 98
        0
  0
HATCH
  5
3F
330
1F
100
AcDbEntity
  8
chh-09_Pen_No__9_Pen_No__2
  6
Continuous
100
AcDbHatch
 10
0.0
 20
0.0
 30
0.0
210
0.0
220
0.0
230
1.0
  2
SOLID
 70
     1
 71
     0
 91
        1
 92
        2
 72
     0
 73
     1
 93
        3
 10
15.65074392455212
 20
180.7607106958948
 10
15.65074392455257
 20
183.5607094935421
 10
7.250747531611701
 20
182.1607100947205
 97
        0
 75
     0
 76
     1
 98
        0
  0
HATCH
  5
41
330
1F
100
AcDbEntity
  8
chh-09_Pen_No__9_Pen_No__2
  6
Continuous
100
AcDbHatch
 10
0.0
 20
0.0
 30
0.0
210
0.0
220
0.0
230
1.0
  2
SOLID
 70
     1
 71
     0
 91
        1
 92
        2
 72
     0
 73
     1
 93
        3
 10
-11.56663408728442
 20
95.06183413373704
 10
-11.56663408728398
 20
97.86183293138428
 10
-19.9666304802244
 20
96.46183353256265
 97
        0
 75
     0
 76
     1
 98
        0
  0
HATCH
  5
42
330
1F
100
AcDbEntity
  8
chh-09_Pen_No__9_Pen_No__2
  6
Continuous
100
AcDbHatch
 10
0.0
 20
0.0
 30
0.0
210
0.0
220
0.0
230
1.0
  2
SOLID
 70
     1
 71
     0
 91
        1
 92
        2
 72
     0
 73
     1
 93
        3
 10
-18.88443474623225
 20
121.1181764749871
 10
-18.8844347462318
 20
123.9181752726344
 10
-27.28443113917223
 20
122.5181758738123
 97
        0
 75
     0
 76
     1
 98
        0
  0
HATCH
  5
43
330
1F
100
AcDbEntity
  8
chh-09_Pen_No__9_Pen_No__2
  6
Continuous
100
AcDbHatch
 10
0.0
 20
0.0
 30
0.0
210
0.0
220
0.0
230
1.0
  2
SOLID
 70
     1
 71
     0
 91
        1
 92
        2
 72
     0
 73
     1
 93
        3
 10
-49.04910814895169
 20
44.22047035862331
 10
-51.84910694659894
 20
44.22047035862376
 10
-50.4491075477771
 20
35.82047396568289
 97
        0
 75
     0
 76
     1
 98
        0
  0
HATCH
  5
44
330
1F
100
AcDbEntity
  8
chh-09_Pen_No__9_Pen_No__2
  6
Continuous
100
AcDbHatch
 10
0.0
 20
0.0
 30
0.0
210
0.0
220
0.0
230
1.0
  2
SOLID
 70
     1
 71
     0
 91
        1
 92
        2
 72
     0
 73
     1
 93
        3
 10
-7.987912872885916
 20
-10.82249263357937
 10
-7.987912872885472
 20
-8.022493835932565
 10
-16.38790926582567
 20
-9.422493234754192
 97
        0
 75
     0
 76
     1
 98
        0
  0
HATCH
  5
45
330
1F
100
AcDbEntity
  8
chh-09_Pen_No__9_Pen_No__2
  6
Continuous
100
AcDbHatch
 10
0.0
 20
0.0
 30
0.0
210
0.0
220
0.0
230
1.0
  2
SOLID
 70
     1
 71
     0
 91
        1
 92
        2
 72
     0
 73
     1
 93
        3
 10
-66.05756726704115
 20
-137.1463863731011
 10
-67.45756666586655
 20
-128.7463899801615
 10
-68.8575660646884
 20
-137.146386373102
 97
        0
 75
     0
 76
     1
 98
        0
  0
HATCH
  5
46
330
1F
100
AcDbEntity
  8
chh-09_Pen_No__9_Pen_No__2
  6
Continuous
100
AcDbHatch
 10
0.0
 20
0.0
 30
0.0
210
0.0
220
0.0
230
1.0
  2
SOLID
 70
     1
 71
     0
 91
        1
 92
        2
 72
     0
 73
     1
 93
        3
 10
-107.4049037272697
 20
-110.9441937823084
 10
-108.8049031260949
 20
-102.5441973893684
 10
-110.204902524917
 20
-110.9441937823088
 97
        0
 75
     0
 76
     1
 98
        0
  0
HATCH
  5
47
330
1F
100
AcDbEntity
  8
chh-09_Pen_No__9_Pen_No__2
  6
Continuous
100
AcDbHatch
 10
0.0
 20
0.0
 30
0.0
210
0.0
220
0.0
230
1.0
  2
SOLID
 70
     1
 71
     0
 91
        1
 92
        2
 72
     0
 73
     1
 93
        3
 10
-17.60114084541109
 20
17.23575704800329
 10
-19.58103898254105
 20
19.21565518513368
 10
-24.5307843253677
 20
12.28601170517951
 97
        0
 75
     0
 76
     1
 98
        0
  0
HATCH
  5
48
330
1F
100
AcDbEntity
  8
chh-09_Pen_No__9_Pen_No__2
  6
Continuous
100
AcDbHatch
 10
0.0
 20
0.0
 30
0.0
210
0.0
220
0.0
230
1.0
  2
SOLID
 70
     1
 71
     0
 91
        1
 92
        2
 72
     0
 73
     1
 93
        3
 10
4.945914030261456
 20
-85.00981128645168
 10
3.545914631436053
 20
-76.60981489351127
 10
2.145915232614204
 20
-85.00981128645168
 97
        0
 75
     0
 76
     1
 98
        0
  0
HATCH
  5
49
330
1F
100
AcDbEntity
  8
Documentation_ Floor_Pen_No__18
  6
Continuous
100
AcDbHatch
 10
0.0
 20
0.0
 30
0.0
210
0.0
220
0.0
230
1.0
  2
Thermal_Block
 70
     0
 71
     1
 91
        1
 92
        2
 72
     0
 73
     1
 93
        8
 10
-144.4333487858871
 20
-108.1373148469469
 10
-144.4333487858871
 20
-127.8471620246027
 10
-38.39746409504152
 20
-127.8471620246027
 10
-38.39746409504152
 20
-108.3471048733804
 10
-119.6781818327019
 20
-108.3471048733804
 10
-119.6781818327019
 20
-117.1634787686815
 10
-132.4753445307089
 20
-117.1634787686815
 10
-132.4753445580114
 20
-108.1373148469469
 97
        1
330
4C
 75
     0
 76
     2
 52
0.0
 41
1.0
 77
     0
 78
     1
 53
44.99999999999999
 43
0.0
 44
0.0
 45
-1.272792172418306
 46
1.272792172418307
 79
     0
 98
        0
  0
LWPOLYLINE
  5
4C
102
{ACAD_REACTORS
330
49
102
}
330
1F
100
AcDbEntity
  8
Documentation_ Floor_Pen_No__1
  6
Continuous
100
AcDbPolyline
 90
        8
 70
   129
 43
0.0
 10
-144.4333487858871
 20
-108.1373148469469
 10
-144.4333487858871
 20
-127.8471620246027
 10
-38.39746409504152
 20
-127.8471620246027
 10
-38.39746409504152
 20
-108.3471048733804
 10
-119.6781818327019
 20
-108.3471048733804
 10
-119.6781818327019
 20
-117.1634787686815
 10
-132.4753445307089
 20
-117.1634787686815
 10
-132.4753445580114
 20
-108.1373148469469
  0
LINE
  5
4D
330
1F
100
AcDbEntity
  8
chh-08_Pen_No__8_Pen_No__250
  6
Continuous
100
AcDbLine
 10
-119.0767633483583
 20
39.15289560519541
 30
0.0
 11
-119.0767633483583
 21
199.0006310915211
 31
0.0
  0
LINE
  5
4F
330
1F
100
AcDbEntity
  8
chh-08_Pen_No__8_Pen_No__1
  6
Continuous
100
AcDbLine
 10
-29.07676334835885
 20
39.15289560519541
 30
0.0
 11
-29.07676334835885
 21
199.0006310915211
 31
0.0
  0
LINE
  5
51
330
1F
100
AcDbEntity
  8
chh-08_Pen_No__8_Pen_No__81
  6
Continuous
100
AcDbLine
 10
-119.0767633483583
 20
39.15289560519541
 30
0.0
 11
-74.07676334835855
 21
-100.8471043948047
 31
0.0
  0
LINE
  5
52
330
1F
100
AcDbEntity
  8
chh-08_Pen_No__8_Pen_No__81
  6
Continuous
100
AcDbLine
 10
-119.0767633483583
 20
-100.8471043948047
 30
0.0
 11
-74.07676334835855
 21
39.15289560519541
 31
0.0
  0
LINE
  5
53
330
1F
100
AcDbEntity
  8
chh-08_Pen_No__8_Pen_No__81
  6
Continuous
100
AcDbLine
 10
-144.4333487858871
 20
-127.8471620246027
 30
0.0
 11
-144.4333487858871
 21
-282.4934913846589
 31
0.0
  0
LINE
  5
54
330
1F
100
AcDbEntity
  8
chh-08_Pen_No__8_Pen_No__81
  6
Continuous
100
AcDbLine
 10
-96.57676334835853
 20
-103.8471043948039
 30
0.0
 11
-51.57676334835859
 21
-107.3471043948042
 31
0.0
  0
LINE
  5
55
330
1F
100
AcDbEntity
  8
chh-08_Pen_No__8_Pen_No__81
  6
Continuous
100
AcDbLine
 10
-74.07676334835855
 20
39.15289560519541
 30
0.0
 11
-29.07676334835885
 21
-100.8471043948047
 31
0.0
  0
LINE
  5
56
330
1F
100
AcDbEntity
  8
chh-08_Pen_No__8_Pen_No__81
  6
Continuous
100
AcDbLine
 10
-74.07676334835855
 20
-100.8471043948047
 30
0.0
 11
-29.07676334835885
 21
39.15289560519541
 31
0.0
  0
LINE
  5
57
330
1F
100
AcDbEntity
  8
chh-08_Pen_No__8_Pen_No__1
  6
Continuous
100
AcDbLine
 10
-19.77041139663083
 20
12.84745198203385
 30
0.0
 11
-4.076763348358714
 21
12.84745198203385
 31
0.0
  0
LINE
  5
58
330
1F
100
AcDbEntity
  8
chh-08_Pen_No__8_Pen_No__1
  6
Continuous
100
AcDbLine
 10
-19.77041139663083
 20
12.84745198203385
 30
0.0
 11
-19.77041139663083
 21
199.0147981110986
 31
0.0
  0
LINE
  5
59
330
1F
100
AcDbEntity
  8
chh-07_Pen_No__7_Pen_No__7
  6
Continuous
100
AcDbLine
 10
-12.88477441946689
 20
-144.9453898731159
 30
0.0
 11
-12.88477441946689
 21
-135.7868468042738
 31
0.0
  0
LINE
  5
5B
330
1F
100
AcDbEntity
  8
chh-07_Pen_No__7_Pen_No__7
  6
Continuous
100
AcDbLine
 10
-18.88477414797251
 20
-141.6092882737168
 30
0.0
 11
-18.88477414797251
 21
-132.5766358309268
 31
0.0
  0
LINE
  5
5C
330
1F
100
AcDbEntity
  8
chh-07_Pen_No__7_Pen_No__7
  6
Continuous
100
AcDbLine
 10
-10.59746535296568
 20
-143.7482554861469
 30
0.0
 11
-12.88477441946689
 21
-144.9040091358209
 31
0.0
  0
LINE
  5
5D
330
1F
100
AcDbEntity
  8
chh-06_Pen_No__7_Pen_No__7
  6
Continuous
100
AcDbLine
 10
7.923236651641297
 20
-68.26731101290395
 30
0.0
 11
7.923236651641297
 21
199.0147981110986
 31
0.0
  0
LINE
  5
5F
330
1F
100
AcDbEntity
  8
chh-06_Pen_No__7_Pen_No__7
  6
Continuous
100
AcDbLine
 10
-4.076763348358714
 20
199.0147981110986
 30
0.0
 11
-4.076763348358714
 21
-62.12824278345508
 31
0.0
  0
LINE
  5
60
330
1F
100
AcDbEntity
  8
chh-06_Pen_No__7_Pen_No__7
  6
Continuous
100
AcDbLine
 10
7.923236651641297
 20
-68.26731101290395
 30
0.0
 11
-4.076763348358714
 21
-62.12824278345508
 31
0.0
  0
LWPOLYLINE
  5
62
330
1F
100
AcDbEntity
  8
chh-08_Pen_No__8_Pen_No__1
  6
DASHEDX2
100
AcDbPolyline
 90
        3
 70
   128
 43
0.0
 10
-28.07676334835874
 20
199.0147981110986
 10
-28.07676334835874
 20
-101.8471043948041
 10
-120.0767633483584
 20
-101.8471043948041
  0
LWPOLYLINE
  5
63
330
1F
100
AcDbEntity
  8
chh-08_Pen_No__8_Pen_No__1
  6
DASHEDX2
100
AcDbPolyline
 90
        3
 70
   128
 43
0.0
 10
-27.07676334835885
 20
-52.84710439480422
 10
-27.07676334835885
 20
-102.8471043948045
 10
-120.0767633483584
 20
-102.8471043948045
  0
LWPOLYLINE
  5
64
330
1F
100
AcDbEntity
  8
chh-08_Pen_No__8_Pen_No__81
  6
Continuous
100
AcDbPolyline
 90
        6
 70
   128
 43
0.0
 10
32.19443818187018
 20
199.0147981110986
 10
-46.0387354255618
 20
199.0147981110986
 10
-46.0387354255618
 20
208.828451515537
 10
-52.58117102852067
 20
189.2011447066602
 10
-52.58117102852067
 20
199.0147981110986
 10
-136.5629796839316
 20
199.0147981110986
  0
LWPOLYLINE
  5
65
330
1F
100
AcDbEntity
  8
chh-08_Pen_No__8_Pen_No__81
  6
Continuous
100
AcDbPolyline
 90
        6
 70
   128
 43
0.0
 10
32.19443818187018
 20
-282.4934913846589
 10
-46.0387354255618
 20
-282.4934913846589
 10
-46.0387354255618
 20
-292.3071447890973
 10
-52.58117102852067
 20
-272.67983798022
 10
-52.58117102852067
 20
-282.4934913846589
 10
-161.873296841472
 20
-282.4934913846589
  0
LWPOLYLINE
  5
66
330
1F
100
AcDbEntity
  8
chh-08_Pen_No__8_Pen_No__7
  6
Continuous
100
AcDbPolyline
 90
        2
 70
   128
 43
0.0
 10
-12.88477414800071
 20
-282.4934913846589
 10
-12.88477414800071
 20
-129.7070966092137
  0
LWPOLYLINE
  5
68
330
1F
100
AcDbEntity
  8
chh-08_Pen_No__8_Pen_No__7
  6
Continuous
100
AcDbPolyline
 90
        2
 70
   128
 43
0.0
 10
-18.88477414797251
 20
-282.4934913846589
 10
-18.88477414797251
 20
-129.7070966092137
  0
LWPOLYLINE
  5
69
330
1F
100
AcDbEntity
  8
chh-08_Pen_No__8_Pen_No__81
  6
Continuous
100
AcDbPolyline
 90
        2
 70
   128
 43
0.0
 10
-24.0974647421035
 20
-140.7472001489309
 10
-24.0974647421035
 20
-282.4934913846589
  0
LWPOLYLINE
  5
6A
330
1F
100
AcDbEntity
  8
chh-08_Pen_No__8_Pen_No__81
  6
Continuous
100
AcDbPolyline
 90
        2
 70
   128
 43
0.0
 10
-41.69746403778119
 20
-129.2471661544266
 10
-41.69746389375018
 20
-282.4934913846589
  0
LWPOLYLINE
  5
6B
330
1F
100
AcDbEntity
  8
chh-08_Pen_No__8_Pen_No__81
  6
Continuous
100
AcDbPolyline
 90
        2
 70
   128
 43
0.0
 10
17.84395471608691
 20
-102.5441435199341
 10
17.84395471608691
 20
-282.4934913846589
  0
LWPOLYLINE
  5
6C
330
1F
100
AcDbEntity
  8
chh-08_Pen_No__8_Pen_No__81
  6
Continuous
100
AcDbPolyline
 90
        2
 70
   128
 43
0.0
 10
9.891491949928
 20
-123.759238181294
 10
9.891491949928666
 20
-282.4934913846589
  0
LWPOLYLINE
  5
6D
330
1F
100
AcDbEntity
  8
chh-08_Pen_No__8_Pen_No__1
  6
Continuous
100
AcDbPolyline
 90
        2
 70
   128
 43
0.0
 10
-17.88477414797263
 20
-282.4934913846589
 10
-17.88477414797263
 20
-129.7070966092137
  0
LWPOLYLINE
  5
6E
330
1F
100
AcDbEntity
  8
chh-08_Pen_No__8_Pen_No__1
  6
Continuous
100
AcDbPolyline
 90
        2
 70
   128
 43
0.0
 10
-16.88477414797251
 20
-282.4934913846589
 10
-16.88477414797251
 20
-129.7070966092137
  0
LWPOLYLINE
  5
6F
330
1F
100
AcDbEntity
  8
chh-08_Pen_No__8_Pen_No__1
  6
Continuous
100
AcDbPolyline
 90
        2
 70
   128
 43
0.0
 10
-15.88477414797262
 20
-282.4934913846589
 10
-15.88477414797262
 20
-129.7070966092137
  0
LWPOLYLINE
  5
70
330
1F
100
AcDbEntity
  8
chh-08_Pen_No__8_Pen_No__1
  6
Continuous
100
AcDbPolyline
 90
        2
 70
   128
 43
0.0
 10
-14.88477414797251
 20
-282.4934913846589
 10
-14.88477414797251
 20
-129.7070966092137
  0
LWPOLYLINE
  5
71
330
1F
100
AcDbEntity
  8
chh-08_Pen_No__8_Pen_No__1
  6
Continuous
100
AcDbPolyline
 90
        2
 70
   128
 43
0.0
 10
-13.88477414797262
 20
-282.4934913846589
 10
-13.88477414797262
 20
-129.7070966092137
  0
LWPOLYLINE
  5
72
330
1F
100
AcDbEntity
  8
chh-08_Pen_No__8_Pen_No__81
  6
Continuous
100
AcDbPolyline
 90
        2
 70
   128
 43
0.0
 10
-18.77041139663049
 20
-37.26432265885826
 10
-6.076763348358716
 20
7.735677341141667
  0
LWPOLYLINE
  5
73
330
1F
100
AcDbEntity
  8
chh-08_Pen_No__8_Pen_No__7
  6
DASHEDX2
100
AcDbPolyline
 90
        6
 70
   128
 43
0.0
 10
-25.41928263846005
 20
19.52414638275179
 10
-25.41928263846005
 20
-3.731294194238455
 42
0.1731317700964257
 10
-24.51511183527355
 20
-6.264245355267484
 10
-22.94351335472511
 20
-8.185087942604419
 42
-0.1731317700964257
 10
-22.03934255153839
 20
-10.71803910363345
 10
-22.03934255153839
 20
-38.87190494526216
  0
LWPOLYLINE
  5
74
330
1F
100
AcDbEntity
  8
chh-07_Pen_No__7_Pen_No__7
  6
Continuous
100
AcDbPolyline
 90
        4
 70
   128
 43
0.0
 10
-121.0767633483583
 20
199.0147981110986
 10
-121.0767633483583
 20
-115.7648983074355
 10
-131.0767633483583
 20
-115.7648983074355
 10
-131.0767633483583
 20
199.0147981110986
  0
LWPOLYLINE
  5
75
330
1F
100
AcDbEntity
  8
chh-05_Pen_No__7_Pen_No__7
  6
Continuous
100
AcDbPolyline
 90
        4
 70
   129
 43
0.0
 10
-119.0767633483583
 20
39.15289560519541
 10
-74.07676334835855
 20
39.15289560519541
 10
-74.07676334835855
 20
-100.8471043948047
 10
-119.0767633483583
 20
-100.8471043948047
  0
LWPOLYLINE
  5
77
330
1F
100
AcDbEntity
  8
chh-06_Pen_No__7_Pen_No__7
  6
Continuous
100
AcDbPolyline
 90
        8
 70
   129
 43
0.0
 10
-38.39746409504152
 20
-108.3471043948041
 10
-119.6781821387054
 20
-108.3471043948041
 10
-119.6781821387054
 20
-117.1634795170888
 10
-132.4753445580114
 20
-117.1634795170888
 10
-132.4753445580114
 20
-108.1373148469469
 10
-144.4333487858871
 20
-108.1373148469469
 10
-144.4333487858871
 20
-127.8471620246027
 10
-38.39746409504152
 20
-127.8471620246027
  0
LWPOLYLINE
  5
78
330
1F
100
AcDbEntity
  8
chh-07_Pen_No__7_Pen_No__7
  6
Continuous
100
AcDbPolyline
 90
       39
 70
   129
 43
0.0
 10
-10.59746535296568
 20
-136.9426004539482
 42
-0.4142135623730906
 10
-10.09746537558986
 20
-136.4425989762612
 10
-8.49746544798835
 20
-136.4425989762612
 42
-0.4142135623730971
 10
-7.497465493237598
 20
-137.4426019316353
 10
-7.497465493237598
 20
-138.2062080853705
 42
0.6681786379193054
 10
-6.64391214186022
 20
-138.5597625212531
 10
-0.9788502331988802
 20
-132.8946836138742
 42
0.414213562373095
 10
-0.9788502331988802
 20
-131.4804658723441
 10
-9.697465393689875
 20
-122.7618245505715
 10
-9.697465393689875
 20
-119.9476026705177
 10
-7.397465497762878
 20
-119.9476026705177
 42
-0.9999999999999999
 10
-7.397465497762878
 20
-120.9476056258918
 10
-8.597465443463514
 20
-120.9476056258918
 10
-8.597465443463514
 20
-122.4476100589533
 10
-0.1303221345938521
 20
-130.9147787755318
 42
0.4142135623720841
 10
1.283891364414202
 20
-130.9147787755318
 10
8.591492008752422
 20
-123.6071562038354
 10
8.591492008752422
 20
-121.947144587895
 10
9.891491949928
 20
-121.947144587895
 10
9.891491949928
 20
-123.759238181294
 42
-0.1989123673791421
 10
9.818268648241979
 20
-123.9360153987352
 10
-10.17068867727677
 20
-143.9250327035877
 42
-0.6681786379199417
 10
-10.59746535296568
 20
-143.7482554861469
 10
-10.59746535296568
 20
-140.3926100589148
 42
-0.414213562373095
 10
-10.39746535296526
 20
-140.1926100589144
 10
-9.797465398214689
 20
-140.1926100589144
 42
-0.4142135623730981
 10
-9.597465398214267
 20
-140.3926100589148
 10
-9.597465398214267
 20
-140.7426122754449
 42
0.4142135623730981
 10
-9.39746539821451
 20
-140.9426122754454
 10
-8.79746544346327
 20
-140.9426122754454
 42
0.4142135623730981
 10
-8.597465443463514
 20
-140.7426122754449
 10
-8.597465443463514
 20
-137.6426019316348
 42
0.4142135623730981
 10
-8.79746544346327
 20
-137.4426019316353
 10
-9.39746539821451
 20
-137.4426019316353
 42
0.414213562373095
 10
-9.597465398214267
 20
-137.6426019316348
 10
-9.597465398214267
 20
-137.9926041481658
 42
-0.4142135623730981
 10
-9.797465398214689
 20
-138.1926041481663
 10
-10.39746535296526
 20
-138.1926041481663
 42
-0.414213562373095
 10
-10.59746535296568
 20
-137.9926041481658
  0
LWPOLYLINE
  5
79
330
1F
100
AcDbEntity
  8
chh-07_Pen_No__7_Pen_No__7
  6
Continuous
100
AcDbPolyline
 90
      117
 70
   129
 43
0.0
 10
-22.69746480545165
 20
-121.947144587895
 10
-17.99746501812249
 20
-121.947144587895
 10
-17.59746503622228
 20
-121.5471434057447
 10
-17.19746505432163
 20
-121.947144587895
 10
-13.79746520816849
 20
-121.947144587895
 42
0.414213562373095
 10
-12.19746528056698
 20
-120.3471398592959
 10
-12.19746528056698
 20
-118.697134982928
 42
-0.414213562373095
 10
-11.99746528961665
 20
-118.4971343918533
 10
-6.797465524911894
 20
-118.4971343918533
 42
-0.414213562373095
 10
-6.597465533961788
 20
-118.697134982928
 10
-6.597465533961788
 20
-120.19713941599
 42
-0.414213562373095
 10
-7.347465500024963
 20
-120.9471416325201
 10
-8.097465466088138
 20
-120.9471416325201
 42
0.9999999999999999
 10
-8.097465466088138
 20
-121.947144587895
 10
-7.047465513599915
 20
-121.947144587895
 42
0.4142135623730953
 10
-5.297465592785544
 20
-120.19713941599
 10
-5.297465592785544
 20
-112.1478358653554
 42
-0.4142135623730951
 10
-4.797465615410168
 20
-111.6478343876683
 10
4.002533986398271
 20
-111.6478343876683
 10
4.402533968298483
 20
-111.2478332055184
 10
4.802533950198695
 20
-111.6478343876683
 10
9.102533755628306
 20
-111.6478343876683
 42
-0.4142135623730929
 10
9.60253373300346
 20
-112.1478358653554
 10
9.60253373300346
 20
-119.1471363128467
 42
-0.414213562373095
 10
8.10253380087711
 20
-120.6471407459087
 10
6.202533886850325
 20
-120.6471407459087
 10
6.202533886850325
 20
-121.947144587895
 10
10.70253368322938
 20
-121.947144587895
 42
0.4142135623731003
 10
10.90253367417926
 20
-121.7471439968199
 10
10.90253367417926
 20
-121.3758428994893
 42
0.3540065780508911
 10
10.30875948904764
 20
-120.6422921625787
 42
-0.8165383495623837
 10
10.31209489589635
 20
-120.2512698599651
 42
0.3527272744047666
 10
10.90253367417926
 20
-119.5184374101772
 10
10.90253367417926
 20
-109.4855853914325
 10
17.84395471608691
 20
-102.5441435199341
 42
0.1989123673796518
 10
17.9025333574363
 20
-102.4027217459818
 10
17.9025333574363
 20
-87.37573141673138
 42
0.3540065780490233
 10
17.30875917230424
 20
-86.64218067982077
 42
-0.802412668340081
 10
17.30543265145435
 20
-86.25257724740054
 42
0.3552822646110098
 10
17.9025333574363
 20
-85.51832592741971
 10
17.9025333574363
 20
-85.44703671673392
 42
0.4142135623730929
 10
17.40253338006092
 20
-84.9470352390469
 10
12.10253361988123
 20
-84.9470352390469
 42
0.4142135623730929
 10
11.60253364250541
 20
-85.44703671673392
 10
11.60253364250541
 20
-87.94704410617004
 42
0.170789980324188
 10
12.26347423159813
 20
-89.82556002787057
 42
1.001712213723718
 10
13.41501608949236
 20
-88.90382656181117
 42
-2.088541095513009
 10
15.79101183998044
 20
-88.90263267828314
 42
0.6282387237222236
 10
16.37752342644205
 20
-90.12008052728682
 10
16.60253341626006
 20
-90.12008052728682
 10
16.60253341626006
 20
-101.9470854804094
 10
10.01258422044926
 20
-108.537054450176
 42
0.1989123673796139
 10
9.60253373300346
 20
-109.5270068698477
 10
9.60253373300346
 20
-109.807235824027
 42
-0.4382240493440153
 10
9.104184281553795
 20
-110.347830545682
 10
-4.797465615410168
 20
-110.347830545682
 42
0.414213562373095
 10
-6.597465533961788
 20
-112.1478358653554
 10
-6.597465533961788
 20
-116.6971290721799
 42
-0.414213562373095
 10
-7.097465511336942
 20
-117.1971305498669
 10
-11.99746528961665
 20
-117.1971305498669
 42
0.4142135623730951
 10
-13.49746522174344
 20
-118.697134982928
 10
-13.49746522174344
 20
-120.3471398592959
 42
-0.414213562373095
 10
-13.69746521269377
 20
-120.5471404503706
 10
-23.59746476472813
 20
-120.5471404503706
 42
0.4142135623730951
 10
-24.0974647421035
 20
-121.0471419280577
 42
-0.414213562373095
 10
-24.59746471947843
 20
-121.5471434057447
 10
-31.57756517963573
 20
-121.5471434057447
 42
0.5559838018688548
 10
-32.62465881025545
 20
-121.1965674926647
 42
-2.126832288846482
 10
-32.62465900925559
 20
-118.8477101409333
 42
0.5559839317553018
 10
-31.57756517963573
 20
-118.4971343918533
 10
-30.34746445929648
 20
-118.4971343918533
 42
0.414213562373095
 10
-30.09746447060891
 20
-118.2471336530098
 10
-30.09746447060891
 20
-117.4471312887104
 42
0.414213562373095
 10
-30.34746445929648
 20
-117.1971305498669
 10
-37.0974641538655
 20
-117.1971305498669
 10
-37.0974641538655
 20
-108.6471052814169
 42
0.414213562373095
 10
-38.39746409504152
 20
-107.34710143943
 10
-45.49746377377373
 20
-107.34710143943
 10
-45.89746375567394
 20
-106.9471002572806
 10
-47.69746067422553
 20
-106.9471002572806
 42
0.9999999999999999
 10
-47.69746067422553
 20
-108.3471043948045
 10
-38.39746409504152
 20
-108.3471043948045
 10
-38.39746409504152
 20
-117.1971305498669
 42
0.414213562373095
 10
-37.0974641538655
 20
-118.4971343918533
 10
-36.39567790162035
 20
-118.4971343918533
 42
-0.5457627997595207
 10
-36.16818086191454
 20
-118.8507939740466
 42
0.2512837206931914
 10
-35.9951442727442
 20
-121.5160493638505
 42
-0.4926301428361715
 10
-36.13414978245455
 20
-121.8873045280455
 42
0.3296512596499983
 10
-38.39746409504152
 20
-124.9471534540172
 10
-38.39746409504152
 20
-127.8471620246027
 10
-41.69746394571949
 20
-127.8471620246027
 42
1.04474883251493
 10
-41.63627460248831
 20
-129.2444866432079
 10
-38.20130941691735
 20
-128.9430701364118
 42
0.388804307970108
 10
-37.19746414934022
 20
-127.8472775589448
 10
-37.19746414934022
 20
-124.9471534540172
 42
-0.414213562373095
 10
-35.19746423983827
 20
-122.9471475432691
 10
-25.09746469685425
 20
-122.9471475432691
 42
-0.414213562373095
 10
-24.0974647421035
 20
-123.947150498644
 10
-24.0974647421035
 20
-140.7472001489309
 42
0.414213562373095
 10
-23.89746475115317
 20
-140.9472007400057
 10
-20.79746489142509
 20
-140.9472007400057
 42
0.4142135623730898
 10
-20.5974649004752
 20
-140.7472001489309
 10
-20.5974649004752
 20
-138.8971946814888
 42
0.9999999999999999
 10
-21.59746485522551
 20
-138.8971946814888
 10
-21.59746485522551
 20
-139.6471968980188
 10
-23.09746478735231
 20
-139.6471968980188
 10
-23.09746478735231
 20
-134.1471806434606
 10
-21.59746485522551
 20
-134.1471806434606
 10
-21.59746485522551
 20
-134.8971828599916
 42
0.9999999999999999
 10
-20.5974649004752
 20
-134.8971828599916
 10
-20.5974649004752
 20
-133.8471797568488
 42
0.414213562373094
 10
-21.59746485522551
 20
-132.8471768014743
 10
-22.79746480092681
 20
-132.8471768014743
 10
-22.79746480092681
 20
-129.4471667532022
 10
-21.09746487785058
 20
-129.4471667532022
 42
0.9999999999999999
 10
-21.09746487785058
 20
-128.4471637978273
 10
-22.69746480545165
 20
-128.4471637978273
  0
LWPOLYLINE
  5
7A
330
1F
100
AcDbEntity
  8
chh-07_Pen_No__7_Pen_No__7
  6
Continuous
100
AcDbPolyline
 90
        2
 70
   128
 43
0.0
 10
-18.88477414797251
 20
-129.7070966092137
 10
-12.88477414800071
 20
-129.7070966092137
  0
LWPOLYLINE
  5
7B
330
1F
100
AcDbEntity
  8
chh-07_Pen_No__7_Pen_No__7
  6
Continuous
100
AcDbPolyline
 90
       12
 70
   129
 43
0.0
 10
-18.88477414797251
 20
-132.5766358309268
 10
-20.5974649004752
 20
-133.8471797568488
 10
-20.59746490047565
 20
-134.8971828599916
 42
-0.9999999999999999
 10
-21.59746485522551
 20
-134.8971828599916
 10
-21.59746485522551
 20
-134.1471806434606
 10
-23.09746478735231
 20
-134.1471806434606
 10
-23.09746478735231
 20
-139.6471968980188
 10
-21.59746485522551
 20
-139.6471968980188
 10
-21.59746485522551
 20
-138.8971946814888
 42
-0.9999999999999999
 10
-20.59746490047565
 20
-138.8971946814888
 10
-20.5974649004752
 20
-140.7472001489309
 10
-18.88477414797251
 20
-141.6092882737168
  0
LWPOLYLINE
  5
7C
330
1F
100
AcDbEntity
  8
chh-07_Pen_No__7_Pen_No__7
  6
Continuous
100
AcDbPolyline
 90
       20
 70
   129
 43
0.0
 10
-10.59746535296568
 20
-140.3926100589148
 42
-0.4142135623730948
 10
-10.39746535296526
 20
-140.1926100589144
 10
-9.797465398214689
 20
-140.1926100589144
 42
-0.4142135623730952
 10
-9.597465398214267
 20
-140.3926100589148
 10
-9.597465398214267
 20
-140.7426122754449
 42
0.4142135623730952
 10
-9.39746539821451
 20
-140.9426122754454
 10
-8.79746544346327
 20
-140.9426122754454
 42
0.4142135623730952
 10
-8.597465443463514
 20
-140.7426122754449
 10
-8.597465443463514
 20
-137.6426019316348
 42
0.4142135623730956
 10
-8.79746544346327
 20
-137.4426019316353
 10
-9.39746539821451
 20
-137.4426019316353
 42
0.4142135623730951
 10
-9.597465398214267
 20
-137.6426019316348
 10
-9.597465398214267
 20
-137.9926041481658
 42
-0.4142135623730956
 10
-9.797465398214689
 20
-138.1926041481663
 10
-10.39746535296526
 20
-138.1926041481663
 42
-0.4142135623730951
 10
-10.59746535296568
 20
-137.9926041481658
 10
-10.59746535296568
 20
-136.9426004539482
 10
-12.88477414800071
 20
-135.7868469414427
 10
-12.88477414800071
 20
-144.904008998652
 10
-10.59746535296568
 20
-143.7482554861469
  0
LWPOLYLINE
  5
7D
330
1F
100
AcDbEntity
  8
chh-06_Pen_No__7_Pen_No__7
  6
Continuous
100
AcDbPolyline
 90
        4
 70
   129
 43
0.0
 10
-96.57676334835853
 20
-103.8471043948039
 10
-96.57676334835853
 20
-107.3471043948042
 10
-51.57676334835859
 20
-107.3471043948042
 10
-51.57676334835859
 20
-103.8471043948039
  0
LWPOLYLINE
  5
7E
330
1F
100
AcDbEntity
  8
chh-05_Pen_No__7_Pen_No__7
  6
Continuous
100
AcDbPolyline
 90
        4
 70
   129
 43
0.0
 10
-74.07676334835855
 20
39.15289560519541
 10
-29.07676334835885
 20
39.15289560519541
 10
-29.07676334835885
 20
-100.8471043948047
 10
-74.07676334835855
 20
-100.8471043948047
  0
LWPOLYLINE
  5
7F
330
1F
100
AcDbEntity
  8
chh-06_Pen_No__7_Pen_No__7
  6
Continuous
100
AcDbPolyline
 90
        4
 70
   129
 43
0.0
 10
-6.076763348358716
 20
7.735677341141667
 10
-18.77041139663049
 20
7.735677341141667
 10
-18.77041139663049
 20
-37.26432265885826
 10
-6.076763348358716
 20
-37.26432265885826
  0
LWPOLYLINE
  5
81
330
1F
100
AcDbEntity
  8
chh-07_Pen_No__7_Pen_No__7
  6
DOT
100
AcDbPolyline
 90
        3
 70
   128
 43
0.0
 10
-25.66964857082454
 20
-46.05123616777362
 10
-5.996290664607828
 20
-57.40965465079162
 10
-5.996290664607828
 20
-70.13235035434428
  0
LWPOLYLINE
  5
82
330
1F
100
AcDbEntity
  8
chh-07_Pen_No__7_Pen_No__7
  6
Continuous
100
AcDbPolyline
 90
        6
 70
   128
 43
0.0
 10
-20.46813102025169
 20
40.36850641673428
 10
-20.46813102025169
 20
-51.5488493044014
 42
0.414213562373095
 10
-18.46813102025169
 20
-53.54884930440163
 10
-7.747548547660577
 20
-53.54884930440163
 42
0.414213562373095
 10
-5.747548547660575
 20
-51.5488493044014
 10
-5.747548547660575
 20
-38.5488493044015
  0
LWPOLYLINE
  5
83
330
1F
100
AcDbEntity
  8
chh-07_Pen_No__7_Pen_No__7
  6
Continuous
100
AcDbPolyline
 90
       12
 70
   128
 43
0.0
 10
-24.13592595569813
 20
-18.17963991934413
 10
-24.13592595569813
 20
-10.47432052726904
 42
0.414213562373095
 10
-24.63592595569786
 20
-9.974320527268432
 10
-25.1696485708246
 20
-9.974320527268432
 42
0.414213562373095
 10
-25.66964857082454
 20
-10.47432052726904
 10
-25.66964857082454
 20
-59.76256103317867
 42
0.2679491924311233
 10
-25.41964857082468
 20
-60.19557373507123
 10
20.19992217728461
 20
-83.5340451868074
 42
-0.2679491924311235
 10
20.4499221772847
 20
-83.96705788869951
 10
20.4499221772847
 20
-91.94703523904657
 42
0.1989123673796581
 10
20.59636878669124
 20
-92.30058862963998
 10
23.24281539609818
 20
-94.94703523904668
  0
LWPOLYLINE
  5
84
330
1F
100
AcDbEntity
  8
chh-09_Pen_No__9_Pen_No__2
  6
Continuous
100
AcDbPolyline
 90
        2
 70
   128
 43
0.0
 10
122.3598375255246
 20
182.1607100947187
 10
15.65074392455235
 20
182.1607100947187
  0
LWPOLYLINE
  5
85
330
1F
100
AcDbEntity
  8
chh-09_Pen_No__9_Pen_No__2
  6
Continuous
100
AcDbPolyline
 90
        2
 70
   128
 43
0.0
 10
122.3598375255246
 20
96.46183353256089
 10
-11.56663408728442
 20
96.46183353256089
  0
LWPOLYLINE
  5
86
330
1F
100
AcDbEntity
  8
chh-09_Pen_No__9_Pen_No__2
  6
Continuous
100
AcDbPolyline
 90
        2
 70
   128
 43
0.0
 10
122.3598375255246
 20
122.518175873811
 10
-18.88443474623225
 20
122.518175873811
  0
LWPOLYLINE
  5
87
330
1F
100
AcDbEntity
  8
chh-09_Pen_No__9_Pen_No__2
  6
Continuous
100
AcDbPolyline
 90
        3
 70
   128
 43
0.0
 10
122.3598375255246
 20
70.61963942738281
 10
-50.44910754777532
 20
70.61963942738281
 10
-50.44910754777532
 20
44.22047035862331
  0
LWPOLYLINE
  5
88
330
1F
100
AcDbEntity
  8
chh-09_Pen_No__9_Pen_No__2
  6
Continuous
100
AcDbPolyline
 90
        2
 70
   128
 43
0.0
 10
122.3598375255246
 20
-9.422493234755969
 10
-7.987912872885694
 20
-9.422493234755969
  0
LWPOLYLINE
  5
8A
330
1F
100
AcDbEntity
  8
chh-txt_Pen_No__7_Pen_No__7
  6
Hidden
100
AcDbPolyline
 90
        9
 70
   128
 43
0.0
 10
7.923236651641297
 20
-26.48955767095007
 10
6.580209714750707
 20
-26.48955767095007
 10
6.162735340760728
 20
-25.48955767094974
 10
-46.01706134334882
 20
-25.48955767094174
 10
-50.52949195285095
 20
-23.99852140334469
 10
-46.01706134334837
 20
-22.50748513567569
 10
6.162735340761172
 20
-22.50748513568412
 10
6.58020971475981
 20
-21.50748513568423
 10
7.923236651650845
 20
-21.50748513568423
  0
LWPOLYLINE
  5
8C
330
1F
100
AcDbEntity
  8
chh-09_Pen_No__9_Pen_No__2
  6
Continuous
100
AcDbPolyline
 90
        3
 70
   128
 43
0.0
 10
122.3598375255246
 20
-235.8926822758689
 10
-67.45756666586477
 20
-235.8926822758689
 10
-67.45756666586477
 20
-137.1463863731015
  0
LWPOLYLINE
  5
8D
330
1F
100
AcDbEntity
  8
chh-09_Pen_No__9_Pen_No__2
  6
Continuous
100
AcDbPolyline
 90
        3
 70
   128
 43
0.0
 10
122.3598375255246
 20
-267.3576863542015
 10
-108.8049031260934
 20
-267.3576863542015
 10
-108.8049031260934
 20
-110.9441937823084
  0
LWPOLYLINE
  5
8E
330
1F
100
AcDbEntity
  8
chh-09_Pen_No__9_Pen_No__2
  6
Continuous
100
AcDbPolyline
 90
        3
 70
   128
 43
0.0
 10
122.0079436489545
 20
33.86200991782439
 10
-2.954786112719487
 20
33.86200991782439
 10
-18.59108991397584
 20
18.22570611656849
  0
LWPOLYLINE
  5
8F
330
1F
100
AcDbEntity
  8
chh-09_Pen_No__9_Pen_No__2
  6
Continuous
100
AcDbPolyline
 90
        3
 70
   128
 43
0.0
 10
122.3598375255246
 20
-153.5104667710297
 10
3.54591463143783
 20
-153.5104667710297
 10
3.54591463143783
 20
-85.00981128645168
  0
ELLIPSE
  5
90
330
1F
100
AcDbEntity
  8
chh-08_Pen_No__8_Pen_No__1
  6
Hidden
100
AcDbEllipse
 10
-109.4627879203527
 20
-104.6221009472639
 30
0.0
 11
5.138801794138725
 21
0.0
 31
0.0
210
0.0
220
0.0
230
1.0
 40
0.6241134751773082
 41
0.0
 42
6.283185307179586
  0
DIMENSION
  5
C1
330
1F
100
AcDbEntity
  8
chh-txt
  6
Continuous
100
AcDbDimension
  2
*D1
 10
50.62555994098683
 20
-94.94703523904668
 30
0.0
 11
47.12555994098683
 21
-115.0116766227918
 31
0.0
 70
    32
  1
\A1;10mm cover
 71
     5
 42
-1.0
  3
GENERATED_STYLE__1
100
AcDbAlignedDimension
 13
34.41155032971577
 23
-94.94703523904668
 33
0.0
 14
34.41155032971577
 24
-84.9470352390469
 34
0.0
 50
90.0
100
AcDbRotatedDimension
  0
DIMENSION
  5
D4
330
1F
100
AcDbEntity
  8
chh-txt
  6
Continuous
100
AcDbDimension
  2
*D3
 10
52.45279620928282
 20
-63.17010603587558
 30
0.0
 11
48.95279620928282
 21
-38.8383313868276
 31
0.0
 70
    32
  1
\A1;50mm cover
 71
     5
 42
-1.0
  3
GENERATED_STYLE__1
100
AcDbAlignedDimension
 13
20.67036663557298
 23
-63.17010603587558
 33
0.0
 14
20.67036663557298
 24
-13.17010603587532
 34
0.0
 50
90.0
100
AcDbRotatedDimension
  0
DIMENSION
  5
E0
330
1F
100
AcDbEntity
  8
chh-txt
  6
Continuous
100
AcDbDimension
  2
*D4
 10
34.80365106802932
 20
-81.96967536191012
 30
0.0
 11
35.16848187269214
 21
-73.57180776459214
 31
0.0
 70
    32
  1
\A1;8mm
 71
     5
 42
-1.0
  3
GENERATED_STYLE__1
100
AcDbAlignedDimension
 13
24.20284828102881
 23
-76.54642106221488
 33
0.0
 14
21.3235756372816
 24
-84.09360541627997
 34
0.0
 50
-117.0937865956022
100
AcDbRotatedDimension
  0
DIMENSION
  5
EC
330
1F
100
AcDbEntity
  8
chh-txt
  6
Continuous
100
AcDbDimension
  2
*D5
 10
-181.2462493570297
 20
-108.3471043948041
 30
0.0
 11
-184.7462493570297
 21
-119.6224949820404
 31
0.0
 70
    32
  1
\A1;7.5mm
 71
     5
 42
-1.0
  3
GENERATED_STYLE__1
100
AcDbAlignedDimension
 13
-148.4293018147149
 23
-108.3471043948041
 33
0.0
 14
-147.827883024368
 24
-100.8471043948047
 34
0.0
 50
90.0
100
AcDbRotatedDimension
  0
MTEXT
  5
ED
330
1F
100
AcDbEntity
  8
Defpoints_Pen_No__211_Pen_No__115
  6
Continuous
100
AcDbMText
 10
-194.3723134475894
 20
-334.1596347078328
 30
0.0
 40
10.0
 41
0.0
 71
     7
 72
     1
  1
{SC028 Shadowclad Window Head (Cavity)}
  7
GENERATED_STYLE_1
 73
     1
 44
1.0
  0
MTEXT
  5
EF
330
1F
100
AcDbEntity
  8
chh-txt_Pen_No__7_Pen_No__7
  6
Continuous
100
AcDbMText
 10
135.9930208430486
 20
178.9300835725725
 30
0.0
 40
5.0
 41
0.0
 71
     7
 72
     1
  1
{Shadowclad }
  7
GENERATED_STYLE_1
 73
     1
 44
1.0
  0
MTEXT
  5
F0
330
1F
100
AcDbEntity
  8
chh-txt_Pen_No__7_Pen_No__7
  6
Continuous
100
AcDbMText
 10
135.9930208430486
 20
93.48456117386651
 30
0.0
 40
5.0
 41
0.0
 71
     7
 72
     1
  1
{Cavity battens}
  7
GENERATED_STYLE_1
 73
     1
 44
1.0
  0
MTEXT
  5
F1
330
1F
100
AcDbEntity
  8
chh-txt_Pen_No__7_Pen_No__7
  6
Continuous
100
AcDbMText
 10
135.9930208430486
 20
117.8624995311201
 30
0.0
 40
5.0
 41
0.0
 71
     7
 72
     1
  1
{Building underlay}
  7
GENERATED_STYLE_1
 73
     1
 44
1.0
  0
MTEXT
  5
F2
330
1F
100
AcDbEntity
  8
chh-txt_Pen_No__7_Pen_No__7
  6
Continuous
100
AcDbMText
 10
135.9930208430486
 20
68.47493323892523
 30
0.0
 40
5.0
 41
0.0
 71
     7
 72
     1
  1
{Lintel}
  7
GENERATED_STYLE_1
 73
     1
 44
1.0
  0
MTEXT
  5
F3
330
1F
100
AcDbEntity
  8
chh-txt_Pen_No__7_Pen_No__7
  6
Continuous
100
AcDbMText
 10
135.9930208430486
 20
-12.83854385306748
 30
0.0
 40
5.0
 41
0.0
 71
     7
 72
     1
  1
{Cavity spacers with 50mm min air gap on both }
  7
GENERATED_STYLE_1
 73
     1
 44
1.0
  0
MTEXT
  5
F4
330
1F
100
AcDbEntity
  8
chh-txt_Pen_No__7_Pen_No__7
  6
Continuous
100
AcDbMText
 10
135.9930208430486
 20
-22.25034385306748
 30
0.0
 40
5.0
 41
0.0
 71
     7
 72
     1
  1
{sides. 5 degree min slope (1:12). Position to }
  7
GENERATED_STYLE_1
 73
     1
 44
1.0
  0
MTEXT
  5
F5
330
1F
100
AcDbEntity
  8
chh-txt_Pen_No__7_Pen_No__7
  6
Continuous
100
AcDbMText
 10
135.9930208430486
 20
-31.66214385306748
 30
0.0
 40
5.0
 41
0.0
 71
     7
 72
     1
  1
{allow Shadowclad fixing at 150mm centres}
  7
GENERATED_STYLE_1
 73
     1
 44
1.0
  0
MTEXT
  5
F6
330
1F
100
AcDbEntity
  8
chh-txt_Pen_No__7_Pen_No__7
  6
Continuous
100
AcDbMText
 10
135.9930208430486
 20
-239.451768155396
 30
0.0
 40
5.0
 41
0.0
 71
     7
 72
     1
  1
{Interior jamb liner over timber packer}
  7
GENERATED_STYLE_1
 73
     1
 44
1.0
  0
MTEXT
  5
F7
330
1F
100
AcDbEntity
  8
chh-txt_Pen_No__7_Pen_No__7
  6
Continuous
100
AcDbMText
 10
135.9930208430486
 20
-268.7189813372821
 30
0.0
 40
5.0
 41
0.0
 71
     7
 72
     1
  1
{Fit air seal over PEF rod}
  7
GENERATED_STYLE_1
 73
     1
 44
1.0
  0
MTEXT
  5
F8
330
1F
100
AcDbEntity
  8
chh-txt_Pen_No__7_Pen_No__7
  6
Continuous
100
AcDbMText
 10
135.9930208430486
 20
-109.9908680762264
 30
0.0
 40
5.0
 41
0.0
 71
     7
 72
     1
  1
{Bevel base of Shadowclad. Treat all cut edges }
  7
GENERATED_STYLE_1
 73
     1
 44
1.0
  0
MTEXT
  5
F9
330
1F
100
AcDbEntity
  8
chh-txt_Pen_No__7_Pen_No__7
  6
Continuous
100
AcDbMText
 10
135.9930208430486
 20
-118.0067305484572
 30
0.0
 40
5.0
 41
0.0
 71
     7
 72
     1
  1
{with Holdfast Metalex Clear }
  7
GENERATED_STYLE_1
 73
     1
 44
1.0
  0
MTEXT
  5
FA
330
1F
100
AcDbEntity
  8
chh-txt_Pen_No__7_Pen_No__7
  6
Continuous
100
AcDbMText
 10
135.9930208430486
 20
30.44595929951289
 30
0.0
 40
5.0
 41
0.0
 71
     7
 72
     1
  1
{Flexible flashing tape strip placed over }
  7
GENERATED_STYLE_1
 73
     1
 44
1.0
  0
MTEXT
  5
FB
330
1F
100
AcDbEntity
  8
chh-txt_Pen_No__7_Pen_No__7
  6
Continuous
100
AcDbMText
 10
135.9930208430486
 20
21.03415929951289
 30
0.0
 40
5.0
 41
0.0
 71
     7
 72
     1
  1
{building underlay and flashing joint}
  7
GENERATED_STYLE_1
 73
     1
 44
1.0
  0
MTEXT
  5
FC
330
1F
100
AcDbEntity
  8
chh-txt_Pen_No__7_Pen_No__7
  6
Continuous
100
AcDbMText
 10
135.9930208430486
 20
-157.080222780032
 30
0.0
 40
5.0
 41
0.0
 71
     7
 72
     1
  1
{Head flashing with 15 degree slope. 15mm }
  7
GENERATED_STYLE_1
 73
     1
 44
1.0
  0
MTEXT
  5
FD
330
1F
100
AcDbEntity
  8
chh-txt_Pen_No__7_Pen_No__7
  6
Continuous
100
AcDbMText
 10
135.9930208430486
 20
-41.07394385306747
 30
0.0
 40
5.0
 41
0.0
 71
     7
 72
     1
  1
{75mm min upstand cavity base closure vent }
  7
GENERATED_STYLE_1
 73
     1
 44
1.0
  0
MTEXT
  5
FE
330
1F
100
AcDbEntity
  8
chh-txt_Pen_No__7_Pen_No__7
  6
Continuous
100
AcDbMText
 10
135.9930208430486
 20
-50.48574385306747
 30
0.0
 40
5.0
 41
0.0
 71
     7
 72
     1
  1
{strip. Position to give 15mm drip edge to cladding}
  7
GENERATED_STYLE_1
 73
     1
 44
1.0
  0
MTEXT
  5
FF
330
1F
100
AcDbEntity
  8
chh-txt_Pen_No__7_Pen_No__7
  6
Continuous
100
AcDbMText
 10
135.9930208430486
 20
-175.903822780032
 30
0.0
 40
5.0
 41
0.0
 71
     7
 72
     1
  1
{Sealant between head flashing & window flange }
  7
GENERATED_STYLE_1
 73
     1
 44
1.0
  0
MTEXT
  5
100
330
1F
100
AcDbEntity
  8
chh-txt_Pen_No__7_Pen_No__7
  6
Continuous
100
AcDbMText
 10
135.9930208430486
 20
-185.315622780032
 30
0.0
 40
5.0
 41
0.0
 71
     7
 72
     1
  1
{in very high wind zone & above}
  7
GENERATED_STYLE_1
 73
     1
 44
1.0
  0
MTEXT
  5
101
330
1F
100
AcDbEntity
  8
chh-txt_Pen_No__7_Pen_No__7
  6
Continuous
100
AcDbMText
 10
135.9930208430486
 20
-166.492022780032
 30
0.0
 40
5.0
 41
0.0
 71
     7
 72
     1
  1
{high stop ends within cavity}
  7
GENERATED_STYLE_1
 73
     1
 44
1.0
  0
ENDSEC
  0
SECTION
  2
OBJECTS
  0
DICTIONARY
  5
C
330
0
100
AcDbDictionary
281
     1
  3
ACAD_GROUP
350
D
  3
ACAD_LAYOUT
350
1A
  3
ACAD_MLEADERSTYLE
350
10A
  3
ACAD_MLINESTYLE
350
17
  3
ACAD_PLOTSETTINGS
350
19
  3
ACAD_PLOTSTYLENAME
350
E
  3
ACAD_SCALELIST
350
9F
  3
ACAD_TABLESTYLE
350
109
  3
ACAD_VISUALSTYLE
350
2A
  3
AcDbVariableDictionary
350
107
  3
WATERMARKS
350
105
  0
DICTIONARY
  5
D
102
{ACAD_REACTORS
330
C
102
}
330
C
100
AcDbDictionary
281
     1
  0
DICTIONARY
  5
1A
102
{ACAD_REACTORS
330
C
102
}
330
C
100
AcDbDictionary
281
     1
  3
Layout1
350
1E
  3
Layout2
350
26
  3
Model
350
22
  0
DICTIONARY
  5
10A
102
{ACAD_REACTORS
330
C
102
}
330
C
100
AcDbDictionary
281
     1
  0
DICTIONARY
  5
17
102
{ACAD_REACTORS
330
C
102
}
330
C
100
AcDbDictionary
281
     1
  3
Standard
350
18
  0
DICTIONARY
  5
19
102
{ACAD_REACTORS
330
C
102
}
330
C
100
AcDbDictionary
281
     1
  0
ACDBDICTIONARYWDFLT
  5
E
102
{ACAD_REACTORS
330
C
102
}
330
C
100
AcDbDictionary
281
     1
  3
Normal
350
F
100
AcDbDictionaryWithDefault
340
F
  0
DICTIONARY
  5
9F
102
{ACAD_REACTORS
330
C
102
}
330
C
100
AcDbDictionary
281
     1
  3
A0
350
A0
  3
A1
350
A1
  3
A2
350
A2
  3
A3
350
A3
  3
A4
350
A4
  3
A5
350
A5
  3
A6
350
A6
  3
A7
350
A7
  3
A8
350
A8
  3
A9
350
A9
  3
B0
350
AA
  3
B1
350
AB
  3
B2
350
AC
  3
B3
350
AD
  3
B4
350
AE
  3
B5
350
AF
  3
B6
350
B0
  3
B7
350
B1
  3
B8
350
B2
  3
B9
350
B3
  3
C0
350
B4
  3
C1
350
B5
  3
C2
350
B6
  3
C3
350
B7
  3
C4
350
B8
  3
C5
350
B9
  3
C6
350
BA
  3
C7
350
BB
  3
C8
350
BC
  3
C9
350
BD
  3
D0
350
BE
  3
D1
350
BF
  3
D2
350
C0
  0
DICTIONARY
  5
109
102
{ACAD_REACTORS
330
C
102
}
330
C
100
AcDbDictionary
281
     1
  0
DICTIONARY
  5
2A
102
{ACAD_REACTORS
330
C
102
}
330
C
100
AcDbDictionary
281
     1
  3
2dWireframe
350
2F
  3
3D Hidden
350
31
  3
3dWireframe
350
30
  3
Basic
350
32
  3
Brighten
350
36
  3
ColorChange
350
3A
  3
Conceptual
350
34
  3
Dim
350
35
  3
Facepattern
350
39
  3
Flat
350
2B
  3
FlatWithEdges
350
2C
  3
Gouraud
350
2D
  3
GouraudWithEdges
350
2E
  3
Linepattern
350
38
  3
Realistic
350
33
  3
Thicken
350
37
  0
DICTIONARY
  5
107
102
{ACAD_REACTORS
330
C
102
}
330
C
100
AcDbDictionary
281
     1
  3
CANNOSCALE
350
108
  0
DICTIONARY
  5
105
102
{ACAD_REACTORS
330
C
102
}
330
C
100
AcDbDictionary
281
     1
  3
AC_WATERMARK
350
106
  0
LAYOUT
  5
1E
102
{ACAD_REACTORS
330
1A
102
}
330
1A
100
AcDbPlotSettings
  1

  2
none_device
  4

  6

 40
0.0
 41
0.0
 42
0.0
 43
0.0
 44
0.0
 45
0.0
 46
0.0
 47
0.0
 48
0.0
 49
0.0
140
0.0
141
0.0
142
1.0
143
1.0
 70
   688
 72
     0
 73
     0
 74
     5
  7

 75
    16
 76
     0
 77
     2
 78
   300
147
1.0
148
0.0
149
0.0
100
AcDbLayout
  1
Layout1
 70
     1
 71
     1
 10
0.0
 20
0.0
 11
12.0
 21
9.0
 12
0.0
 22
0.0
 32
0.0
 14
1.000000000000000E+20
 24
1.000000000000000E+20
 34
1.000000000000000E+20
 15
-1.000000000000000E+20
 25
-1.000000000000000E+20
 35
-1.000000000000000E+20
146
0.0
 13
0.0
 23
0.0
 33
0.0
 16
1.0
 26
0.0
 36
0.0
 17
0.0
 27
1.0
 37
0.0
 76
     0
330
1B
  0
LAYOUT
  5
26
102
{ACAD_REACTORS
330
1A
102
}
330
1A
100
AcDbPlotSettings
  1

  2
none_device
  4

  6

 40
0.0
 41
0.0
 42
0.0
 43
0.0
 44
0.0
 45
0.0
 46
0.0
 47
0.0
 48
0.0
 49
0.0
140
0.0
141
0.0
142
1.0
143
1.0
 70
   688
 72
     0
 73
     0
 74
     5
  7

 75
    16
 76
     0
 77
     2
 78
   300
147
1.0
148
0.0
149
0.0
100
AcDbLayout
  1
Layout2
 70
     1
 71
     2
 10
0.0
 20
0.0
 11
0.0
 21
0.0
 12
0.0
 22
0.0
 32
0.0
 14
0.0
 24
0.0
 34
0.0
 15
0.0
 25
0.0
 35
0.0
146
0.0
 13
0.0
 23
0.0
 33
0.0
 16
1.0
 26
0.0
 36
0.0
 17
0.0
 27
1.0
 37
0.0
 76
     0
330
23
  0
LAYOUT
  5
22
102
{ACAD_REACTORS
330
1A
102
}
330
1A
100
AcDbPlotSettings
  1

  2
none_device
  4

  6

 40
0.0
 41
0.0
 42
0.0
 43
0.0
 44
0.0
 45
0.0
 46
0.0
 47
0.0
 48
0.0
 49
0.0
140
0.0
141
0.0
142
1.0
143
1.0
 70
  1712
 72
     0
 73
     0
 74
     0
  7

 75
     0
 76
     0
 77
     2
 78
   300
147
1.0
148
0.0
149
0.0
100
AcDbLayout
  1
Model
 70
     1
 71
     0
 10
0.0
 20
0.0
 11
12.0
 21
9.0
 12
0.0
 22
0.0
 32
0.0
 14
1.000000000000000E+20
 24
1.000000000000000E+20
 34
1.000000000000000E+20
 15
-1.000000000000000E+20
 25
-1.000000000000000E+20
 35
-1.000000000000000E+20
146
0.0
 13
0.0
 23
0.0
 33
0.0
 16
1.0
 26
0.0
 36
0.0
 17
0.0
 27
1.0
 37
0.0
 76
     0
330
1F
331
29
  0
MLINESTYLE
  5
18
102
{ACAD_REACTORS
330
17
102
}
330
17
100
AcDbMlineStyle
  2
Standard
 70
     0
  3

 62
   256
 51
90.0
 52
90.0
 71
     2
 49
0.5
 62
   256
  6
BYLAYER
 49
-0.5
 62
   256
  6
BYLAYER
  0
ACDBPLACEHOLDER
  5
F
102
{ACAD_REACTORS
330
E
102
}
330
E
  0
SCALE
  5
A0
102
{ACAD_REACTORS
330
9F
102
}
330
9F
100
AcDbScale
 70
     0
300
1:1
140
1.0
141
1.0
290
     1
  0
SCALE
  5
A1
102
{ACAD_REACTORS
330
9F
102
}
330
9F
100
AcDbScale
 70
     0
300
1:2
140
1.0
141
2.0
290
     0
  0
SCALE
  5
A2
102
{ACAD_REACTORS
330
9F
102
}
330
9F
100
AcDbScale
 70
     0
300
1:4
140
1.0
141
4.0
290
     0
  0
SCALE
  5
A3
102
{ACAD_REACTORS
330
9F
102
}
330
9F
100
AcDbScale
 70
     0
300
1:5
140
1.0
141
5.0
290
     0
  0
SCALE
  5
A4
102
{ACAD_REACTORS
330
9F
102
}
330
9F
100
AcDbScale
 70
     0
300
1:8
140
1.0
141
8.0
290
     0
  0
SCALE
  5
A5
102
{ACAD_REACTORS
330
9F
102
}
330
9F
100
AcDbScale
 70
     0
300
1:10
140
1.0
141
10.0
290
     0
  0
SCALE
  5
A6
102
{ACAD_REACTORS
330
9F
102
}
330
9F
100
AcDbScale
 70
     0
300
1:16
140
1.0
141
16.0
290
     0
  0
SCALE
  5
A7
102
{ACAD_REACTORS
330
9F
102
}
330
9F
100
AcDbScale
 70
     0
300
1:20
140
1.0
141
20.0
290
     0
  0
SCALE
  5
A8
102
{ACAD_REACTORS
330
9F
102
}
330
9F
100
AcDbScale
 70
     0
300
1:30
140
1.0
141
30.0
290
     0
  0
SCALE
  5
A9
102
{ACAD_REACTORS
330
9F
102
}
330
9F
100
AcDbScale
 70
     0
300
1:40
140
1.0
141
40.0
290
     0
  0
SCALE
  5
AA
102
{ACAD_REACTORS
330
9F
102
}
330
9F
100
AcDbScale
 70
     0
300
1:50
140
1.0
141
50.0
290
     0
  0
SCALE
  5
AB
102
{ACAD_REACTORS
330
9F
102
}
330
9F
100
AcDbScale
 70
     0
300
1:100
140
1.0
141
100.0
290
     0
  0
SCALE
  5
AC
102
{ACAD_REACTORS
330
9F
102
}
330
9F
100
AcDbScale
 70
     0
300
2:1
140
2.0
141
1.0
290
     0
  0
SCALE
  5
AD
102
{ACAD_REACTORS
330
9F
102
}
330
9F
100
AcDbScale
 70
     0
300
4:1
140
4.0
141
1.0
290
     0
  0
SCALE
  5
AE
102
{ACAD_REACTORS
330
9F
102
}
330
9F
100
AcDbScale
 70
     0
300
8:1
140
8.0
141
1.0
290
     0
  0
SCALE
  5
AF
102
{ACAD_REACTORS
330
9F
102
}
330
9F
100
AcDbScale
 70
     0
300
10:1
140
10.0
141
1.0
290
     0
  0
SCALE
  5
B0
102
{ACAD_REACTORS
330
9F
102
}
330
9F
100
AcDbScale
 70
     0
300
100:1
140
100.0
141
1.0
290
     0
  0
SCALE
  5
B1
102
{ACAD_REACTORS
330
9F
102
}
330
9F
100
AcDbScale
 70
     0
300
1/128" = 1'-0"
140
0.0078125
141
12.0
290
     0
  0
SCALE
  5
B2
102
{ACAD_REACTORS
330
9F
102
}
330
9F
100
AcDbScale
 70
     0
300
1/64" = 1'-0"
140
0.015625
141
12.0
290
     0
  0
SCALE
  5
B3
102
{ACAD_REACTORS
330
9F
102
}
330
9F
100
AcDbScale
 70
     0
300
1/32" = 1'-0"
140
0.03125
141
12.0
290
     0
  0
SCALE
  5
B4
102
{ACAD_REACTORS
330
9F
102
}
330
9F
100
AcDbScale
 70
     0
300
1/16" = 1'-0"
140
0.0625
141
12.0
290
     0
  0
SCALE
  5
B5
102
{ACAD_REACTORS
330
9F
102
}
330
9F
100
AcDbScale
 70
     0
300
3/32" = 1'-0"
140
0.09375
141
12.0
290
     0
  0
SCALE
  5
B6
102
{ACAD_REACTORS
330
9F
102
}
330
9F
100
AcDbScale
 70
     0
300
1/8" = 1'-0"
140
0.125
141
12.0
290
     0
  0
SCALE
  5
B7
102
{ACAD_REACTORS
330
9F
102
}
330
9F
100
AcDbScale
 70
     0
300
3/16" = 1'-0"
140
0.1875
141
12.0
290
     0
  0
SCALE
  5
B8
102
{ACAD_REACTORS
330
9F
102
}
330
9F
100
AcDbScale
 70
     0
300
1/4" = 1'-0"
140
0.25
141
12.0
290
     0
  0
SCALE
  5
B9
102
{ACAD_REACTORS
330
9F
102
}
330
9F
100
AcDbScale
 70
     0
300
3/8" = 1'-0"
140
0.375
141
12.0
290
     0
  0
SCALE
  5
BA
102
{ACAD_REACTORS
330
9F
102
}
330
9F
100
AcDbScale
 70
     0
300
1/2" = 1'-0"
140
0.5
141
12.0
290
     0
  0
SCALE
  5
BB
102
{ACAD_REACTORS
330
9F
102
}
330
9F
100
AcDbScale
 70
     0
300
3/4" = 1'-0"
140
0.75
141
12.0
290
     0
  0
SCALE
  5
BC
102
{ACAD_REACTORS
330
9F
102
}
330
9F
100
AcDbScale
 70
     0
300
1" = 1'-0"
140
1.0
141
12.0
290
     0
  0
SCALE
  5
BD
102
{ACAD_REACTORS
330
9F
102
}
330
9F
100
AcDbScale
 70
     0
300
1-1/2" = 1'-0"
140
1.5
141
12.0
290
     0
  0
SCALE
  5
BE
102
{ACAD_REACTORS
330
9F
102
}
330
9F
100
AcDbScale
 70
     0
300
3" = 1'-0"
140
3.0
141
12.0
290
     0
  0
SCALE
  5
BF
102
{ACAD_REACTORS
330
9F
102
}
330
9F
100
AcDbScale
 70
     0
300
6" = 1'-0"
140
6.0
141
12.0
290
     0
  0
SCALE
  5
C0
102
{ACAD_REACTORS
330
9F
102
}
330
9F
100
AcDbScale
 70
     0
300
1'-0" = 1'-0"
140
12.0
141
12.0
290
     0
  0
VISUALSTYLE
  5
2F
102
{ACAD_REACTORS
330
2A
102
}
330
2A
100
AcDbVisualStyle
  2
2dWireframe
 70
     4
 71
     0
 72
     2
 73
     0
 90
        0
 40
-0.6
 41
-30.0
 62
     5
 63
     7
421
 16777215
 74
     1
 91
        4
 64
     7
 65
   257
 75
     1
175
     1
 42
1.0
 92
        0
 66
   257
 43
1.0
 76
     1
 77
     6
 78
     2
 67
     7
 79
     5
170
     0
171
     0
290
     0
174
     0
 93
        1
 44
0.0
173
     0
291
     0
 45
0.0
1001
ACAD
1000
AcDbSavedByObjectVersion
1070
     0
  0
VISUALSTYLE
  5
31
102
{ACAD_REACTORS
330
2A
102
}
330
2A
100
AcDbVisualStyle
  2
3D Hidden
 70
     6
 71
     1
 72
     2
 73
     2
 90
        0
 40
-0.6
 41
-30.0
 62
     5
 63
     7
421
 16777215
 74
     2
 91
        2
 64
     7
 65
   257
 75
     2
175
     1
 42
40.0
 92
        0
 66
   257
 43
1.0
 76
     1
 77
     6
 78
     2
 67
     7
 79
     3
170
     0
171
     0
290
     0
174
     0
 93
        1
 44
0.0
173
     0
291
     0
 45
0.0
1001
ACAD
1000
AcDbSavedByObjectVersion
1070
     0
  0
VISUALSTYLE
  5
30
102
{ACAD_REACTORS
330
2A
102
}
330
2A
100
AcDbVisualStyle
  2
3dWireframe
 70
     5
 71
     0
 72
     2
 73
     0
 90
        0
 40
-0.6
 41
-30.0
 62
     5
 63
     7
421
 16777215
 74
     1
 91
        4
 64
     7
 65
   257
 75
     1
175
     1
 42
1.0
 92
        0
 66
   257
 43
1.0
 76
     1
 77
     6
 78
     2
 67
     7
 79
     5
170
     0
171
     0
290
     0
174
     0
 93
        1
 44
0.0
173
     0
291
     0
 45
0.0
1001
ACAD
1000
AcDbSavedByObjectVersion
1070
     0
  0
VISUALSTYLE
  5
32
102
{ACAD_REACTORS
330
2A
102
}
330
2A
100
AcDbVisualStyle
  2
Basic
 70
     7
 71
     1
 72
     0
 73
     1
 90
        0
 40
-0.6
 41
-30.0
 62
     5
 63
     7
421
 16777215
 74
     0
 91
        4
 64
     7
 65
   257
 75
     1
175
     1
 42
1.0
 92
        8
 66
     7
 43
1.0
 76
     1
 77
     6
 78
     2
 67
     7
 79
     5
170
     0
171
     0
290
     0
174
     0
 93
        1
 44
0.0
173
     0
291
     1
 45
0.0
1001
ACAD
1000
AcDbSavedByObjectVersion
1070
     0
  0
VISUALSTYLE
  5
36
102
{ACAD_REACTORS
330
2A
102
}
330
2A
100
AcDbVisualStyle
  2
Brighten
 70
    12
 71
     2
 72
     2
 73
     0
 90
        0
 40
-0.6
 41
-30.0
 62
     5
 63
     7
421
 16777215
 74
     1
 91
        4
 64
     7
 65
   257
 75
     1
175
     1
 42
1.0
 92
        8
 66
     7
 43
1.0
 76
     1
 77
     6
 78
     2
 67
     7
 79
     5
170
     0
171
     0
290
     0
174
     0
 93
        1
 44
50.0
173
     0
291
     1
 45
0.0
1001
ACAD
1000
AcDbSavedByObjectVersion
1070
     0
  0
VISUALSTYLE
  5
3A
102
{ACAD_REACTORS
330
2A
102
}
330
2A
100
AcDbVisualStyle
  2
ColorChange
 70
    16
 71
     2
 72
     2
 73
     3
 90
        0
 40
-0.6
 41
-30.0
 62
     5
 63
     8
421
  8421504
 74
     1
 91
        4
 64
     7
 65
   257
 75
     1
175
     1
 42
1.0
 92
        8
 66
     8
424
  8421504
 43
1.0
 76
     1
 77
     6
 78
     2
 67
     7
 79
     5
170
     0
171
     0
290
     0
174
     0
 93
        1
 44
0.0
173
     0
291
     1
 45
0.0
1001
ACAD
1000
AcDbSavedByObjectVersion
1070
     0
  0
VISUALSTYLE
  5
34
102
{ACAD_REACTORS
330
2A
102
}
330
2A
100
AcDbVisualStyle
  2
Conceptual
 70
     9
 71
     3
 72
     2
 73
     0
 90
        0
 40
-0.6
 41
-30.0
 62
     5
 63
     7
421
 16777215
 74
     2
 91
        2
 64
     7
 65
   257
 75
     1
175
     1
 42
40.0
 92
        8
 66
     7
 43
1.0
 76
     1
 77
     6
 78
     2
 67
     7
 79
     3
170
     0
171
     0
290
     0
174
     0
 93
        1
 44
0.0
173
     0
291
     0
 45
0.0
1001
ACAD
1000
AcDbSavedByObjectVersion
1070
     0
  0
VISUALSTYLE
  5
35
102
{ACAD_REACTORS
330
2A
102
}
330
2A
100
AcDbVisualStyle
  2
Dim
 70
    11
 71
     2
 72
     2
 73
     0
 90
        0
 40
-0.6
 41
-30.0
 62
     5
 63
     7
421
 16777215
 74
     1
 91
        4
 64
     7
 65
   257
 75
     1
175
     1
 42
1.0
 92
        8
 66
     7
 43
1.0
 76
     1
 77
     6
 78
     2
 67
     7
 79
     5
170
     0
171
     0
290
     0
174
     0
 93
        1
 44
-50.0
173
     0
291
     1
 45
0.0
1001
ACAD
1000
AcDbSavedByObjectVersion
1070
     0
  0
VISUALSTYLE
  5
39
102
{ACAD_REACTORS
330
2A
102
}
330
2A
100
AcDbVisualStyle
  2
Facepattern
 70
    15
 71
     2
 72
     2
 73
     0
 90
        0
 40
-0.6
 41
-30.0
 62
     5
 63
     7
421
 16777215
 74
     1
 91
        4
 64
     7
 65
   257
 75
     1
175
     1
 42
1.0
 92
        8
 66
     7
 43
1.0
 76
     1
 77
     6
 78
     2
 67
     7
 79
     5
170
     0
171
     0
290
     0
174
     0
 93
        1
 44
0.0
173
     0
291
     1
 45
0.0
1001
ACAD
1000
AcDbSavedByObjectVersion
1070
     0
  0
VISUALSTYLE
  5
2B
102
{ACAD_REACTORS
330
2A
102
}
330
2A
100
AcDbVisualStyle
  2
Flat
 70
     0
 71
     2
 72
     1
 73
     1
 90
        2
 40
-0.6
 41
30.0
 62
     5
 63
     7
421
 16777215
 74
     0
 91
        4
 64
     7
 65
   257
 75
     1
175
     1
 42
1.0
 92
        8
 66
     7
 43
1.0
 76
     1
 77
     6
 78
     2
 67
     7
 79
     5
170
     0
171
     0
290
     0
174
     0
 93
       13
 44
0.0
173
     0
291
     1
 45
0.0
1001
ACAD
1000
AcDbSavedByObjectVersion
1070
     0
  0
VISUALSTYLE
  5
2C
102
{ACAD_REACTORS
330
2A
102
}
330
2A
100
AcDbVisualStyle
  2
FlatWithEdges
 70
     1
 71
     2
 72
     1
 73
     1
 90
        2
 40
-0.6
 41
30.0
 62
     5
 63
     7
421
 16777215
 74
     1
 91
        4
 64
     7
 65
   257
 75
     1
175
     1
 42
1.0
 92
        0
 66
   257
 43
1.0
 76
     1
 77
     6
 78
     2
 67
     7
 79
     5
170
     0
171
     0
290
     0
174
     0
 93
       13
 44
0.0
173
     0
291
     1
 45
0.0
1001
ACAD
1000
AcDbSavedByObjectVersion
1070
     0
  0
VISUALSTYLE
  5
2D
102
{ACAD_REACTORS
330
2A
102
}
330
2A
100
AcDbVisualStyle
  2
Gouraud
 70
     2
 71
     2
 72
     2
 73
     1
 90
        2
 40
-0.6
 41
30.0
 62
     5
 63
     7
421
 16777215
 74
     0
 91
        4
 64
     7
 65
   257
 75
     1
175
     1
 42
1.0
 92
        0
 66
     7
 43
1.0
 76
     1
 77
     6
 78
     2
 67
     7
 79
     5
170
     0
171
     0
290
     0
174
     0
 93
       13
 44
0.0
173
     0
291
     1
 45
0.0
1001
ACAD
1000
AcDbSavedByObjectVersion
1070
     0
  0
VISUALSTYLE
  5
2E
102
{ACAD_REACTORS
330
2A
102
}
330
2A
100
AcDbVisualStyle
  2
GouraudWithEdges
 70
     3
 71
     2
 72
     2
 73
     1
 90
        2
 40
-0.6
 41
30.0
 62
     5
 63
     7
421
 16777215
 74
     1
 91
        4
 64
     7
 65
   257
 75
     1
175
     1
 42
1.0
 92
        0
 66
   257
 43
1.0
 76
     1
 77
     6
 78
     2
 67
     7
 79
     5
170
     0
171
     0
290
     0
174
     0
 93
       13
 44
0.0
173
     0
291
     1
 45
0.0
1001
ACAD
1000
AcDbSavedByObjectVersion
1070
     0
  0
VISUALSTYLE
  5
38
102
{ACAD_REACTORS
330
2A
102
}
330
2A
100
AcDbVisualStyle
  2
Linepattern
 70
    14
 71
     2
 72
     2
 73
     0
 90
        0
 40
-0.6
 41
-30.0
 62
     5
 63
     7
421
 16777215
 74
     1
 91
        4
 64
     7
 65
   257
 75
     7
175
     7
 42
1.0
 92
        8
 66
     7
 43
1.0
 76
     1
 77
     6
 78
     2
 67
     7
 79
     5
170
     0
171
     0
290
     0
174
     0
 93
        1
 44
0.0
173
     0
291
     1
 45
0.0
1001
ACAD
1000
AcDbSavedByObjectVersion
1070
     0
  0
VISUALSTYLE
  5
33
102
{ACAD_REACTORS
330
2A
102
}
330
2A
100
AcDbVisualStyle
  2
Realistic
 70
     8
 71
     2
 72
     2
 73
     0
 90
        0
 40
-0.6
 41
-30.0
 62
     5
 63
     7
421
 16777215
 74
     1
 91
        0
 64
     7
 65
   257
 75
     1
175
     1
 42
1.0
 92
        8
 66
     8
424
  7895160
 43
1.0
 76
     1
 77
     6
 78
     2
 67
     7
 79
     5
170
     0
171
     0
290
     0
174
     0
 93
       13
 44
0.0
173
     0
291
     0
 45
0.0
1001
ACAD
1000
AcDbSavedByObjectVersion
1070
     0
  0
VISUALSTYLE
  5
37
102
{ACAD_REACTORS
330
2A
102
}
330
2A
100
AcDbVisualStyle
  2
Thicken
 70
    13
 71
     2
 72
     2
 73
     0
 90
        0
 40
-0.6
 41
-30.0
 62
     5
 63
     7
421
 16777215
 74
     1
 91
        4
 64
     7
 65
   257
 75
     1
175
     1
 42
1.0
 92
       12
 66
     7
 43
1.0
 76
     1
 77
     6
 78
     2
 67
     7
 79
     5
170
     0
171
     0
290
     0
174
     0
 93
        1
 44
0.0
173
     0
291
     1
 45
0.0
1001
ACAD
1000
AcDbSavedByObjectVersion
1070
     0
  0
DICTIONARYVAR
  5
108
102
{ACAD_REACTORS
330
107
102
}
330
107
100
DictionaryVariables
280
     0
  1
1:1
  0
XRECORD
  5
106
102
{ACAD_REACTORS
330
105
102
}
330
105
100
AcDbXrecord
280
     1
1000
This DWG file was created in ArchiCAD(TM)®
  0
ENDSEC
  0
EOF
