  0
SECTION
  2
HEADER
  9
$ACADVER
  1
AC1018
  9
$ACADMAINTVER
 70
     0
  9
$DWGCODEPAGE
  3
ANSI_1252
  9
$INSBASE
 10
0.0
 20
0.0
 30
0.0
  9
$EXTMIN
 10
1.000000000000000E+20
 20
1.000000000000000E+20
 30
1.000000000000000E+20
  9
$EXTMAX
 10
-1.000000000000000E+20
 20
-1.000000000000000E+20
 30
-1.000000000000000E+20
  9
$LIMMIN
 10
0.0
 20
0.0
  9
$LIMMAX
 10
12.0
 20
9.0
  9
$ORTHOMODE
 70
     0
  9
$REGENMODE
 70
     1
  9
$FILLMODE
 70
     1
  9
$QTEXTMODE
 70
     0
  9
$MIRRTEXT
 70
     1
  9
$LTSCALE
 40
1.0
  9
$ATTMODE
 70
     1
  9
$TEXTSIZE
 40
0.2
  9
$TRACEWID
 40
0.05
  9
$TEXTSTYLE
  7
Standard
  9
$CLAYER
  8
0
  9
$CELTYPE
  6
ByLayer
  9
$CECOLOR
 62
   256
  9
$CELTSCALE
 40
1.0
  9
$DISPSILH
 70
     0
  9
$DIMSCALE
 40
1.0
  9
$DIMASZ
 40
0.18
  9
$DIMEXO
 40
0.0625
  9
$DIMDLI
 40
0.38
  9
$DIMRND
 40
0.0
  9
$DIMDLE
 40
0.0
  9
$DIMEXE
 40
0.18
  9
$DIMTP
 40
0.0
  9
$DIMTM
 40
0.0
  9
$DIMTXT
 40
0.18
  9
$DIMCEN
 40
0.09
  9
$DIMTSZ
 40
0.0
  9
$DIMTOL
 70
     0
  9
$DIMLIM
 70
     0
  9
$DIMTIH
 70
     1
  9
$DIMTOH
 70
     1
  9
$DIMSE1
 70
     0
  9
$DIMSE2
 70
     0
  9
$DIMTAD
 70
     0
  9
$DIMZIN
 70
     0
  9
$DIMBLK
  1

  9
$DIMASO
 70
     1
  9
$DIMSHO
 70
     1
  9
$DIMPOST
  1

  9
$DIMAPOST
  1

  9
$DIMALT
 70
     0
  9
$DIMALTD
 70
     2
  9
$DIMALTF
 40
25.4
  9
$DIMLFAC
 40
1.0
  9
$DIMTOFL
 70
     0
  9
$DIMTVP
 40
0.0
  9
$DIMTIX
 70
     0
  9
$DIMSOXD
 70
     0
  9
$DIMSAH
 70
     0
  9
$DIMBLK1
  1

  9
$DIMBLK2
  1

  9
$DIMSTYLE
  2
Standard
  9
$DIMCLRD
 70
     0
  9
$DIMCLRE
 70
     0
  9
$DIMCLRT
 70
     0
  9
$DIMTFAC
 40
1.0
  9
$DIMGAP
 40
0.09
  9
$DIMJUST
 70
     0
  9
$DIMSD1
 70
     0
  9
$DIMSD2
 70
     0
  9
$DIMTOLJ
 70
     1
  9
$DIMTZIN
 70
     0
  9
$DIMALTZ
 70
     0
  9
$DIMALTTZ
 70
     0
  9
$DIMUPT
 70
     0
  9
$DIMDEC
 70
     4
  9
$DIMTDEC
 70
     4
  9
$DIMALTU
 70
     2
  9
$DIMALTTD
 70
     2
  9
$DIMTXSTY
  7
Standard
  9
$DIMAUNIT
 70
     0
  9
$DIMADEC
 70
     0
  9
$DIMALTRND
 40
0.0
  9
$DIMAZIN
 70
     0
  9
$DIMDSEP
 70
    46
  9
$DIMATFIT
 70
     3
  9
$DIMFRAC
 70
     0
  9
$DIMLDRBLK
  1

  9
$DIMLUNIT
 70
     2
  9
$DIMLWD
 70
    -2
  9
$DIMLWE
 70
    -2
  9
$DIMTMOVE
 70
     0
  9
$LUNITS
 70
     2
  9
$LUPREC
 70
     4
  9
$SKETCHINC
 40
0.1
  9
$FILLETRAD
 40
0.5
  9
$AUNITS
 70
     0
  9
$AUPREC
 70
     0
  9
$MENU
  1
.
  9
$ELEVATION
 40
0.0
  9
$PELEVATION
 40
0.0
  9
$THICKNESS
 40
0.0
  9
$LIMCHECK
 70
     0
  9
$CHAMFERA
 40
0.5
  9
$CHAMFERB
 40
0.5
  9
$CHAMFERC
 40
1.0
  9
$CHAMFERD
 40
0.0
  9
$SKPOLY
 70
     0
  9
$TDCREATE
 40
2455966.611771065
  9
$TDUCREATE
 40
2455966.070104398
  9
$TDUPDATE
 40
2455966.611771076
  9
$TDUUPDATE
 40
2455966.07010441
  9
$TDINDWG
 40
0.0000000116
  9
$TDUSRTIMER
 40
0.0000000116
  9
$USRTIMER
 70
     1
  9
$ANGBASE
 50
0.0
  9
$ANGDIR
 70
     0
  9
$PDMODE
 70
     0
  9
$PDSIZE
 40
0.0
  9
$PLINEWID
 40
0.0
  9
$SPLFRAME
 70
     0
  9
$SPLINETYPE
 70
     6
  9
$SPLINESEGS
 70
     8
  9
$HANDSEED
  5
BA
  9
$SURFTAB1
 70
     6
  9
$SURFTAB2
 70
     6
  9
$SURFTYPE
 70
     6
  9
$SURFU
 70
     6
  9
$SURFV
 70
     6
  9
$UCSBASE
  2

  9
$UCSNAME
  2

  9
$UCSORG
 10
0.0
 20
0.0
 30
0.0
  9
$UCSXDIR
 10
1.0
 20
0.0
 30
0.0
  9
$UCSYDIR
 10
0.0
 20
1.0
 30
0.0
  9
$UCSORTHOREF
  2

  9
$UCSORTHOVIEW
 70
     0
  9
$UCSORGTOP
 10
0.0
 20
0.0
 30
0.0
  9
$UCSORGBOTTOM
 10
0.0
 20
0.0
 30
0.0
  9
$UCSORGLEFT
 10
0.0
 20
0.0
 30
0.0
  9
$UCSORGRIGHT
 10
0.0
 20
0.0
 30
0.0
  9
$UCSORGFRONT
 10
0.0
 20
0.0
 30
0.0
  9
$UCSORGBACK
 10
0.0
 20
0.0
 30
0.0
  9
$PUCSBASE
  2

  9
$PUCSNAME
  2

  9
$PUCSORG
 10
0.0
 20
0.0
 30
0.0
  9
$PUCSXDIR
 10
1.0
 20
0.0
 30
0.0
  9
$PUCSYDIR
 10
0.0
 20
1.0
 30
0.0
  9
$PUCSORTHOREF
  2

  9
$PUCSORTHOVIEW
 70
     0
  9
$PUCSORGTOP
 10
0.0
 20
0.0
 30
0.0
  9
$PUCSORGBOTTOM
 10
0.0
 20
0.0
 30
0.0
  9
$PUCSORGLEFT
 10
0.0
 20
0.0
 30
0.0
  9
$PUCSORGRIGHT
 10
0.0
 20
0.0
 30
0.0
  9
$PUCSORGFRONT
 10
0.0
 20
0.0
 30
0.0
  9
$PUCSORGBACK
 10
0.0
 20
0.0
 30
0.0
  9
$USERI1
 70
     0
  9
$USERI2
 70
     0
  9
$USERI3
 70
     0
  9
$USERI4
 70
     0
  9
$USERI5
 70
     0
  9
$USERR1
 40
0.0
  9
$USERR2
 40
0.0
  9
$USERR3
 40
0.0
  9
$USERR4
 40
0.0
  9
$USERR5
 40
0.0
  9
$WORLDVIEW
 70
     1
  9
$SHADEDGE
 70
     3
  9
$SHADEDIF
 70
    70
  9
$TILEMODE
 70
     1
  9
$MAXACTVP
 70
    64
  9
$PINSBASE
 10
0.0
 20
0.0
 30
0.0
  9
$PLIMCHECK
 70
     0
  9
$PEXTMIN
 10
1.000000000000000E+20
 20
1.000000000000000E+20
 30
1.000000000000000E+20
  9
$PEXTMAX
 10
-1.000000000000000E+20
 20
-1.000000000000000E+20
 30
-1.000000000000000E+20
  9
$PLIMMIN
 10
0.0
 20
0.0
  9
$PLIMMAX
 10
12.0
 20
9.0
  9
$UNITMODE
 70
     0
  9
$VISRETAIN
 70
     1
  9
$PLINEGEN
 70
     0
  9
$PSLTSCALE
 70
     1
  9
$TREEDEPTH
 70
  3020
  9
$CMLSTYLE
  2
Standard
  9
$CMLJUST
 70
     0
  9
$CMLSCALE
 40
1.0
  9
$PROXYGRAPHICS
 70
     1
  9
$MEASUREMENT
 70
     0
  9
$CELWEIGHT
370
    -1
  9
$ENDCAPS
280
     0
  9
$JOINSTYLE
280
     0
  9
$LWDISPLAY
290
     1
  9
$INSUNITS
 70
     0
  9
$HYPERLINKBASE
  1

  9
$STYLESHEET
  1

  9
$XEDIT
290
     1
  9
$CEPSNTYPE
380
     0
  9
$PSTYLEMODE
290
     1
  9
$FINGERPRINTGUID
  2
{0167BD0D-C10D-48E3-9808-7CDBB1621C3A}
  9
$VERSIONGUID
  2
{FAEB1C32-E019-11D5-929B-00C0DF256EC4}
  9
$EXTNAMES
290
     1
  9
$PSVPSCALE
 40
0.0
  9
$OLESTARTUP
290
     0
  9
$SORTENTS
280
   127
  9
$INDEXCTL
280
     0
  9
$HIDETEXT
280
     1
  9
$XCLIPFRAME
290
     0
  9
$HALOGAP
280
     0
  9
$OBSCOLOR
 70
   257
  9
$OBSLTYPE
280
     0
  9
$INTERSECTIONDISPLAY
280
     0
  9
$INTERSECTIONCOLOR
 70
   257
  9
$DIMASSOC
280
     2
  9
$PROJECTNAME
  1

  0
ENDSEC
  0
SECTION
  2
CLASSES
  0
CLASS
  1
ACDBDICTIONARYWDFLT
  2
AcDbDictionaryWithDefault
  3
ObjectDBX Classes
 90
        0
 91
        4
280
     0
281
     0
  0
CLASS
  1
VISUALSTYLE
  2
AcDbVisualStyle
  3
ObjectDBX Classes
 90
     4095
 91
        4
280
     0
281
     0
  0
CLASS
  1
SCALE
  2
AcDbScale
  3
ObjectDBX Classes
 90
     1153
 91
        4
280
     0
281
     0
  0
CLASS
  1
DICTIONARYVAR
  2
AcDbDictionaryVar
  3
ObjectDBX Classes
 90
        0
 91
        4
280
     0
281
     0
  0
ENDSEC
  0
SECTION
  2
TABLES
  0
TABLE
  2
VPORT
  5
8
330
0
100
AcDbSymbolTable
 70
     1
  0
VPORT
  5
29
330
8
100
AcDbSymbolTableRecord
100
AcDbViewportTableRecord
  2
*Active
 70
     0
 10
0.0
 20
0.0
 11
1.0
 21
1.0
 12
31.45871100069818
 22
-37.6437820702827
 13
0.0
 23
0.0
 14
0.5
 24
0.5
 15
0.5
 25
0.5
 16
0.0
 26
0.0
 36
1.0
 17
0.0
 27
0.0
 37
0.0
 40
240.2148558316865
 41
1.131352471221428
 42
50.0
 43
0.0
 44
0.0
 50
0.0
 51
0.0
 71
     0
 72
   100
 73
     1
 74
     3
 75
     0
 76
     0
 77
     0
 78
     0
281
     0
 65
     1
110
0.0
120
0.0
130
0.0
111
1.0
121
0.0
131
0.0
112
0.0
122
1.0
132
0.0
 79
     0
146
0.0
  0
ENDTAB
  0
TABLE
  2
LTYPE
  5
5
330
0
100
AcDbSymbolTable
 70
     3
  0
LTYPE
  5
14
330
5
100
AcDbSymbolTableRecord
100
AcDbLinetypeTableRecord
  2
ByBlock
 70
     0
  3

 72
    65
 73
     0
 40
0.0
  0
LTYPE
  5
15
330
5
100
AcDbSymbolTableRecord
100
AcDbLinetypeTableRecord
  2
ByLayer
 70
     0
  3

 72
    65
 73
     0
 40
0.0
  0
LTYPE
  5
16
330
5
100
AcDbSymbolTableRecord
100
AcDbLinetypeTableRecord
  2
Continuous
 70
     0
  3
Solid line
 72
    65
 73
     0
 40
0.0
  0
LTYPE
  5
48
330
5
100
AcDbSymbolTableRecord
100
AcDbLinetypeTableRecord
  2
DASHEDX2
 70
     0
  3
- - - - - 
 72
    65
 73
     2
 40
7.5
 49
5.0
 74
     0
 49
-2.5
 74
     0
  0
LTYPE
  5
50
330
5
100
AcDbSymbolTableRecord
100
AcDbLinetypeTableRecord
  2
Hidden
 70
     0
  3
- - - - - 
 72
    65
 73
     2
 40
2.469444990158081
 49
1.411111354827881
 74
     0
 49
-1.0583336353302
 74
     0
  0
ENDTAB
  0
TABLE
  2
LAYER
  5
2
330
0
100
AcDbSymbolTable
 70
    13
  0
LAYER
  5
10
330
2
100
AcDbSymbolTableRecord
100
AcDbLayerTableRecord
  2
0
 70
     0
 62
     7
  6
Continuous
370
    -3
390
F
  0
LAYER
  5
3C
330
2
100
AcDbSymbolTableRecord
100
AcDbLayerTableRecord
  2
chh-08_Pen_No__8_Pen_No__101
 70
     0
 62
     8
  6
Continuous
370
    13
390
F
  0
LAYER
  5
3F
330
2
100
AcDbSymbolTableRecord
100
AcDbLayerTableRecord
  2
chh-09_Pen_No__9_Pen_No__2
 70
     0
 62
     8
420
  8355711
  6
Continuous
370
    15
390
F
  0
LAYER
  5
46
330
2
100
AcDbSymbolTableRecord
100
AcDbLayerTableRecord
  2
chh-08_Pen_No__8_Pen_No__81
 70
     0
 62
   251
420
  6974058
  6
Continuous
370
    20
390
F
  0
LAYER
  5
4A
330
2
100
AcDbSymbolTableRecord
100
AcDbLayerTableRecord
  2
chh-08_Pen_No__8_Pen_No__1
 70
     0
 62
     7
  6
Continuous
370
    13
390
F
  0
LAYER
  5
52
330
2
100
AcDbSymbolTableRecord
100
AcDbLayerTableRecord
  2
chh-08_Pen_No__8_Pen_No__2
 70
     0
 62
     8
420
  8355711
  6
Continuous
370
    15
390
F
  0
LAYER
  5
55
330
2
100
AcDbSymbolTableRecord
100
AcDbLayerTableRecord
  2
chh-06_Pen_No__7_Pen_No__7
 70
     0
 62
     7
  6
Continuous
370
    18
390
F
  0
LAYER
  5
58
330
2
100
AcDbSymbolTableRecord
100
AcDbLayerTableRecord
  2
chh-05_Pen_No__7_Pen_No__7
 70
     0
 62
     7
  6
Continuous
370
    18
390
F
  0
LAYER
  5
5E
330
2
100
AcDbSymbolTableRecord
100
AcDbLayerTableRecord
  2
chh-txt_Pen_No__7_Pen_No__7
 70
     0
 62
     7
  6
Continuous
370
    18
390
F
  0
LAYER
  5
66
330
2
100
AcDbSymbolTableRecord
100
AcDbLayerTableRecord
  2
chh-txt_Pen_No__1
 70
     0
 62
     7
  6
Continuous
370
    13
390
F
  0
LAYER
  5
69
330
2
100
AcDbSymbolTableRecord
100
AcDbLayerTableRecord
  2
chh-txt_Pen_No__7
 70
     0
 62
     7
  6
Continuous
370
    18
390
F
  0
LAYER
  5
93
330
2
100
AcDbSymbolTableRecord
100
AcDbLayerTableRecord
  2
chh-txt
 70
     0
 62
     7
  6
Continuous
370
    -3
390
F
  0
LAYER
  5
AE
330
2
100
AcDbSymbolTableRecord
100
AcDbLayerTableRecord
  2
Defpoints_Pen_No__211_Pen_No__115
 70
     0
 62
   211
420
 16738047
  6
Continuous
370
    13
390
F
  0
ENDTAB
  0
TABLE
  2
STYLE
  5
3
330
0
100
AcDbSymbolTable
 70
     2
  0
STYLE
  5
11
330
3
100
AcDbSymbolTableRecord
100
AcDbTextStyleTableRecord
  2
Standard
 70
     0
 40
0.0
 41
1.0
 50
0.0
 71
     0
 42
0.2
  3
txt
  4
BIGFONT.SHX
  0
STYLE
  5
6E
330
3
100
AcDbSymbolTableRecord
100
AcDbTextStyleTableRecord
  2
GENERATED_STYLE_1
 70
     0
 40
0.0
 41
1.0
 50
0.0
 71
     0
 42
0.2
  3

  4

1001
ACAD
1000
Arial Unicode MS
1071
       34
  0
ENDTAB
  0
TABLE
  2
VIEW
  5
6
330
0
100
AcDbSymbolTable
 70
     0
  0
ENDTAB
  0
TABLE
  2
UCS
  5
7
330
0
100
AcDbSymbolTable
 70
     0
  0
ENDTAB
  0
TABLE
  2
APPID
  5
9
330
0
100
AcDbSymbolTable
 70
     1
  0
APPID
  5
12
330
9
100
AcDbSymbolTableRecord
100
AcDbRegAppTableRecord
  2
ACAD
 70
     0
  0
ENDTAB
  0
TABLE
  2
DIMSTYLE
  5
A
330
0
100
AcDbSymbolTable
 70
     2
100
AcDbDimStyleTable
  0
DIMSTYLE
105
27
330
A
100
AcDbSymbolTableRecord
100
AcDbDimStyleTableRecord
  2
Standard
 70
     0
340
11
  0
DIMSTYLE
105
94
102
{ACAD_REACTORS
330
92
330
A5
102
}
330
A
100
AcDbSymbolTableRecord
100
AcDbDimStyleTableRecord
  2
GENERATED_STYLE__1
 70
     0
 41
0.0085895061577885
 42
1.0
 77
     1
140
5.0
172
     1
176
     7
177
     7
178
     7
271
     0
340
6E
342
95
343
95
344
95
  0
ENDTAB
  0
TABLE
  2
BLOCK_RECORD
  5
1
330
0
100
AcDbSymbolTable
 70
     5
  0
BLOCK_RECORD
  5
1F
330
1
100
AcDbSymbolTableRecord
100
AcDbBlockTableRecord
  2
*Model_Space
340
22
  0
BLOCK_RECORD
  5
1B
330
1
100
AcDbSymbolTableRecord
100
AcDbBlockTableRecord
  2
*Paper_Space
340
1E
  0
BLOCK_RECORD
  5
23
330
1
100
AcDbSymbolTableRecord
100
AcDbBlockTableRecord
  2
*Paper_Space0
340
26
  0
BLOCK_RECORD
  5
62
330
1
100
AcDbSymbolTableRecord
100
AcDbBlockTableRecord
  2
*D1
340
0
  0
BLOCK_RECORD
  5
95
330
1
100
AcDbSymbolTableRecord
100
AcDbBlockTableRecord
  2
ARROWHEAD_2
340
0
  0
BLOCK_RECORD
  5
9A
330
1
100
AcDbSymbolTableRecord
100
AcDbBlockTableRecord
  2
*D3
340
0
  0
BLOCK_RECORD
  5
B1
330
1
100
AcDbSymbolTableRecord
100
AcDbBlockTableRecord
  2
Untitled _STORY_MARKER
340
0
  0
ENDTAB
  0
ENDSEC
  0
SECTION
  2
BLOCKS
  0
BLOCK
  5
20
330
1F
100
AcDbEntity
  8
0
100
AcDbBlockBegin
  2
*Model_Space
 70
     0
 10
0.0
 20
0.0
 30
0.0
  3
*Model_Space
  1

  0
ENDBLK
  5
21
330
1F
100
AcDbEntity
  8
0
100
AcDbBlockEnd
  0
BLOCK
  5
1C
330
1B
100
AcDbEntity
 67
     1
  8
0
100
AcDbBlockBegin
  2
*Paper_Space
 70
     0
 10
0.0
 20
0.0
 30
0.0
  3
*Paper_Space
  1

  0
ENDBLK
  5
1D
330
1B
100
AcDbEntity
 67
     1
  8
0
100
AcDbBlockEnd
  0
BLOCK
  5
24
330
23
100
AcDbEntity
  8
0
100
AcDbBlockBegin
  2
*Paper_Space0
 70
     0
 10
0.0
 20
0.0
 30
0.0
  3
*Paper_Space0
  1

  0
ENDBLK
  5
25
330
23
100
AcDbEntity
  8
0
100
AcDbBlockEnd
  0
BLOCK
  5
63
330
62
100
AcDbEntity
  8
0
100
AcDbBlockBegin
  2
*D1
 70
     1
 10
0.0
 20
0.0
 30
0.0
  3
*D1
  1

  0
POINT
  5
65
330
62
100
AcDbEntity
  8
chh-txt_Pen_No__1
  6
Continuous
100
AcDbPoint
 10
-14.5893566017299
 20
74.10859823936755
 30
0.0
  0
LINE
  5
67
330
62
100
AcDbEntity
  8
chh-txt_Pen_No__1
  6
Continuous
100
AcDbLine
 10
-14.58382993263627
 20
74.10859823936755
 30
0.0
 11
30.41617006736366
 21
74.10859823936755
 31
0.0
  0
LINE
  5
68
330
62
100
AcDbEntity
  8
chh-txt_Pen_No__7
  6
Continuous
100
AcDbLine
 10
-14.58056733304403
 20
74.11424923026082
 30
0.0
 11
-14.5870925322285
 21
74.10294724847427
 31
0.0
  0
LINE
  5
6A
330
62
100
AcDbEntity
  8
chh-txt_Pen_No__7
  6
Continuous
100
AcDbLine
 10
30.41290746777143
 20
74.10294724847427
 30
0.0
 11
30.4194326669559
 21
74.11424923026082
 31
0.0
  0
POINT
  5
6B
330
62
100
AcDbEntity
  8
chh-txt_Pen_No__1
  6
Continuous
100
AcDbPoint
 10
30.41617006736366
 20
74.10859823936755
 30
0.0
  0
LINE
  5
6C
330
62
100
AcDbEntity
  8
chh-txt_Pen_No__1
  6
Continuous
100
AcDbLine
 10
-14.58382993263627
 20
62.97089961902991
 30
0.0
 11
-14.58382993263627
 21
74.11707472570747
 31
0.0
  0
LINE
  5
6D
330
62
100
AcDbEntity
  8
chh-txt_Pen_No__1
  6
Continuous
100
AcDbLine
 10
30.41617006736366
 20
62.97089961902991
 30
0.0
 11
30.41617006736366
 21
74.11707472570747
 31
0.0
  0
MTEXT
  5
6F
330
62
100
AcDbEntity
  8
chh-txt_Pen_No__7
100
AcDbMText
 10
4.010270065837817
 20
80.10859823936755
 30
0.0
 40
5.0
 41
0.0
 71
     1
 72
     1
  1
{45}
  7
GENERATED_STYLE_1
 73
     1
 44
1.0
  0
ENDBLK
  5
64
330
62
100
AcDbEntity
  8
0
100
AcDbBlockEnd
  0
BLOCK
  5
96
330
95
100
AcDbEntity
  8
0
100
AcDbBlockBegin
  2
ARROWHEAD_2
 70
     0
 10
0.0
 20
0.0
 30
0.0
  3
ARROWHEAD_2
  1

  0
LINE
  5
98
330
95
100
AcDbEntity
  8
0
  6
Continuous
 62
     0
370
     0
100
AcDbLine
 10
-0.3781315
 20
-0.655
 30
0.0
 11
0.3781315
 21
0.655
 31
0.0
  0
LINE
  5
99
330
95
100
AcDbEntity
  8
0
  6
Continuous
 62
     0
370
     0
100
AcDbLine
 10
0.0
 20
0.0
 30
0.0
 11
-1.0
 21
0.0
 31
0.0
  0
ENDBLK
  5
97
330
95
100
AcDbEntity
  8
0
100
AcDbBlockEnd
  0
BLOCK
  5
9B
330
9A
100
AcDbEntity
  8
0
100
AcDbBlockBegin
  2
*D3
 70
     1
 10
0.0
 20
0.0
 30
0.0
  3
*D3
  1

  0
POINT
  5
9D
330
9A
100
AcDbEntity
  8
chh-txt_Pen_No__1
  6
Continuous
100
AcDbPoint
 10
-14.5893556507909
 20
-46.65797096953622
 30
0.0
  0
LINE
  5
9E
330
9A
100
AcDbEntity
  8
chh-txt_Pen_No__1
  6
Continuous
100
AcDbLine
 10
-14.58382898169727
 20
-46.65797096953622
 30
0.0
 11
-5.583828981697375
 21
-46.65797096953622
 31
0.0
  0
LINE
  5
9F
330
9A
100
AcDbEntity
  8
chh-txt_Pen_No__7
  6
Continuous
100
AcDbLine
 10
-14.58056638210504
 20
-46.65231997864294
 30
0.0
 11
-14.58709158128951
 21
-46.6636219604295
 31
0.0
  0
LINE
  5
A0
330
9A
100
AcDbEntity
  8
chh-txt_Pen_No__7
  6
Continuous
100
AcDbLine
 10
-5.587091581289612
 20
-46.6636219604295
 30
0.0
 11
-5.580566382105139
 21
-46.65231997864294
 31
0.0
  0
POINT
  5
A1
330
9A
100
AcDbEntity
  8
chh-txt_Pen_No__1
  6
Continuous
100
AcDbPoint
 10
-5.583828981697375
 20
-46.65797096953622
 30
0.0
  0
LINE
  5
A2
330
9A
100
AcDbEntity
  8
chh-txt_Pen_No__1
  6
Continuous
100
AcDbLine
 10
-14.58382898169727
 20
-46.66644745587615
 30
0.0
 11
-14.58382898169727
 21
-32.65666311141629
 31
0.0
  0
LINE
  5
A3
330
9A
100
AcDbEntity
  8
chh-txt_Pen_No__1
  6
Continuous
100
AcDbLine
 10
-5.583828981697375
 20
-46.66644745587615
 30
0.0
 11
-5.583828981697375
 21
-32.65666311141629
 31
0.0
  0
MTEXT
  5
A4
330
9A
100
AcDbEntity
  8
chh-txt_Pen_No__7
100
AcDbMText
 10
-12.03677147227502
 20
-40.65797096953622
 30
0.0
 40
5.0
 41
0.0
 71
     1
 72
     1
  1
{9}
  7
GENERATED_STYLE_1
 73
     1
 44
1.0
  0
ENDBLK
  5
9C
330
9A
100
AcDbEntity
  8
0
100
AcDbBlockEnd
  0
BLOCK
  5
B2
330
B1
100
AcDbEntity
  8
0
100
AcDbBlockBegin
  2
Untitled _STORY_MARKER
 70
     0
 10
0.0
 20
0.0
 30
0.0
  3
Untitled _STORY_MARKER
  1

  0
ENDBLK
  5
B3
330
B1
100
AcDbEntity
  8
0
100
AcDbBlockEnd
  0
ENDSEC
  0
SECTION
  2
ENTITIES
  0
HATCH
  5
3B
330
1F
100
AcDbEntity
  8
chh-08_Pen_No__8_Pen_No__101
  6
Continuous
100
AcDbHatch
 10
0.0
 20
0.0
 30
0.0
210
0.0
220
0.0
230
1.0
  2
Plywood
 70
     0
 71
     0
 91
        1
 92
        2
 72
     1
 73
     1
 93
       19
 10
-16.46444763538576
 20
-8.851379217345634
 42
0.0
 10
-14.58382993263638
 20
-6.970761514594138
 42
0.0
 10
-14.58382993263638
 20
-3.662579050541737
 42
-0.3208279044782901
 10
-13.5829794634684
 20
-4.485407355455607
 42
0.0
 10
-12.66122167209824
 20
-4.485407355455607
 42
-0.7673269882986307
 10
-10.51001281868966
 20
-4.485407355455607
 42
0.0
 10
-9.657647046582978
 20
-4.485407355455607
 42
-0.7673269882986307
 10
-7.506438193174398
 20
-4.485407355455607
 42
0.0
 10
-6.584680401804349
 20
-4.485407355455607
 42
-0.3208279044782879
 10
-5.58382993263637
 20
-3.662579050541737
 42
0.0
 10
-5.58382993263637
 20
-3.351379217345574
 42
0.0
 10
0.416170067363747
 20
-3.351379217345574
 42
0.0
 10
0.4161700673636359
 20
-0.8873987044270559
 42
0.0
 10
5.41617006736364
 20
-0.8873987044270559
 42
0.0
 10
5.41617006736364
 20
-3.351379217345574
 42
0.0
 10
10.41617006736364
 20
-3.351379217345574
 42
0.0
 10
10.41617006736364
 20
3.148620782654377
 42
0.0
 10
-81.61942290380328
 20
3.146303922979599
 42
0.0
 10
-81.61942290380328
 20
-8.851379217345634
 42
0.0
 97
        0
 75
     0
 76
     2
 52
0.0
 41
1.0
 77
     0
 78
     1
 53
0.0
 43
0.0
 44
0.0
 45
0.0
 46
2.4
 79
     0
 98
        0
  0
HATCH
  5
3D
330
1F
100
AcDbEntity
  8
chh-08_Pen_No__8_Pen_No__101
  6
Continuous
100
AcDbHatch
 10
0.0
 20
0.0
 30
0.0
210
0.0
220
0.0
230
1.0
  2
Plywood
 70
     0
 71
     0
 91
        1
 92
        2
 72
     0
 73
     1
 93
        7
 10
15.41617101830264
 20
3.144714532654025
 10
15.41617101830264
 20
-3.353332342345527
 10
-5.583828981697375
 20
-3.353332342345527
 10
-5.583828981697375
 20
-7.38368513778348
 10
-4.456129018828276
 20
-8.853332342345588
 10
122.4517630385306
 20
-8.853332342346032
 10
122.4517630385306
 20
3.144714532653581
 97
        0
 75
     0
 76
     2
 52
0.0
 41
1.0
 77
     0
 78
     1
 53
0.0
 43
0.0
 44
0.0
 45
0.0
 46
2.4
 79
     0
 98
        0
  0
HATCH
  5
3E
330
1F
100
AcDbEntity
  8
chh-09_Pen_No__9_Pen_No__2
  6
Continuous
100
AcDbHatch
 10
0.0
 20
0.0
 30
0.0
210
0.0
220
0.0
230
1.0
  2
SOLID
 70
     1
 71
     0
 91
        1
 92
        2
 72
     0
 73
     1
 93
        3
 10
-9.709380324393251
 20
-52.14417423389922
 10
-10.40938002380606
 20
-47.94417603742901
 10
-11.10937972321688
 20
-52.14417423389966
 97
        0
 75
     0
 76
     1
 98
        0
  0
HATCH
  5
40
330
1F
100
AcDbEntity
  8
chh-09_Pen_No__9_Pen_No__2
  6
Continuous
100
AcDbHatch
 10
0.0
 20
0.0
 30
0.0
210
0.0
220
0.0
230
1.0
  2
SOLID
 70
     1
 71
     0
 91
        1
 92
        2
 72
     0
 73
     1
 93
        3
 10
27.11144340199048
 20
38.22244147919862
 10
27.11144340199082
 20
39.62244087802247
 10
22.9114452055206
 20
38.92244117861166
 97
        0
 75
     0
 76
     1
 98
        0
  0
HATCH
  5
41
330
1F
100
AcDbEntity
  8
chh-09_Pen_No__9_Pen_No__2
  6
Continuous
100
AcDbHatch
 10
0.0
 20
0.0
 30
0.0
210
0.0
220
0.0
230
1.0
  2
SOLID
 70
     1
 71
     0
 91
        1
 92
        2
 72
     0
 73
     1
 93
        3
 10
36.20099839609939
 20
8.144566573814515
 10
34.80099899727576
 20
8.14456657381496
 10
35.50099869668669
 20
3.944568377344748
 97
        0
 75
     0
 76
     1
 98
        0
  0
HATCH
  5
42
330
1F
100
AcDbEntity
  8
chh-09_Pen_No__9_Pen_No__2
  6
Continuous
100
AcDbHatch
 10
0.0
 20
0.0
 30
0.0
210
0.0
220
0.0
230
1.0
  2
SOLID
 70
     1
 71
     0
 91
        1
 92
        2
 72
     0
 73
     1
 93
        3
 10
-2.992884349512587
 20
-35.84398123524729
 10
-2.002935280947055
 20
-34.85403216668209
 10
-5.467757020924474
 20
-32.37915949526887
 97
        0
 75
     0
 76
     1
 98
        0
  0
HATCH
  5
43
330
1F
100
AcDbEntity
  8
chh-09_Pen_No__9_Pen_No__2
  6
Continuous
100
AcDbHatch
 10
0.0
 20
0.0
 30
0.0
210
0.0
220
0.0
230
1.0
  2
SOLID
 70
     1
 71
     0
 91
        1
 92
        2
 72
     0
 73
     1
 93
        3
 10
0.4753169133333845
 20
-9.100254967311095
 10
1.465265981898806
 20
-8.110305898745452
 10
-1.999555758078503
 20
-5.635433227332232
 97
        0
 75
     0
 76
     1
 98
        0
  0
HATCH
  5
44
330
1F
100
AcDbEntity
  8
chh-09_Pen_No__9_Pen_No__2
  6
Continuous
100
AcDbHatch
 10
0.0
 20
0.0
 30
0.0
210
0.0
220
0.0
230
1.0
  2
SOLID
 70
     1
 71
     0
 91
        1
 92
        2
 72
     0
 73
     1
 93
        3
 10
23.86282112670571
 20
-12.65103157687947
 10
24.85277019527124
 20
-11.66108250831427
 10
21.38794845529382
 20
-9.18620983690105
 97
        0
 75
     0
 76
     1
 98
        0
  0
LINE
  5
45
330
1F
100
AcDbEntity
  8
chh-08_Pen_No__8_Pen_No__81
  6
Continuous
100
AcDbLine
 10
-14.58382993263627
 20
5.191445836403574
 30
0.0
 11
1.152674839183271
 21
58.87917909706164
 31
0.0
  0
LINE
  5
47
330
1F
100
AcDbEntity
  8
chh-08_Pen_No__8_Pen_No__81
  6
Continuous
100
AcDbLine
 10
30.41617006736355
 20
5.191445836403574
 30
0.0
 11
14.67966529554413
 21
58.87917909706164
 31
0.0
  0
LINE
  5
49
330
1F
100
AcDbEntity
  8
chh-08_Pen_No__8_Pen_No__1
  6
DASHEDX2
100
AcDbLine
 10
-81.61942290380328
 20
4.14471453265347
 30
0.0
 11
122.4517630385306
 21
4.14471453265347
 31
0.0
  0
LINE
  5
4B
330
1F
100
AcDbEntity
  8
chh-08_Pen_No__8_Pen_No__1
  6
Continuous
100
AcDbLine
 10
30.41617006736355
 20
5.191445836403574
 30
0.0
 11
122.4517630385306
 21
5.191445836403574
 31
0.0
  0
LINE
  5
4C
330
1F
100
AcDbEntity
  8
chh-08_Pen_No__8_Pen_No__1
  6
Continuous
100
AcDbLine
 10
-81.61942290380328
 20
5.191445836403574
 30
0.0
 11
-14.58382993263627
 21
5.191445836403574
 31
0.0
  0
LWPOLYLINE
  5
4D
330
1F
100
AcDbEntity
  8
chh-08_Pen_No__8_Pen_No__81
  6
Continuous
100
AcDbPolyline
 90
        6
 70
   128
 43
0.0
 10
122.4517630385306
 20
-13.26704265040107
 10
122.4517630385306
 20
32.64444252342879
 10
132.2654164429692
 20
32.64444252342879
 10
112.6381096340921
 20
39.18687812638832
 10
122.4517630385306
 20
39.18687812638832
 10
122.4517630385306
 20
52.8873523717589
  0
LWPOLYLINE
  5
4E
330
1F
100
AcDbEntity
  8
chh-08_Pen_No__8_Pen_No__81
  6
Continuous
100
AcDbPolyline
 90
        6
 70
   128
 43
0.0
 10
34.88078089632388
 20
58.87917909706164
 10
11.18738786884324
 20
58.87917909706164
 10
11.18738786884302
 20
68.69283250150005
 10
4.644952265884267
 20
49.06552569262323
 10
4.644952265884267
 20
58.87917909706164
 10
-19.04844076159659
 20
58.87917909706164
  0
LWPOLYLINE
  5
4F
330
1F
100
AcDbEntity
  8
chh-08_Pen_No__8_Pen_No__81
  6
Continuous
100
AcDbPolyline
 90
        6
 70
   128
 43
0.0
 10
-81.61942290380328
 20
-13.26704265040107
 10
-81.61942290380328
 20
32.64444252342879
 10
-71.80576949936476
 20
32.64444252342879
 10
-91.4330763082418
 20
39.18687812638832
 10
-81.61942290380328
 20
39.18687812638832
 10
-81.61942290380328
 20
52.8873523717589
  0
LWPOLYLINE
  5
51
330
1F
100
AcDbEntity
  8
chh-08_Pen_No__8_Pen_No__2
  6
Hidden
100
AcDbPolyline
 90
        4
 70
   129
 43
0.0
 10
-14.58382898169727
 20
-30.79425049981993
 10
-5.583828981697375
 20
-30.79425049981993
 10
-5.583828981697375
 20
-5.036549569255644
 10
-14.58382898169727
 20
-5.036549569255644
  0
LWPOLYLINE
  5
53
330
1F
100
AcDbEntity
  8
chh-08_Pen_No__8_Pen_No__2
  6
Hidden
100
AcDbPolyline
 90
        2
 70
   128
 43
0.0
 10
-14.58382898169727
 20
-5.036549569255644
 10
-5.583828981697375
 20
-30.79425049981993
  0
LWPOLYLINE
  5
54
330
1F
100
AcDbEntity
  8
chh-06_Pen_No__7_Pen_No__7
  6
Continuous
100
AcDbPolyline
 90
       19
 70
   128
 43
0.0
 10
-81.61942290380328
 20
-8.851379217345634
 10
-16.46444763538576
 20
-8.851379217345634
 10
-14.58382993263638
 20
-6.970761514594138
 10
-14.58382993263638
 20
-3.662579050541737
 42
-0.32082790447829
 10
-13.5829794634684
 20
-4.485407355455607
 10
-12.66122167209824
 20
-4.485407355455607
 42
-0.7673269882986307
 10
-10.51001281868966
 20
-4.485407355455607
 10
-9.657647046582978
 20
-4.485407355455607
 42
-0.7673269882986307
 10
-7.506438193174398
 20
-4.485407355455607
 10
-6.584680401804349
 20
-4.485407355455607
 42
-0.320827904478288
 10
-5.58382993263637
 20
-3.662579050541737
 10
-5.58382993263637
 20
-3.351379217345574
 10
0.4161700673636359
 20
-3.351379217345574
 10
0.4161700673636359
 20
-0.8873987044270559
 10
5.41617006736364
 20
-0.8873987044270559
 10
5.41617006736364
 20
-3.351379217345574
 10
10.41617006736364
 20
-3.351379217345574
 10
10.41617006736364
 20
3.148620782654377
 10
-81.61942290380317
 20
3.146303922979599
  0
LWPOLYLINE
  5
56
330
1F
100
AcDbEntity
  8
chh-06_Pen_No__7_Pen_No__7
  6
Continuous
100
AcDbPolyline
 90
        7
 70
   128
 43
0.0
 10
122.4517630385306
 20
3.144714532653581
 10
15.41617101830264
 20
3.144714532654025
 10
15.41617101830264
 20
-3.353332342345527
 10
-5.583828981697375
 20
-3.353332342345527
 10
-5.583828981697375
 20
-7.38368513778348
 10
-4.456129018828387
 20
-8.853332342345588
 10
122.4517630385306
 20
-8.853332342346032
  0
LWPOLYLINE
  5
57
330
1F
100
AcDbEntity
  8
chh-05_Pen_No__7_Pen_No__7
  6
Continuous
100
AcDbPolyline
 90
        4
 70
   128
 43
0.0
 10
30.41617006736366
 20
58.87917909706164
 10
30.41617006736366
 20
5.191445836403574
 10
-14.58382993263627
 20
5.191445836403574
 10
-14.58382993263627
 20
58.87917909706164
  0
LWPOLYLINE
  5
59
330
1F
100
AcDbEntity
  8
chh-09_Pen_No__9_Pen_No__2
  6
Continuous
100
AcDbPolyline
 90
        3
 70
   128
 43
0.0
 10
52.58648068605601
 20
-68.76700970626598
 10
-10.40938002380507
 20
-68.76700970626598
 10
-10.40938002380507
 20
-52.14417423389922
  0
LWPOLYLINE
  5
5A
330
1F
100
AcDbEntity
  8
chh-09_Pen_No__9_Pen_No__2
  6
Continuous
100
AcDbPolyline
 90
        2
 70
   128
 43
0.0
 10
52.47972551235683
 20
38.92244117861077
 10
27.11144340199059
 20
38.92244117861077
  0
LWPOLYLINE
  5
5B
330
1F
100
AcDbEntity
  8
chh-09_Pen_No__9_Pen_No__2
  6
Continuous
100
AcDbPolyline
 90
        3
 70
   128
 43
0.0
 10
52.47972551235683
 20
24.6863956762059
 10
35.50099869668757
 20
24.6863956762059
 10
35.50099869668757
 20
8.14456657381496
  0
LWPOLYLINE
  5
5C
330
1F
100
AcDbEntity
  8
chh-09_Pen_No__9_Pen_No__2
  6
Continuous
100
AcDbPolyline
 90
        3
 70
   128
 43
0.0
 10
52.2140245512033
 20
-54.44965349758596
 10
16.60273698138973
 20
-54.44965349758596
 10
-2.497909815229876
 20
-35.34900670096491
  0
LWPOLYLINE
  5
5D
330
1F
100
AcDbEntity
  8
chh-txt_Pen_No__7_Pen_No__7
  6
Hidden
100
AcDbPolyline
 90
        9
 70
   128
 43
0.0
 10
-5.071816647188005
 20
-2.986938074858336
 10
-5.108359510804989
 20
-1.64440838344343
 10
-4.120088951335616
 20
-1.199879245787183
 10
-5.539866277771782
 20
50.96059826677235
 10
-4.172162270185659
 20
55.51192828166884
 10
-2.558897832106472
 20
51.04173846356186
 10
-1.139120505670416
 20
-1.118739048999007
 10
-0.128131549877869
 20
-1.508849525930056
 10
-0.091588686260885
 20
-2.851379217344963
  0
LWPOLYLINE
  5
5F
330
1F
100
AcDbEntity
  8
chh-txt_Pen_No__7_Pen_No__7
  6
Hidden
100
AcDbPolyline
 90
        9
 70
   128
 43
0.0
 10
17.92530564812148
 20
-8.851379217336309
 10
17.92530564812148
 20
-7.508352280445941
 10
18.92530564812148
 20
-7.090877906455962
 10
18.92530564812148
 20
45.08891877765364
 10
20.41634191571798
 20
49.60134938715643
 10
21.90737818338742
 20
45.08891877765364
 10
21.90737818338742
 20
-7.090877906455962
 10
22.90737818338731
 20
-7.508352280454822
 10
22.90737818338731
 20
-8.851379217345634
  0
LWPOLYLINE
  5
60
330
1F
100
AcDbEntity
  8
chh-09_Pen_No__9_Pen_No__2
  6
Continuous
100
AcDbPolyline
 90
        3
 70
   128
 43
0.0
 10
52.2140245512033
 20
-41.74069767687411
 10
34.10570869145938
 20
-41.74069767687411
 10
0.9702914476159841
 20
-8.605280433028273
  0
LWPOLYLINE
  5
61
330
1F
100
AcDbEntity
  8
chh-09_Pen_No__9_Pen_No__2
  6
Continuous
100
AcDbPolyline
 90
        3
 70
   128
 43
0.0
 10
52.2140245512033
 20
-20.44683601428216
 10
32.64857463267304
 20
-20.44683601428216
 10
24.35779566098842
 20
-12.15605704259709
  0
DIMENSION
  5
92
330
1F
100
AcDbEntity
  8
chh-txt
  6
Continuous
100
AcDbDimension
  2
*D1
 10
-14.58382993263627
 20
74.10859823936755
 30
0.0
 11
7.758845065837818
 21
77.60859823936755
 31
0.0
 70
    32
 71
     5
 42
-1.0
  3
GENERATED_STYLE__1
100
AcDbAlignedDimension
 13
-14.58382993263627
 23
61.97089961902991
 33
0.0
 14
30.41617006736366
 24
61.97089961902991
 34
0.0
100
AcDbRotatedDimension
  0
DIMENSION
  5
A5
330
1F
100
AcDbEntity
  8
chh-txt
  6
Continuous
100
AcDbDimension
  2
*D3
 10
-14.58382898169727
 20
-46.65797096953622
 30
0.0
 11
-10.16248397227502
 21
-43.15797096953622
 31
0.0
 70
    32
 71
     5
 42
-1.0
  3
GENERATED_STYLE__1
100
AcDbAlignedDimension
 13
-14.58382898169727
 23
-31.65666311141629
 33
0.0
 14
-5.583828981697375
 24
-31.65666311141629
 34
0.0
100
AcDbRotatedDimension
  0
MTEXT
  5
A6
330
1F
100
AcDbEntity
  8
chh-txt_Pen_No__7_Pen_No__7
  6
Continuous
100
AcDbMText
 10
55.42390320197213
 20
38.59878726257165
 30
0.0
 40
5.0
 41
0.0
 71
     7
 72
     1
  1
{Stud}
  7
GENERATED_STYLE_1
 73
     1
 44
1.0
  0
MTEXT
  5
A7
330
1F
100
AcDbEntity
  8
chh-txt_Pen_No__7_Pen_No__7
  6
Continuous
100
AcDbMText
 10
55.42390320197213
 20
-20.47377635140124
 30
0.0
 40
5.0
 41
0.0
 71
     7
 72
     1
  1
{Sheets to be fastened off }
  7
GENERATED_STYLE_1
 73
     1
 44
1.0
  0
MTEXT
  5
A8
330
1F
100
AcDbEntity
  8
chh-txt_Pen_No__7_Pen_No__7
  6
Continuous
100
AcDbMText
 10
55.57405335212231
 20
-30.13427002555807
 30
0.0
 40
5.0
 41
0.0
 71
     7
 72
     1
  1
{independently of each other}
  7
GENERATED_STYLE_1
 73
     1
 44
1.0
  0
MTEXT
  5
A9
330
1F
100
AcDbEntity
  8
chh-txt_Pen_No__7_Pen_No__7
  6
Continuous
100
AcDbMText
 10
55.40888818695714
 20
-70.20444371754158
 30
0.0
 40
5.0
 41
0.0
 71
     7
 72
     1
  1
{9mm gap at exterior face of sheets }
  7
GENERATED_STYLE_1
 73
     1
 44
1.0
  0
MTEXT
  5
AA
330
1F
100
AcDbEntity
  8
chh-txt_Pen_No__7_Pen_No__7
  6
Continuous
100
AcDbMText
 10
55.62910840717731
 20
22.95224808601027
 30
0.0
 40
5.0
 41
0.0
 71
     7
 72
     1
  1
{Building underlay}
  7
GENERATED_STYLE_1
 73
     1
 44
1.0
  0
MTEXT
  5
AB
330
1F
100
AcDbEntity
  8
chh-txt_Pen_No__7_Pen_No__7
  6
Continuous
100
AcDbMText
 10
55.16364294171186
 20
-78.45444371754145
 30
0.0
 40
5.0
 41
0.0
 71
     7
 72
     1
  1
{for Shadowclad Groove profile only}
  7
GENERATED_STYLE_1
 73
     1
 44
1.0
  0
MTEXT
  5
AC
330
1F
100
AcDbEntity
  8
chh-txt_Pen_No__7_Pen_No__7
  6
Continuous
100
AcDbMText
 10
55.6591384372074
 20
-56.79168675205908
 30
0.0
 40
5.0
 41
0.0
 71
     7
 72
     1
  1
{Use temporary 9mm spacer}
  7
GENERATED_STYLE_1
 73
     1
 44
1.0
  0
MTEXT
  5
AD
330
1F
100
AcDbEntity
  8
Defpoints_Pen_No__211_Pen_No__115
  6
Continuous
100
AcDbMText
 10
-101.5421168362115
 20
-135.2175128023925
 30
0.0
 40
10.0
 41
0.0
 71
     7
 72
     1
  1
{SC007 Shadowclad Groove Vertical }
  7
GENERATED_STYLE_1
 73
     1
 44
1.0
  0
MTEXT
  5
AF
330
1F
100
AcDbEntity
  8
Defpoints_Pen_No__211_Pen_No__115
  6
Continuous
100
AcDbMText
 10
-101.7607354548301
 20
-155.3961623799329
 30
0.0
 40
10.0
 41
0.0
 71
     7
 72
     1
  1
{Joint (Direct)}
  7
GENERATED_STYLE_1
 73
     1
 44
1.0
  0
MTEXT
  5
B0
330
1F
100
AcDbEntity
  8
chh-txt_Pen_No__7_Pen_No__7
  6
Continuous
100
AcDbMText
 10
55.6691484472174
 20
-43.5319705448241
 30
0.0
 40
5.0
 41
0.0
 71
     7
 72
     1
  1
{Fix clear of weather groove}
  7
GENERATED_STYLE_1
 73
     1
 44
1.0
  0
ENDSEC
  0
SECTION
  2
OBJECTS
  0
DICTIONARY
  5
C
330
0
100
AcDbDictionary
281
     1
  3
ACAD_GROUP
350
D
  3
ACAD_LAYOUT
350
1A
  3
ACAD_MLEADERSTYLE
350
B9
  3
ACAD_MLINESTYLE
350
17
  3
ACAD_PLOTSETTINGS
350
19
  3
ACAD_PLOTSTYLENAME
350
E
  3
ACAD_SCALELIST
350
70
  3
ACAD_TABLESTYLE
350
B8
  3
ACAD_VISUALSTYLE
350
2A
  3
AcDbVariableDictionary
350
B6
  3
WATERMARKS
350
B4
  0
DICTIONARY
  5
D
102
{ACAD_REACTORS
330
C
102
}
330
C
100
AcDbDictionary
281
     1
  0
DICTIONARY
  5
1A
102
{ACAD_REACTORS
330
C
102
}
330
C
100
AcDbDictionary
281
     1
  3
Layout1
350
1E
  3
Layout2
350
26
  3
Model
350
22
  0
DICTIONARY
  5
B9
102
{ACAD_REACTORS
330
C
102
}
330
C
100
AcDbDictionary
281
     1
  0
DICTIONARY
  5
17
102
{ACAD_REACTORS
330
C
102
}
330
C
100
AcDbDictionary
281
     1
  3
Standard
350
18
  0
DICTIONARY
  5
19
102
{ACAD_REACTORS
330
C
102
}
330
C
100
AcDbDictionary
281
     1
  0
ACDBDICTIONARYWDFLT
  5
E
102
{ACAD_REACTORS
330
C
102
}
330
C
100
AcDbDictionary
281
     1
  3
Normal
350
F
100
AcDbDictionaryWithDefault
340
F
  0
DICTIONARY
  5
70
102
{ACAD_REACTORS
330
C
102
}
330
C
100
AcDbDictionary
281
     1
  3
A0
350
71
  3
A1
350
72
  3
A2
350
73
  3
A3
350
74
  3
A4
350
75
  3
A5
350
76
  3
A6
350
77
  3
A7
350
78
  3
A8
350
79
  3
A9
350
7A
  3
B0
350
7B
  3
B1
350
7C
  3
B2
350
7D
  3
B3
350
7E
  3
B4
350
7F
  3
B5
350
80
  3
B6
350
81
  3
B7
350
82
  3
B8
350
83
  3
B9
350
84
  3
C0
350
85
  3
C1
350
86
  3
C2
350
87
  3
C3
350
88
  3
C4
350
89
  3
C5
350
8A
  3
C6
350
8B
  3
C7
350
8C
  3
C8
350
8D
  3
C9
350
8E
  3
D0
350
8F
  3
D1
350
90
  3
D2
350
91
  0
DICTIONARY
  5
B8
102
{ACAD_REACTORS
330
C
102
}
330
C
100
AcDbDictionary
281
     1
  0
DICTIONARY
  5
2A
102
{ACAD_REACTORS
330
C
102
}
330
C
100
AcDbDictionary
281
     1
  3
2dWireframe
350
2F
  3
3D Hidden
350
31
  3
3dWireframe
350
30
  3
Basic
350
32
  3
Brighten
350
36
  3
ColorChange
350
3A
  3
Conceptual
350
34
  3
Dim
350
35
  3
Facepattern
350
39
  3
Flat
350
2B
  3
FlatWithEdges
350
2C
  3
Gouraud
350
2D
  3
GouraudWithEdges
350
2E
  3
Linepattern
350
38
  3
Realistic
350
33
  3
Thicken
350
37
  0
DICTIONARY
  5
B6
102
{ACAD_REACTORS
330
C
102
}
330
C
100
AcDbDictionary
281
     1
  3
CANNOSCALE
350
B7
  0
DICTIONARY
  5
B4
102
{ACAD_REACTORS
330
C
102
}
330
C
100
AcDbDictionary
281
     1
  3
AC_WATERMARK
350
B5
  0
LAYOUT
  5
1E
102
{ACAD_REACTORS
330
1A
102
}
330
1A
100
AcDbPlotSettings
  1

  2
none_device
  4

  6

 40
0.0
 41
0.0
 42
0.0
 43
0.0
 44
0.0
 45
0.0
 46
0.0
 47
0.0
 48
0.0
 49
0.0
140
0.0
141
0.0
142
1.0
143
1.0
 70
   688
 72
     0
 73
     0
 74
     5
  7

 75
    16
 76
     0
 77
     2
 78
   300
147
1.0
148
0.0
149
0.0
100
AcDbLayout
  1
Layout1
 70
     1
 71
     1
 10
0.0
 20
0.0
 11
12.0
 21
9.0
 12
0.0
 22
0.0
 32
0.0
 14
1.000000000000000E+20
 24
1.000000000000000E+20
 34
1.000000000000000E+20
 15
-1.000000000000000E+20
 25
-1.000000000000000E+20
 35
-1.000000000000000E+20
146
0.0
 13
0.0
 23
0.0
 33
0.0
 16
1.0
 26
0.0
 36
0.0
 17
0.0
 27
1.0
 37
0.0
 76
     0
330
1B
  0
LAYOUT
  5
26
102
{ACAD_REACTORS
330
1A
102
}
330
1A
100
AcDbPlotSettings
  1

  2
none_device
  4

  6

 40
0.0
 41
0.0
 42
0.0
 43
0.0
 44
0.0
 45
0.0
 46
0.0
 47
0.0
 48
0.0
 49
0.0
140
0.0
141
0.0
142
1.0
143
1.0
 70
   688
 72
     0
 73
     0
 74
     5
  7

 75
    16
 76
     0
 77
     2
 78
   300
147
1.0
148
0.0
149
0.0
100
AcDbLayout
  1
Layout2
 70
     1
 71
     2
 10
0.0
 20
0.0
 11
0.0
 21
0.0
 12
0.0
 22
0.0
 32
0.0
 14
0.0
 24
0.0
 34
0.0
 15
0.0
 25
0.0
 35
0.0
146
0.0
 13
0.0
 23
0.0
 33
0.0
 16
1.0
 26
0.0
 36
0.0
 17
0.0
 27
1.0
 37
0.0
 76
     0
330
23
  0
LAYOUT
  5
22
102
{ACAD_REACTORS
330
1A
102
}
330
1A
100
AcDbPlotSettings
  1

  2
none_device
  4

  6

 40
0.0
 41
0.0
 42
0.0
 43
0.0
 44
0.0
 45
0.0
 46
0.0
 47
0.0
 48
0.0
 49
0.0
140
0.0
141
0.0
142
1.0
143
1.0
 70
  1712
 72
     0
 73
     0
 74
     0
  7

 75
     0
 76
     0
 77
     2
 78
   300
147
1.0
148
0.0
149
0.0
100
AcDbLayout
  1
Model
 70
     1
 71
     0
 10
0.0
 20
0.0
 11
12.0
 21
9.0
 12
0.0
 22
0.0
 32
0.0
 14
1.000000000000000E+20
 24
1.000000000000000E+20
 34
1.000000000000000E+20
 15
-1.000000000000000E+20
 25
-1.000000000000000E+20
 35
-1.000000000000000E+20
146
0.0
 13
0.0
 23
0.0
 33
0.0
 16
1.0
 26
0.0
 36
0.0
 17
0.0
 27
1.0
 37
0.0
 76
     0
330
1F
331
29
  0
MLINESTYLE
  5
18
102
{ACAD_REACTORS
330
17
102
}
330
17
100
AcDbMlineStyle
  2
Standard
 70
     0
  3

 62
   256
 51
90.0
 52
90.0
 71
     2
 49
0.5
 62
   256
  6
BYLAYER
 49
-0.5
 62
   256
  6
BYLAYER
  0
ACDBPLACEHOLDER
  5
F
102
{ACAD_REACTORS
330
E
102
}
330
E
  0
SCALE
  5
71
102
{ACAD_REACTORS
330
70
102
}
330
70
100
AcDbScale
 70
     0
300
1:1
140
1.0
141
1.0
290
     1
  0
SCALE
  5
72
102
{ACAD_REACTORS
330
70
102
}
330
70
100
AcDbScale
 70
     0
300
1:2
140
1.0
141
2.0
290
     0
  0
SCALE
  5
73
102
{ACAD_REACTORS
330
70
102
}
330
70
100
AcDbScale
 70
     0
300
1:4
140
1.0
141
4.0
290
     0
  0
SCALE
  5
74
102
{ACAD_REACTORS
330
70
102
}
330
70
100
AcDbScale
 70
     0
300
1:5
140
1.0
141
5.0
290
     0
  0
SCALE
  5
75
102
{ACAD_REACTORS
330
70
102
}
330
70
100
AcDbScale
 70
     0
300
1:8
140
1.0
141
8.0
290
     0
  0
SCALE
  5
76
102
{ACAD_REACTORS
330
70
102
}
330
70
100
AcDbScale
 70
     0
300
1:10
140
1.0
141
10.0
290
     0
  0
SCALE
  5
77
102
{ACAD_REACTORS
330
70
102
}
330
70
100
AcDbScale
 70
     0
300
1:16
140
1.0
141
16.0
290
     0
  0
SCALE
  5
78
102
{ACAD_REACTORS
330
70
102
}
330
70
100
AcDbScale
 70
     0
300
1:20
140
1.0
141
20.0
290
     0
  0
SCALE
  5
79
102
{ACAD_REACTORS
330
70
102
}
330
70
100
AcDbScale
 70
     0
300
1:30
140
1.0
141
30.0
290
     0
  0
SCALE
  5
7A
102
{ACAD_REACTORS
330
70
102
}
330
70
100
AcDbScale
 70
     0
300
1:40
140
1.0
141
40.0
290
     0
  0
SCALE
  5
7B
102
{ACAD_REACTORS
330
70
102
}
330
70
100
AcDbScale
 70
     0
300
1:50
140
1.0
141
50.0
290
     0
  0
SCALE
  5
7C
102
{ACAD_REACTORS
330
70
102
}
330
70
100
AcDbScale
 70
     0
300
1:100
140
1.0
141
100.0
290
     0
  0
SCALE
  5
7D
102
{ACAD_REACTORS
330
70
102
}
330
70
100
AcDbScale
 70
     0
300
2:1
140
2.0
141
1.0
290
     0
  0
SCALE
  5
7E
102
{ACAD_REACTORS
330
70
102
}
330
70
100
AcDbScale
 70
     0
300
4:1
140
4.0
141
1.0
290
     0
  0
SCALE
  5
7F
102
{ACAD_REACTORS
330
70
102
}
330
70
100
AcDbScale
 70
     0
300
8:1
140
8.0
141
1.0
290
     0
  0
SCALE
  5
80
102
{ACAD_REACTORS
330
70
102
}
330
70
100
AcDbScale
 70
     0
300
10:1
140
10.0
141
1.0
290
     0
  0
SCALE
  5
81
102
{ACAD_REACTORS
330
70
102
}
330
70
100
AcDbScale
 70
     0
300
100:1
140
100.0
141
1.0
290
     0
  0
SCALE
  5
82
102
{ACAD_REACTORS
330
70
102
}
330
70
100
AcDbScale
 70
     0
300
1/128" = 1'-0"
140
0.0078125
141
12.0
290
     0
  0
SCALE
  5
83
102
{ACAD_REACTORS
330
70
102
}
330
70
100
AcDbScale
 70
     0
300
1/64" = 1'-0"
140
0.015625
141
12.0
290
     0
  0
SCALE
  5
84
102
{ACAD_REACTORS
330
70
102
}
330
70
100
AcDbScale
 70
     0
300
1/32" = 1'-0"
140
0.03125
141
12.0
290
     0
  0
SCALE
  5
85
102
{ACAD_REACTORS
330
70
102
}
330
70
100
AcDbScale
 70
     0
300
1/16" = 1'-0"
140
0.0625
141
12.0
290
     0
  0
SCALE
  5
86
102
{ACAD_REACTORS
330
70
102
}
330
70
100
AcDbScale
 70
     0
300
3/32" = 1'-0"
140
0.09375
141
12.0
290
     0
  0
SCALE
  5
87
102
{ACAD_REACTORS
330
70
102
}
330
70
100
AcDbScale
 70
     0
300
1/8" = 1'-0"
140
0.125
141
12.0
290
     0
  0
SCALE
  5
88
102
{ACAD_REACTORS
330
70
102
}
330
70
100
AcDbScale
 70
     0
300
3/16" = 1'-0"
140
0.1875
141
12.0
290
     0
  0
SCALE
  5
89
102
{ACAD_REACTORS
330
70
102
}
330
70
100
AcDbScale
 70
     0
300
1/4" = 1'-0"
140
0.25
141
12.0
290
     0
  0
SCALE
  5
8A
102
{ACAD_REACTORS
330
70
102
}
330
70
100
AcDbScale
 70
     0
300
3/8" = 1'-0"
140
0.375
141
12.0
290
     0
  0
SCALE
  5
8B
102
{ACAD_REACTORS
330
70
102
}
330
70
100
AcDbScale
 70
     0
300
1/2" = 1'-0"
140
0.5
141
12.0
290
     0
  0
SCALE
  5
8C
102
{ACAD_REACTORS
330
70
102
}
330
70
100
AcDbScale
 70
     0
300
3/4" = 1'-0"
140
0.75
141
12.0
290
     0
  0
SCALE
  5
8D
102
{ACAD_REACTORS
330
70
102
}
330
70
100
AcDbScale
 70
     0
300
1" = 1'-0"
140
1.0
141
12.0
290
     0
  0
SCALE
  5
8E
102
{ACAD_REACTORS
330
70
102
}
330
70
100
AcDbScale
 70
     0
300
1-1/2" = 1'-0"
140
1.5
141
12.0
290
     0
  0
SCALE
  5
8F
102
{ACAD_REACTORS
330
70
102
}
330
70
100
AcDbScale
 70
     0
300
3" = 1'-0"
140
3.0
141
12.0
290
     0
  0
SCALE
  5
90
102
{ACAD_REACTORS
330
70
102
}
330
70
100
AcDbScale
 70
     0
300
6" = 1'-0"
140
6.0
141
12.0
290
     0
  0
SCALE
  5
91
102
{ACAD_REACTORS
330
70
102
}
330
70
100
AcDbScale
 70
     0
300
1'-0" = 1'-0"
140
12.0
141
12.0
290
     0
  0
VISUALSTYLE
  5
2F
102
{ACAD_REACTORS
330
2A
102
}
330
2A
100
AcDbVisualStyle
  2
2dWireframe
 70
     4
 71
     0
 72
     2
 73
     0
 90
        0
 40
-0.6
 41
-30.0
 62
     5
 63
     7
421
 16777215
 74
     1
 91
        4
 64
     7
 65
   257
 75
     1
175
     1
 42
1.0
 92
        0
 66
   257
 43
1.0
 76
     1
 77
     6
 78
     2
 67
     7
 79
     5
170
     0
171
     0
290
     0
174
     0
 93
        1
 44
0.0
173
     0
291
     0
 45
0.0
1001
ACAD
1000
AcDbSavedByObjectVersion
1070
     0
  0
VISUALSTYLE
  5
31
102
{ACAD_REACTORS
330
2A
102
}
330
2A
100
AcDbVisualStyle
  2
3D Hidden
 70
     6
 71
     1
 72
     2
 73
     2
 90
        0
 40
-0.6
 41
-30.0
 62
     5
 63
     7
421
 16777215
 74
     2
 91
        2
 64
     7
 65
   257
 75
     2
175
     1
 42
40.0
 92
        0
 66
   257
 43
1.0
 76
     1
 77
     6
 78
     2
 67
     7
 79
     3
170
     0
171
     0
290
     0
174
     0
 93
        1
 44
0.0
173
     0
291
     0
 45
0.0
1001
ACAD
1000
AcDbSavedByObjectVersion
1070
     0
  0
VISUALSTYLE
  5
30
102
{ACAD_REACTORS
330
2A
102
}
330
2A
100
AcDbVisualStyle
  2
3dWireframe
 70
     5
 71
     0
 72
     2
 73
     0
 90
        0
 40
-0.6
 41
-30.0
 62
     5
 63
     7
421
 16777215
 74
     1
 91
        4
 64
     7
 65
   257
 75
     1
175
     1
 42
1.0
 92
        0
 66
   257
 43
1.0
 76
     1
 77
     6
 78
     2
 67
     7
 79
     5
170
     0
171
     0
290
     0
174
     0
 93
        1
 44
0.0
173
     0
291
     0
 45
0.0
1001
ACAD
1000
AcDbSavedByObjectVersion
1070
     0
  0
VISUALSTYLE
  5
32
102
{ACAD_REACTORS
330
2A
102
}
330
2A
100
AcDbVisualStyle
  2
Basic
 70
     7
 71
     1
 72
     0
 73
     1
 90
        0
 40
-0.6
 41
-30.0
 62
     5
 63
     7
421
 16777215
 74
     0
 91
        4
 64
     7
 65
   257
 75
     1
175
     1
 42
1.0
 92
        8
 66
     7
 43
1.0
 76
     1
 77
     6
 78
     2
 67
     7
 79
     5
170
     0
171
     0
290
     0
174
     0
 93
        1
 44
0.0
173
     0
291
     1
 45
0.0
1001
ACAD
1000
AcDbSavedByObjectVersion
1070
     0
  0
VISUALSTYLE
  5
36
102
{ACAD_REACTORS
330
2A
102
}
330
2A
100
AcDbVisualStyle
  2
Brighten
 70
    12
 71
     2
 72
     2
 73
     0
 90
        0
 40
-0.6
 41
-30.0
 62
     5
 63
     7
421
 16777215
 74
     1
 91
        4
 64
     7
 65
   257
 75
     1
175
     1
 42
1.0
 92
        8
 66
     7
 43
1.0
 76
     1
 77
     6
 78
     2
 67
     7
 79
     5
170
     0
171
     0
290
     0
174
     0
 93
        1
 44
50.0
173
     0
291
     1
 45
0.0
1001
ACAD
1000
AcDbSavedByObjectVersion
1070
     0
  0
VISUALSTYLE
  5
3A
102
{ACAD_REACTORS
330
2A
102
}
330
2A
100
AcDbVisualStyle
  2
ColorChange
 70
    16
 71
     2
 72
     2
 73
     3
 90
        0
 40
-0.6
 41
-30.0
 62
     5
 63
     8
421
  8421504
 74
     1
 91
        4
 64
     7
 65
   257
 75
     1
175
     1
 42
1.0
 92
        8
 66
     8
424
  8421504
 43
1.0
 76
     1
 77
     6
 78
     2
 67
     7
 79
     5
170
     0
171
     0
290
     0
174
     0
 93
        1
 44
0.0
173
     0
291
     1
 45
0.0
1001
ACAD
1000
AcDbSavedByObjectVersion
1070
     0
  0
VISUALSTYLE
  5
34
102
{ACAD_REACTORS
330
2A
102
}
330
2A
100
AcDbVisualStyle
  2
Conceptual
 70
     9
 71
     3
 72
     2
 73
     0
 90
        0
 40
-0.6
 41
-30.0
 62
     5
 63
     7
421
 16777215
 74
     2
 91
        2
 64
     7
 65
   257
 75
     1
175
     1
 42
40.0
 92
        8
 66
     7
 43
1.0
 76
     1
 77
     6
 78
     2
 67
     7
 79
     3
170
     0
171
     0
290
     0
174
     0
 93
        1
 44
0.0
173
     0
291
     0
 45
0.0
1001
ACAD
1000
AcDbSavedByObjectVersion
1070
     0
  0
VISUALSTYLE
  5
35
102
{ACAD_REACTORS
330
2A
102
}
330
2A
100
AcDbVisualStyle
  2
Dim
 70
    11
 71
     2
 72
     2
 73
     0
 90
        0
 40
-0.6
 41
-30.0
 62
     5
 63
     7
421
 16777215
 74
     1
 91
        4
 64
     7
 65
   257
 75
     1
175
     1
 42
1.0
 92
        8
 66
     7
 43
1.0
 76
     1
 77
     6
 78
     2
 67
     7
 79
     5
170
     0
171
     0
290
     0
174
     0
 93
        1
 44
-50.0
173
     0
291
     1
 45
0.0
1001
ACAD
1000
AcDbSavedByObjectVersion
1070
     0
  0
VISUALSTYLE
  5
39
102
{ACAD_REACTORS
330
2A
102
}
330
2A
100
AcDbVisualStyle
  2
Facepattern
 70
    15
 71
     2
 72
     2
 73
     0
 90
        0
 40
-0.6
 41
-30.0
 62
     5
 63
     7
421
 16777215
 74
     1
 91
        4
 64
     7
 65
   257
 75
     1
175
     1
 42
1.0
 92
        8
 66
     7
 43
1.0
 76
     1
 77
     6
 78
     2
 67
     7
 79
     5
170
     0
171
     0
290
     0
174
     0
 93
        1
 44
0.0
173
     0
291
     1
 45
0.0
1001
ACAD
1000
AcDbSavedByObjectVersion
1070
     0
  0
VISUALSTYLE
  5
2B
102
{ACAD_REACTORS
330
2A
102
}
330
2A
100
AcDbVisualStyle
  2
Flat
 70
     0
 71
     2
 72
     1
 73
     1
 90
        2
 40
-0.6
 41
30.0
 62
     5
 63
     7
421
 16777215
 74
     0
 91
        4
 64
     7
 65
   257
 75
     1
175
     1
 42
1.0
 92
        8
 66
     7
 43
1.0
 76
     1
 77
     6
 78
     2
 67
     7
 79
     5
170
     0
171
     0
290
     0
174
     0
 93
       13
 44
0.0
173
     0
291
     1
 45
0.0
1001
ACAD
1000
AcDbSavedByObjectVersion
1070
     0
  0
VISUALSTYLE
  5
2C
102
{ACAD_REACTORS
330
2A
102
}
330
2A
100
AcDbVisualStyle
  2
FlatWithEdges
 70
     1
 71
     2
 72
     1
 73
     1
 90
        2
 40
-0.6
 41
30.0
 62
     5
 63
     7
421
 16777215
 74
     1
 91
        4
 64
     7
 65
   257
 75
     1
175
     1
 42
1.0
 92
        0
 66
   257
 43
1.0
 76
     1
 77
     6
 78
     2
 67
     7
 79
     5
170
     0
171
     0
290
     0
174
     0
 93
       13
 44
0.0
173
     0
291
     1
 45
0.0
1001
ACAD
1000
AcDbSavedByObjectVersion
1070
     0
  0
VISUALSTYLE
  5
2D
102
{ACAD_REACTORS
330
2A
102
}
330
2A
100
AcDbVisualStyle
  2
Gouraud
 70
     2
 71
     2
 72
     2
 73
     1
 90
        2
 40
-0.6
 41
30.0
 62
     5
 63
     7
421
 16777215
 74
     0
 91
        4
 64
     7
 65
   257
 75
     1
175
     1
 42
1.0
 92
        0
 66
     7
 43
1.0
 76
     1
 77
     6
 78
     2
 67
     7
 79
     5
170
     0
171
     0
290
     0
174
     0
 93
       13
 44
0.0
173
     0
291
     1
 45
0.0
1001
ACAD
1000
AcDbSavedByObjectVersion
1070
     0
  0
VISUALSTYLE
  5
2E
102
{ACAD_REACTORS
330
2A
102
}
330
2A
100
AcDbVisualStyle
  2
GouraudWithEdges
 70
     3
 71
     2
 72
     2
 73
     1
 90
        2
 40
-0.6
 41
30.0
 62
     5
 63
     7
421
 16777215
 74
     1
 91
        4
 64
     7
 65
   257
 75
     1
175
     1
 42
1.0
 92
        0
 66
   257
 43
1.0
 76
     1
 77
     6
 78
     2
 67
     7
 79
     5
170
     0
171
     0
290
     0
174
     0
 93
       13
 44
0.0
173
     0
291
     1
 45
0.0
1001
ACAD
1000
AcDbSavedByObjectVersion
1070
     0
  0
VISUALSTYLE
  5
38
102
{ACAD_REACTORS
330
2A
102
}
330
2A
100
AcDbVisualStyle
  2
Linepattern
 70
    14
 71
     2
 72
     2
 73
     0
 90
        0
 40
-0.6
 41
-30.0
 62
     5
 63
     7
421
 16777215
 74
     1
 91
        4
 64
     7
 65
   257
 75
     7
175
     7
 42
1.0
 92
        8
 66
     7
 43
1.0
 76
     1
 77
     6
 78
     2
 67
     7
 79
     5
170
     0
171
     0
290
     0
174
     0
 93
        1
 44
0.0
173
     0
291
     1
 45
0.0
1001
ACAD
1000
AcDbSavedByObjectVersion
1070
     0
  0
VISUALSTYLE
  5
33
102
{ACAD_REACTORS
330
2A
102
}
330
2A
100
AcDbVisualStyle
  2
Realistic
 70
     8
 71
     2
 72
     2
 73
     0
 90
        0
 40
-0.6
 41
-30.0
 62
     5
 63
     7
421
 16777215
 74
     1
 91
        0
 64
     7
 65
   257
 75
     1
175
     1
 42
1.0
 92
        8
 66
     8
424
  7895160
 43
1.0
 76
     1
 77
     6
 78
     2
 67
     7
 79
     5
170
     0
171
     0
290
     0
174
     0
 93
       13
 44
0.0
173
     0
291
     0
 45
0.0
1001
ACAD
1000
AcDbSavedByObjectVersion
1070
     0
  0
VISUALSTYLE
  5
37
102
{ACAD_REACTORS
330
2A
102
}
330
2A
100
AcDbVisualStyle
  2
Thicken
 70
    13
 71
     2
 72
     2
 73
     0
 90
        0
 40
-0.6
 41
-30.0
 62
     5
 63
     7
421
 16777215
 74
     1
 91
        4
 64
     7
 65
   257
 75
     1
175
     1
 42
1.0
 92
       12
 66
     7
 43
1.0
 76
     1
 77
     6
 78
     2
 67
     7
 79
     5
170
     0
171
     0
290
     0
174
     0
 93
        1
 44
0.0
173
     0
291
     1
 45
0.0
1001
ACAD
1000
AcDbSavedByObjectVersion
1070
     0
  0
DICTIONARYVAR
  5
B7
102
{ACAD_REACTORS
330
B6
102
}
330
B6
100
DictionaryVariables
280
     0
  1
1:1
  0
XRECORD
  5
B5
102
{ACAD_REACTORS
330
B4
102
}
330
B4
100
AcDbXrecord
280
     1
1000
This DWG file was created in ArchiCAD(TM)®
  0
ENDSEC
  0
EOF
