  0
SECTION
  2
HEADER
  9
$ACADVER
  1
AC1018
  9
$ACADMAINTVER
 70
     0
  9
$DWGCODEPAGE
  3
ANSI_1252
  9
$INSBASE
 10
0.0
 20
0.0
 30
0.0
  9
$EXTMIN
 10
1.000000000000000E+20
 20
1.000000000000000E+20
 30
1.000000000000000E+20
  9
$EXTMAX
 10
-1.000000000000000E+20
 20
-1.000000000000000E+20
 30
-1.000000000000000E+20
  9
$LIMMIN
 10
0.0
 20
0.0
  9
$LIMMAX
 10
12.0
 20
9.0
  9
$ORTHOMODE
 70
     0
  9
$REGENMODE
 70
     1
  9
$FILLMODE
 70
     1
  9
$QTEXTMODE
 70
     0
  9
$MIRRTEXT
 70
     1
  9
$LTSCALE
 40
1.0
  9
$ATTMODE
 70
     1
  9
$TEXTSIZE
 40
0.2
  9
$TRACEWID
 40
0.05
  9
$TEXTSTYLE
  7
Standard
  9
$CLAYER
  8
0
  9
$CELTYPE
  6
ByLayer
  9
$CECOLOR
 62
   256
  9
$CELTSCALE
 40
1.0
  9
$DISPSILH
 70
     0
  9
$DIMSCALE
 40
1.0
  9
$DIMASZ
 40
0.18
  9
$DIMEXO
 40
0.0625
  9
$DIMDLI
 40
0.38
  9
$DIMRND
 40
0.0
  9
$DIMDLE
 40
0.0
  9
$DIMEXE
 40
0.18
  9
$DIMTP
 40
0.0
  9
$DIMTM
 40
0.0
  9
$DIMTXT
 40
0.18
  9
$DIMCEN
 40
0.09
  9
$DIMTSZ
 40
0.0
  9
$DIMTOL
 70
     0
  9
$DIMLIM
 70
     0
  9
$DIMTIH
 70
     1
  9
$DIMTOH
 70
     1
  9
$DIMSE1
 70
     0
  9
$DIMSE2
 70
     0
  9
$DIMTAD
 70
     0
  9
$DIMZIN
 70
     0
  9
$DIMBLK
  1

  9
$DIMASO
 70
     1
  9
$DIMSHO
 70
     1
  9
$DIMPOST
  1

  9
$DIMAPOST
  1

  9
$DIMALT
 70
     0
  9
$DIMALTD
 70
     2
  9
$DIMALTF
 40
25.4
  9
$DIMLFAC
 40
1.0
  9
$DIMTOFL
 70
     0
  9
$DIMTVP
 40
0.0
  9
$DIMTIX
 70
     0
  9
$DIMSOXD
 70
     0
  9
$DIMSAH
 70
     0
  9
$DIMBLK1
  1

  9
$DIMBLK2
  1

  9
$DIMSTYLE
  2
Standard
  9
$DIMCLRD
 70
     0
  9
$DIMCLRE
 70
     0
  9
$DIMCLRT
 70
     0
  9
$DIMTFAC
 40
1.0
  9
$DIMGAP
 40
0.09
  9
$DIMJUST
 70
     0
  9
$DIMSD1
 70
     0
  9
$DIMSD2
 70
     0
  9
$DIMTOLJ
 70
     1
  9
$DIMTZIN
 70
     0
  9
$DIMALTZ
 70
     0
  9
$DIMALTTZ
 70
     0
  9
$DIMUPT
 70
     0
  9
$DIMDEC
 70
     4
  9
$DIMTDEC
 70
     4
  9
$DIMALTU
 70
     2
  9
$DIMALTTD
 70
     2
  9
$DIMTXSTY
  7
Standard
  9
$DIMAUNIT
 70
     0
  9
$DIMADEC
 70
     0
  9
$DIMALTRND
 40
0.0
  9
$DIMAZIN
 70
     0
  9
$DIMDSEP
 70
    46
  9
$DIMATFIT
 70
     3
  9
$DIMFRAC
 70
     0
  9
$DIMLDRBLK
  1

  9
$DIMLUNIT
 70
     2
  9
$DIMLWD
 70
    -2
  9
$DIMLWE
 70
    -2
  9
$DIMTMOVE
 70
     0
  9
$LUNITS
 70
     2
  9
$LUPREC
 70
     4
  9
$SKETCHINC
 40
0.1
  9
$FILLETRAD
 40
0.5
  9
$AUNITS
 70
     0
  9
$AUPREC
 70
     0
  9
$MENU
  1
.
  9
$ELEVATION
 40
0.0
  9
$PELEVATION
 40
0.0
  9
$THICKNESS
 40
0.0
  9
$LIMCHECK
 70
     0
  9
$CHAMFERA
 40
0.5
  9
$CHAMFERB
 40
0.5
  9
$CHAMFERC
 40
1.0
  9
$CHAMFERD
 40
0.0
  9
$SKPOLY
 70
     0
  9
$TDCREATE
 40
2455966.733373935
  9
$TDUCREATE
 40
2455966.191707268
  9
$TDUPDATE
 40
2455966.733373947
  9
$TDUUPDATE
 40
2455966.19170728
  9
$TDINDWG
 40
0.0000000116
  9
$TDUSRTIMER
 40
0.0000000116
  9
$USRTIMER
 70
     1
  9
$ANGBASE
 50
0.0
  9
$ANGDIR
 70
     0
  9
$PDMODE
 70
     0
  9
$PDSIZE
 40
0.0
  9
$PLINEWID
 40
0.0
  9
$SPLFRAME
 70
     0
  9
$SPLINETYPE
 70
     6
  9
$SPLINESEGS
 70
     8
  9
$HANDSEED
  5
D9
  9
$SURFTAB1
 70
     6
  9
$SURFTAB2
 70
     6
  9
$SURFTYPE
 70
     6
  9
$SURFU
 70
     6
  9
$SURFV
 70
     6
  9
$UCSBASE
  2

  9
$UCSNAME
  2

  9
$UCSORG
 10
0.0
 20
0.0
 30
0.0
  9
$UCSXDIR
 10
1.0
 20
0.0
 30
0.0
  9
$UCSYDIR
 10
0.0
 20
1.0
 30
0.0
  9
$UCSORTHOREF
  2

  9
$UCSORTHOVIEW
 70
     0
  9
$UCSORGTOP
 10
0.0
 20
0.0
 30
0.0
  9
$UCSORGBOTTOM
 10
0.0
 20
0.0
 30
0.0
  9
$UCSORGLEFT
 10
0.0
 20
0.0
 30
0.0
  9
$UCSORGRIGHT
 10
0.0
 20
0.0
 30
0.0
  9
$UCSORGFRONT
 10
0.0
 20
0.0
 30
0.0
  9
$UCSORGBACK
 10
0.0
 20
0.0
 30
0.0
  9
$PUCSBASE
  2

  9
$PUCSNAME
  2

  9
$PUCSORG
 10
0.0
 20
0.0
 30
0.0
  9
$PUCSXDIR
 10
1.0
 20
0.0
 30
0.0
  9
$PUCSYDIR
 10
0.0
 20
1.0
 30
0.0
  9
$PUCSORTHOREF
  2

  9
$PUCSORTHOVIEW
 70
     0
  9
$PUCSORGTOP
 10
0.0
 20
0.0
 30
0.0
  9
$PUCSORGBOTTOM
 10
0.0
 20
0.0
 30
0.0
  9
$PUCSORGLEFT
 10
0.0
 20
0.0
 30
0.0
  9
$PUCSORGRIGHT
 10
0.0
 20
0.0
 30
0.0
  9
$PUCSORGFRONT
 10
0.0
 20
0.0
 30
0.0
  9
$PUCSORGBACK
 10
0.0
 20
0.0
 30
0.0
  9
$USERI1
 70
     0
  9
$USERI2
 70
     0
  9
$USERI3
 70
     0
  9
$USERI4
 70
     0
  9
$USERI5
 70
     0
  9
$USERR1
 40
0.0
  9
$USERR2
 40
0.0
  9
$USERR3
 40
0.0
  9
$USERR4
 40
0.0
  9
$USERR5
 40
0.0
  9
$WORLDVIEW
 70
     1
  9
$SHADEDGE
 70
     3
  9
$SHADEDIF
 70
    70
  9
$TILEMODE
 70
     1
  9
$MAXACTVP
 70
    64
  9
$PINSBASE
 10
0.0
 20
0.0
 30
0.0
  9
$PLIMCHECK
 70
     0
  9
$PEXTMIN
 10
1.000000000000000E+20
 20
1.000000000000000E+20
 30
1.000000000000000E+20
  9
$PEXTMAX
 10
-1.000000000000000E+20
 20
-1.000000000000000E+20
 30
-1.000000000000000E+20
  9
$PLIMMIN
 10
0.0
 20
0.0
  9
$PLIMMAX
 10
12.0
 20
9.0
  9
$UNITMODE
 70
     0
  9
$VISRETAIN
 70
     1
  9
$PLINEGEN
 70
     0
  9
$PSLTSCALE
 70
     1
  9
$TREEDEPTH
 70
  3020
  9
$CMLSTYLE
  2
Standard
  9
$CMLJUST
 70
     0
  9
$CMLSCALE
 40
1.0
  9
$PROXYGRAPHICS
 70
     1
  9
$MEASUREMENT
 70
     0
  9
$CELWEIGHT
370
    -1
  9
$ENDCAPS
280
     0
  9
$JOINSTYLE
280
     0
  9
$LWDISPLAY
290
     1
  9
$INSUNITS
 70
     0
  9
$HYPERLINKBASE
  1

  9
$STYLESHEET
  1

  9
$XEDIT
290
     1
  9
$CEPSNTYPE
380
     0
  9
$PSTYLEMODE
290
     1
  9
$FINGERPRINTGUID
  2
{C314C736-DFBB-4393-BC6F-E63AF31A88B9}
  9
$VERSIONGUID
  2
{FAEB1C32-E019-11D5-929B-00C0DF256EC4}
  9
$EXTNAMES
290
     1
  9
$PSVPSCALE
 40
0.0
  9
$OLESTARTUP
290
     0
  9
$SORTENTS
280
   127
  9
$INDEXCTL
280
     0
  9
$HIDETEXT
280
     1
  9
$XCLIPFRAME
290
     0
  9
$HALOGAP
280
     0
  9
$OBSCOLOR
 70
   257
  9
$OBSLTYPE
280
     0
  9
$INTERSECTIONDISPLAY
280
     0
  9
$INTERSECTIONCOLOR
 70
   257
  9
$DIMASSOC
280
     2
  9
$PROJECTNAME
  1

  0
ENDSEC
  0
SECTION
  2
CLASSES
  0
CLASS
  1
ACDBDICTIONARYWDFLT
  2
AcDbDictionaryWithDefault
  3
ObjectDBX Classes
 90
        0
 91
        4
280
     0
281
     0
  0
CLASS
  1
VISUALSTYLE
  2
AcDbVisualStyle
  3
ObjectDBX Classes
 90
     4095
 91
        4
280
     0
281
     0
  0
CLASS
  1
SCALE
  2
AcDbScale
  3
ObjectDBX Classes
 90
     1153
 91
        4
280
     0
281
     0
  0
CLASS
  1
DICTIONARYVAR
  2
AcDbDictionaryVar
  3
ObjectDBX Classes
 90
        0
 91
        4
280
     0
281
     0
  0
ENDSEC
  0
SECTION
  2
TABLES
  0
TABLE
  2
VPORT
  5
8
330
0
100
AcDbSymbolTable
 70
     1
  0
VPORT
  5
29
330
8
100
AcDbSymbolTableRecord
100
AcDbViewportTableRecord
  2
*Active
 70
     0
 10
0.0
 20
0.0
 11
1.0
 21
1.0
 12
-77.03409713982285
 22
-51.94945234464211
 13
0.0
 23
0.0
 14
0.5
 24
0.5
 15
0.5
 25
0.5
 16
0.0
 26
0.0
 36
1.0
 17
0.0
 27
0.0
 37
0.0
 40
624.0084715836549
 41
0.9435147650317769
 42
50.0
 43
0.0
 44
0.0
 50
0.0
 51
0.0
 71
     0
 72
   100
 73
     1
 74
     3
 75
     0
 76
     0
 77
     0
 78
     0
281
     0
 65
     1
110
0.0
120
0.0
130
0.0
111
1.0
121
0.0
131
0.0
112
0.0
122
1.0
132
0.0
 79
     0
146
0.0
  0
ENDTAB
  0
TABLE
  2
LTYPE
  5
5
330
0
100
AcDbSymbolTable
 70
     4
  0
LTYPE
  5
14
330
5
100
AcDbSymbolTableRecord
100
AcDbLinetypeTableRecord
  2
ByBlock
 70
     0
  3

 72
    65
 73
     0
 40
0.0
  0
LTYPE
  5
15
330
5
100
AcDbSymbolTableRecord
100
AcDbLinetypeTableRecord
  2
ByLayer
 70
     0
  3

 72
    65
 73
     0
 40
0.0
  0
LTYPE
  5
16
330
5
100
AcDbSymbolTableRecord
100
AcDbLinetypeTableRecord
  2
Continuous
 70
     0
  3
Solid line
 72
    65
 73
     0
 40
0.0
  0
LTYPE
  5
59
330
5
100
AcDbSymbolTableRecord
100
AcDbLinetypeTableRecord
  2
DASHEDX2
 70
     0
  3
- - - - - 
 72
    65
 73
     2
 40
7.5
 49
5.0
 74
     0
 49
-2.5
 74
     0
  0
LTYPE
  5
5C
330
5
100
AcDbSymbolTableRecord
100
AcDbLinetypeTableRecord
  2
CENTER
 70
     0
  3
- - - - - 
 72
    65
 73
     4
 40
10.0
 49
6.25
 74
     0
 49
-1.25
 74
     0
 49
1.25
 74
     0
 49
-1.249999999999999
 74
     0
  0
LTYPE
  5
63
330
5
100
AcDbSymbolTableRecord
100
AcDbLinetypeTableRecord
  2
Hidden
 70
     0
  3
- - - - - 
 72
    65
 73
     2
 40
2.469444990158081
 49
1.411111354827881
 74
     0
 49
-1.0583336353302
 74
     0
  0
ENDTAB
  0
TABLE
  2
LAYER
  5
2
330
0
100
AcDbSymbolTable
 70
    15
  0
LAYER
  5
10
330
2
100
AcDbSymbolTableRecord
100
AcDbLayerTableRecord
  2
0
 70
     0
 62
     7
  6
Continuous
370
    -3
390
F
  0
LAYER
  5
3C
330
2
100
AcDbSymbolTableRecord
100
AcDbLayerTableRecord
  2
Documentation_ Floor_Pen_No__18
 70
     0
 62
     9
  6
Continuous
370
    15
390
F
  0
LAYER
  5
3F
330
2
100
AcDbSymbolTableRecord
100
AcDbLayerTableRecord
  2
chh-08_Pen_No__8_Pen_No__250
 70
     0
 62
   254
420
 15263976
  6
Continuous
370
    13
390
F
  0
LAYER
  5
42
330
2
100
AcDbSymbolTableRecord
100
AcDbLayerTableRecord
  2
chh-09_Pen_No__9_Pen_No__2
 70
     0
 62
     8
420
  8355711
  6
Continuous
370
    15
390
F
  0
LAYER
  5
49
330
2
100
AcDbSymbolTableRecord
100
AcDbLayerTableRecord
  2
chh-09_Pen_No__9_Pen_No__3
 70
     0
 62
    30
420
 16737792
  6
Continuous
370
    18
390
F
  0
LAYER
  5
4D
330
2
100
AcDbSymbolTableRecord
100
AcDbLayerTableRecord
  2
chh-08_Pen_No__8_Pen_No__1
 70
     0
 62
     7
  6
Continuous
370
    13
390
F
  0
LAYER
  5
4F
330
2
100
AcDbSymbolTableRecord
100
AcDbLayerTableRecord
  2
chh-08_Pen_No__8_Pen_No__81
 70
     0
 62
   251
420
  6974058
  6
Continuous
370
    20
390
F
  0
LAYER
  5
54
330
2
100
AcDbSymbolTableRecord
100
AcDbLayerTableRecord
  2
chh-06_Pen_No__7_Pen_No__7
 70
     0
 62
     7
  6
Continuous
370
    18
390
F
  0
LAYER
  5
58
330
2
100
AcDbSymbolTableRecord
100
AcDbLayerTableRecord
  2
chh-07_Pen_No__7_Pen_No__7
 70
     0
 62
     7
  6
Continuous
370
    18
390
F
  0
LAYER
  5
62
330
2
100
AcDbSymbolTableRecord
100
AcDbLayerTableRecord
  2
chh-05_Pen_No__7_Pen_No__7
 70
     0
 62
     7
  6
Continuous
370
    18
390
F
  0
LAYER
  5
65
330
2
100
AcDbSymbolTableRecord
100
AcDbLayerTableRecord
  2
chh-txt_Pen_No__7_Pen_No__7
 70
     0
 62
     7
  6
Continuous
370
    18
390
F
  0
LAYER
  5
73
330
2
100
AcDbSymbolTableRecord
100
AcDbLayerTableRecord
  2
chh-txt_Pen_No__1
 70
     0
 62
     7
  6
Continuous
370
    13
390
F
  0
LAYER
  5
76
330
2
100
AcDbSymbolTableRecord
100
AcDbLayerTableRecord
  2
chh-txt_Pen_No__7
 70
     0
 62
     7
  6
Continuous
370
    18
390
F
  0
LAYER
  5
A0
330
2
100
AcDbSymbolTableRecord
100
AcDbLayerTableRecord
  2
chh-txt
 70
     0
 62
     7
  6
Continuous
370
    -3
390
F
  0
LAYER
  5
C9
330
2
100
AcDbSymbolTableRecord
100
AcDbLayerTableRecord
  2
Defpoints_Pen_No__1_Pen_No__115
 70
     0
 62
   211
420
 16738047
  6
Continuous
370
    13
390
F
  0
ENDTAB
  0
TABLE
  2
STYLE
  5
3
330
0
100
AcDbSymbolTable
 70
     2
  0
STYLE
  5
11
330
3
100
AcDbSymbolTableRecord
100
AcDbTextStyleTableRecord
  2
Standard
 70
     0
 40
0.0
 41
1.0
 50
0.0
 71
     0
 42
0.2
  3
txt
  4
BIGFONT.SHX
  0
STYLE
  5
7B
330
3
100
AcDbSymbolTableRecord
100
AcDbTextStyleTableRecord
  2
GENERATED_STYLE_1
 70
     0
 40
0.0
 41
1.0
 50
0.0
 71
     0
 42
0.2
  3

  4

1001
ACAD
1000
Arial Unicode MS
1071
       34
  0
ENDTAB
  0
TABLE
  2
VIEW
  5
6
330
0
100
AcDbSymbolTable
 70
     0
  0
ENDTAB
  0
TABLE
  2
UCS
  5
7
330
0
100
AcDbSymbolTable
 70
     0
  0
ENDTAB
  0
TABLE
  2
APPID
  5
9
330
0
100
AcDbSymbolTable
 70
     1
  0
APPID
  5
12
330
9
100
AcDbSymbolTableRecord
100
AcDbRegAppTableRecord
  2
ACAD
 70
     0
  0
ENDTAB
  0
TABLE
  2
DIMSTYLE
  5
A
330
0
100
AcDbSymbolTable
 70
     3
100
AcDbDimStyleTable
  0
DIMSTYLE
105
27
330
A
100
AcDbSymbolTableRecord
100
AcDbDimStyleTableRecord
  2
Standard
 70
     0
340
11
  0
DIMSTYLE
105
A1
102
{ACAD_REACTORS
330
9F
102
}
330
A
100
AcDbSymbolTableRecord
100
AcDbDimStyleTableRecord
  2
GENERATED_STYLE__1
 70
     0
 41
0.0214737653944711
 42
1.0
 73
     0
 74
     0
 77
     1
140
5.0
172
     1
176
     7
177
     7
178
     7
271
     0
279
     2
340
7B
342
A2
343
A2
344
A2
  0
DIMSTYLE
105
B3
102
{ACAD_REACTORS
330
B2
330
BF
102
}
330
A
100
AcDbSymbolTableRecord
100
AcDbDimStyleTableRecord
  2
GENERATED_STYLE__2
 70
     0
 41
0.0214737653944711
 42
1.0
 73
     0
 74
     0
 77
     1
140
5.0
172
     1
176
     7
177
     7
178
     7
271
     0
340
7B
342
A2
343
A2
344
A2
  0
ENDTAB
  0
TABLE
  2
BLOCK_RECORD
  5
1
330
0
100
AcDbSymbolTable
 70
     6
  0
BLOCK_RECORD
  5
1F
330
1
100
AcDbSymbolTableRecord
100
AcDbBlockTableRecord
  2
*Model_Space
340
22
  0
BLOCK_RECORD
  5
1B
330
1
100
AcDbSymbolTableRecord
100
AcDbBlockTableRecord
  2
*Paper_Space
340
1E
  0
BLOCK_RECORD
  5
23
330
1
100
AcDbSymbolTableRecord
100
AcDbBlockTableRecord
  2
*Paper_Space0
340
26
  0
BLOCK_RECORD
  5
6F
330
1
100
AcDbSymbolTableRecord
100
AcDbBlockTableRecord
  2
*D1
340
0
  0
BLOCK_RECORD
  5
A2
330
1
100
AcDbSymbolTableRecord
100
AcDbBlockTableRecord
  2
ARROWHEAD_2
340
0
  0
BLOCK_RECORD
  5
A7
330
1
100
AcDbSymbolTableRecord
100
AcDbBlockTableRecord
  2
*D3
340
0
  0
BLOCK_RECORD
  5
B4
330
1
100
AcDbSymbolTableRecord
100
AcDbBlockTableRecord
  2
*D4
340
0
  0
BLOCK_RECORD
  5
D0
330
1
100
AcDbSymbolTableRecord
100
AcDbBlockTableRecord
  2
Untitled _STORY_MARKER
340
0
  0
ENDTAB
  0
ENDSEC
  0
SECTION
  2
BLOCKS
  0
BLOCK
  5
20
330
1F
100
AcDbEntity
  8
0
100
AcDbBlockBegin
  2
*Model_Space
 70
     0
 10
0.0
 20
0.0
 30
0.0
  3
*Model_Space
  1

  0
ENDBLK
  5
21
330
1F
100
AcDbEntity
  8
0
100
AcDbBlockEnd
  0
BLOCK
  5
1C
330
1B
100
AcDbEntity
 67
     1
  8
0
100
AcDbBlockBegin
  2
*Paper_Space
 70
     0
 10
0.0
 20
0.0
 30
0.0
  3
*Paper_Space
  1

  0
ENDBLK
  5
1D
330
1B
100
AcDbEntity
 67
     1
  8
0
100
AcDbBlockEnd
  0
BLOCK
  5
24
330
23
100
AcDbEntity
  8
0
100
AcDbBlockBegin
  2
*Paper_Space0
 70
     0
 10
0.0
 20
0.0
 30
0.0
  3
*Paper_Space0
  1

  0
ENDBLK
  5
25
330
23
100
AcDbEntity
  8
0
100
AcDbBlockEnd
  0
BLOCK
  5
70
330
6F
100
AcDbEntity
  8
0
100
AcDbBlockBegin
  2
*D1
 70
     1
 10
0.0
 20
0.0
 30
0.0
  3
*D1
  1

  0
LINE
  5
72
330
6F
100
AcDbEntity
  8
chh-txt_Pen_No__1
  6
Continuous
100
AcDbLine
 10
170.0294404875513
 20
-48.94440892073775
 30
0.0
 11
170.0294404875513
 21
-48.93059224800368
 31
0.0
  0
LINE
  5
74
330
6F
100
AcDbEntity
  8
chh-txt_Pen_No__1
  6
Continuous
100
AcDbLine
 10
170.0294404875513
 20
-48.93059224800368
 30
0.0
 11
170.0294404875513
 21
26.0694077519965
 31
0.0
  0
LINE
  5
75
330
6F
100
AcDbEntity
  8
chh-txt_Pen_No__7
  6
Continuous
100
AcDbLine
 10
170.0153130103181
 20
-48.92243574902309
 30
0.0
 11
170.0435679647844
 21
-48.93874874698427
 31
0.0
  0
LINE
  5
77
330
6F
100
AcDbEntity
  8
chh-txt_Pen_No__7
  6
Continuous
100
AcDbLine
 10
170.0435679647844
 20
26.06125125301591
 30
0.0
 11
170.0153130103181
 21
26.07756425097709
 31
0.0
  0
LINE
  5
78
330
6F
100
AcDbEntity
  8
chh-txt_Pen_No__1
  6
Continuous
100
AcDbLine
 10
170.0294404875513
 20
26.0694077519965
 30
0.0
 11
170.0294404875513
 21
26.08322442473058
 31
0.0
  0
LINE
  5
79
330
6F
100
AcDbEntity
  8
chh-txt_Pen_No__1
  6
Continuous
100
AcDbLine
 10
170.0506317034011
 20
-48.93059224800368
 30
0.0
 11
111.383539232554
 21
-48.93059224800367
 31
0.0
  0
LINE
  5
7A
330
6F
100
AcDbEntity
  8
chh-txt_Pen_No__1
  6
Continuous
100
AcDbLine
 10
170.0506317034011
 20
26.0694077519965
 30
0.0
 11
111.383539232554
 21
26.06940775199651
 31
0.0
  0
MTEXT
  5
7C
330
6F
100
AcDbEntity
  8
chh-txt_Pen_No__7
100
AcDbMText
 10
176.3317126779208
 20
-48.5876859742016
 30
0.0
 40
5.0
 41
0.0
 71
     1
 72
     1
  1
{75mm max from fasteners}
  7
GENERATED_STYLE_1
 11
6.123233995736766E-17
 21
1.0
 31
0.0
 73
     1
 44
1.0
  0
ENDBLK
  5
71
330
6F
100
AcDbEntity
  8
0
100
AcDbBlockEnd
  0
BLOCK
  5
A3
330
A2
100
AcDbEntity
  8
0
100
AcDbBlockBegin
  2
ARROWHEAD_2
 70
     0
 10
0.0
 20
0.0
 30
0.0
  3
ARROWHEAD_2
  1

  0
LINE
  5
A5
330
A2
100
AcDbEntity
  8
0
  6
Continuous
 62
     0
370
     0
100
AcDbLine
 10
-0.3781315
 20
-0.655
 30
0.0
 11
0.3781315
 21
0.655
 31
0.0
  0
LINE
  5
A6
330
A2
100
AcDbEntity
  8
0
  6
Continuous
 62
     0
370
     0
100
AcDbLine
 10
0.0
 20
0.0
 30
0.0
 11
-1.0
 21
0.0
 31
0.0
  0
ENDBLK
  5
A4
330
A2
100
AcDbEntity
  8
0
100
AcDbBlockEnd
  0
BLOCK
  5
A8
330
A7
100
AcDbEntity
  8
0
100
AcDbBlockBegin
  2
*D3
 70
     1
 10
0.0
 20
0.0
 30
0.0
  3
*D3
  1

  0
LINE
  5
AA
330
A7
100
AcDbEntity
  8
chh-txt_Pen_No__1
  6
Continuous
100
AcDbLine
 10
91.42652762459907
 20
-48.94440892073774
 30
0.0
 11
91.42652762459907
 21
-48.93059224800367
 31
0.0
  0
LINE
  5
AB
330
A7
100
AcDbEntity
  8
chh-txt_Pen_No__1
  6
Continuous
100
AcDbLine
 10
91.42652762459907
 20
-48.93059224800367
 30
0.0
 11
91.42652762459907
 21
1.069407751996154
 31
0.0
  0
LINE
  5
AC
330
A7
100
AcDbEntity
  8
chh-txt_Pen_No__7
  6
Continuous
100
AcDbLine
 10
91.41240014736587
 20
-48.92243574902308
 30
0.0
 11
91.44065510183228
 21
-48.93874874698426
 31
0.0
  0
LINE
  5
AD
330
A7
100
AcDbEntity
  8
chh-txt_Pen_No__7
  6
Continuous
100
AcDbLine
 10
91.44065510183228
 20
1.061251253015563
 30
0.0
 11
91.41240014736587
 21
1.077564250976745
 31
0.0
  0
LINE
  5
AE
330
A7
100
AcDbEntity
  8
chh-txt_Pen_No__1
  6
Continuous
100
AcDbLine
 10
91.42652762459907
 20
1.069407751996154
 30
0.0
 11
91.42652762459907
 21
1.083224424730231
 31
0.0
  0
LINE
  5
AF
330
A7
100
AcDbEntity
  8
chh-txt_Pen_No__1
  6
Continuous
100
AcDbLine
 10
91.44771884044889
 20
-48.93059224800367
 30
0.0
 11
32.97867469324817
 21
-48.93059224800366
 31
0.0
  0
LINE
  5
B0
330
A7
100
AcDbEntity
  8
chh-txt_Pen_No__1
  6
Continuous
100
AcDbLine
 10
91.44771884044889
 20
1.069407751996154
 30
0.0
 11
32.97867469324817
 21
1.069407751996158
 31
0.0
  0
MTEXT
  5
B1
330
A7
100
AcDbEntity
  8
chh-txt_Pen_No__7
100
AcDbMText
 10
85.42652762459907
 20
-40.37766713814047
 30
0.0
 40
5.0
 41
0.0
 71
     1
 72
     1
  1
{50mm min}
  7
GENERATED_STYLE_1
 11
6.123233995736766E-17
 21
1.0
 31
0.0
 73
     1
 44
1.0
  0
ENDBLK
  5
A9
330
A7
100
AcDbEntity
  8
0
100
AcDbBlockEnd
  0
BLOCK
  5
B5
330
B4
100
AcDbEntity
  8
0
100
AcDbBlockBegin
  2
*D4
 70
     1
 10
0.0
 20
0.0
 30
0.0
  3
*D4
  1

  0
LINE
  5
B7
330
B4
100
AcDbEntity
  8
chh-txt_Pen_No__7
  6
Continuous
100
AcDbLine
 10
7.771750978305459
 20
-48.94440892073774
 30
0.0
 11
7.771750978305459
 21
-48.93059224800367
 31
0.0
  0
LINE
  5
B8
330
B4
100
AcDbEntity
  8
chh-txt_Pen_No__7
  6
Continuous
100
AcDbLine
 10
7.771750978305459
 20
-48.93059224800367
 30
0.0
 11
7.771750978305459
 21
-38.93059224800388
 31
0.0
  0
LINE
  5
B9
330
B4
100
AcDbEntity
  8
chh-txt_Pen_No__7
  6
Continuous
100
AcDbLine
 10
7.757623501072254
 20
-48.92243574902308
 30
0.0
 11
7.785878455538663
 21
-48.93874874698426
 31
0.0
  0
LINE
  5
BA
330
B4
100
AcDbEntity
  8
chh-txt_Pen_No__7
  6
Continuous
100
AcDbLine
 10
7.785878455538664
 20
-38.93874874698447
 30
0.0
 11
7.757623501072255
 21
-38.92243574902329
 31
0.0
  0
LINE
  5
BB
330
B4
100
AcDbEntity
  8
chh-txt_Pen_No__7
  6
Continuous
100
AcDbLine
 10
7.771750978305459
 20
-38.93059224800388
 30
0.0
 11
7.771750978305459
 21
-38.9167755752698
 31
0.0
  0
LINE
  5
BC
330
B4
100
AcDbEntity
  8
chh-txt_Pen_No__7
  6
Continuous
100
AcDbLine
 10
7.792942194155265
 20
-48.93059224800367
 30
0.0
 11
-46.72744007993818
 21
-48.93059224800367
 31
0.0
  0
LINE
  5
BD
330
B4
100
AcDbEntity
  8
chh-txt_Pen_No__7
  6
Continuous
100
AcDbLine
 10
7.792942194155266
 20
-38.93059224800388
 30
0.0
 11
-46.72744007993818
 21
-38.93059224800388
 31
0.0
  0
MTEXT
  5
BE
330
B4
100
AcDbEntity
  8
chh-txt_Pen_No__7
100
AcDbMText
 10
1.771750978305457
 20
-81.8329077101179
 30
0.0
 40
5.0
 41
0.0
 71
     1
 72
     1
  1
{10mm min}
  7
GENERATED_STYLE_1
 11
6.123233995736766E-17
 21
1.0
 31
0.0
 73
     1
 44
1.0
  0
ENDBLK
  5
B6
330
B4
100
AcDbEntity
  8
0
100
AcDbBlockEnd
  0
BLOCK
  5
D1
330
D0
100
AcDbEntity
  8
0
100
AcDbBlockBegin
  2
Untitled _STORY_MARKER
 70
     0
 10
0.0
 20
0.0
 30
0.0
  3
Untitled _STORY_MARKER
  1

  0
ENDBLK
  5
D2
330
D0
100
AcDbEntity
  8
0
100
AcDbBlockEnd
  0
ENDSEC
  0
SECTION
  2
ENTITIES
  0
HATCH
  5
3B
330
1F
100
AcDbEntity
  8
Documentation_ Floor_Pen_No__18
  6
Continuous
100
AcDbHatch
 10
0.0
 20
0.0
 30
0.0
210
0.0
220
0.0
230
1.0
  2
AR_CONC
 70
     0
 71
     0
 91
        1
 92
        2
 72
     1
 73
     1
 93
        3
 10
-101.2924385263745
 20
1.069407751996154
 42
0.0
 10
-361.5504876517513
 20
1.069407751996154
 42
0.3736769719938325
 10
-101.2924385263745
 20
-244.8544769842009
 42
0.0
 97
        0
 75
     0
 76
     2
 52
0.0
 41
1.0
 77
     0
 78
    13
 53
94.99999999999999
 43
0.0
 44
0.0
 45
55.15519991722208
 46
46.28070788119673
 79
     2
 49
7.499999999999999
 49
-82.5
 53
40.00000000000001
 43
0.0
 44
0.0
 45
-62.99921673908857
 46
43.37681495980276
 79
     2
 49
6.000000000000001
 49
-66.0
 53
145.45144446
 43
4.596266556157631
 44
3.856725635446193
 45
-7.844016433796
 46
89.65752213322595
 79
     2
 49
6.374019199999998
 49
-70.1142112
 53
91.1842
 43
-14.14213562373095
 44
14.14213562373095
 45
87.16933879463281
 46
63.76137762145186
 79
     2
 49
11.25
 49
-123.75
 53
141.63563549
 43
-6.878023983646284
 44
19.45557908087804
 45
-2.790006838437662
 46
134.9711668190895
 79
     2
 49
9.561034199999998
 49
-105.171376
 53
36.18416398999999
 43
-14.14213562373095
 44
14.14213562373095
 45
-2.790006846561901
 46
134.9711667396096
 79
     2
 49
9.0
 49
-99.0000001
 53
66.0
 43
-3.535533905932736
 44
17.67766952966369
 45
70.67715721143026
 46
13.73824764677699
 79
     2
 49
7.499999999999997
 49
-82.49999999999999
 53
11.00000000000004
 43
-3.535533905932736
 44
17.67766952966369
 45
-34.07085930619541
 46
68.48084353987662
 79
     2
 49
6.0
 49
-66.0
 53
116.45144474
 43
2.354229155045857
 44
18.82252349166583
 45
36.60629749971532
 46
82.21909055837277
 79
     2
 49
6.374019000000001
 49
-70.11421119999999
 53
82.5
 43
0.0
 44
0.0
 45
-22.67931853063401
 46
24.39898176125472
 79
     6
 49
0.0
 49
-65.19999999999997
 49
0.0
 49
-66.99999999999999
 49
0.0
 49
-66.24999999999999
 53
52.49999999999999
 43
0.0
 44
0.0
 45
-9.287294220246007
 46
46.49094499003633
 79
     6
 49
0.0
 49
-38.2
 49
0.0
 49
-63.7
 49
0.0
 49
-25.25
 53
12.49999999999999
 43
-15.76848122046001
 44
-15.76848122046001
 45
39.34181673192063
 46
36.15207618148607
 79
     6
 49
0.0
 49
-25.0
 49
0.0
 49
-77.99999999999999
 49
0.0
 49
-103.5
 53
2.499999999999992
 43
-22.83954903232548
 44
-22.83954903232548
 45
34.15899831984663
 46
48.31598068739487
 79
     6
 49
0.0
 49
-32.5
 49
0.0
 49
-51.79999999999999
 49
0.0
 49
-73.49999999999997
 98
        0
  0
HATCH
  5
3D
330
1F
100
AcDbEntity
  8
Documentation_ Floor_Pen_No__18
  6
Continuous
100
AcDbHatch
 10
0.0
 20
0.0
 30
0.0
210
0.0
220
0.0
230
1.0
  2
Earth
 70
     0
 71
     0
 91
        1
 92
        2
 72
     1
 73
     1
 93
        3
 10
-101.2924385263745
 20
-173.9305922480028
 42
0.0
 10
44.52158874083936
 20
-173.9305922480028
 42
-0.2359989958231855
 10
-101.2924385263745
 20
-249.9622495217409
 42
0.0
 97
        0
 75
     0
 76
     2
 52
0.0
 41
1.0
 77
     0
 78
     4
 53
44.99999999999999
 43
0.0
 44
0.0
 45
-2.757716345475098
 46
2.757716345475099
 79
     0
 53
44.99999999999999
 43
-0.9192387818250327
 44
0.9192387818250329
 45
-5.515432690950196
 46
5.515432690950197
 79
     0
 53
44.99999999999999
 43
-1.838477563650065
 44
1.838477563650066
 45
-5.515432690950196
 46
5.515432690950197
 79
     0
 53
135.0
 43
-2.757716345475098
 44
2.757716345475099
 45
0.9192387818250326
 46
0.919238781825033
 79
     2
 49
3.899999856948852
 49
-3.899999856948852
 98
        0
  0
HATCH
  5
3E
330
1F
100
AcDbEntity
  8
chh-08_Pen_No__8_Pen_No__250
  6
Continuous
100
AcDbHatch
 10
0.0
 20
0.0
 30
0.0
210
0.0
220
0.0
230
1.0
  2
Plaster
 70
     0
 71
     0
 91
        1
 92
        2
 72
     0
 73
     1
 93
        4
 10
-189.513464817831
 20
244.1233999291816
 10
-199.5134648178307
 20
244.1233999291816
 10
-199.5134648178307
 20
5.057157076857388
 10
-189.513464817831
 20
5.057157076857388
 97
        0
 75
     0
 76
     2
 52
0.0
 41
1.0
 77
     0
 78
     2
 53
0.0
 43
0.0
 44
0.0
 45
0.0
 46
1.732050807568877
 79
     2
 49
0.0
 49
-1.0
 53
0.0
 43
0.5
 44
0.8660253882408142
 45
0.0
 46
1.732050807568877
 79
     2
 49
0.0
 49
-1.0
 98
        0
  0
HATCH
  5
40
330
1F
100
AcDbEntity
  8
chh-08_Pen_No__8_Pen_No__250
  6
Continuous
100
AcDbHatch
 10
0.0
 20
0.0
 30
0.0
210
0.0
220
0.0
230
1.0
  2
Plywood_90
 70
     0
 71
     0
 91
        1
 92
        2
 72
     0
 73
     1
 93
        4
 10
-77.51346481783133
 20
-48.93059224800367
 10
-65.51346481783132
 20
-48.93059224800367
 10
-65.51346481783132
 20
244.1233999291816
 10
-77.51346481783133
 20
244.1233999291816
 97
        0
 75
     0
 76
     2
 52
0.0
 41
1.0
 77
     0
 78
     1
 53
90.0
 43
0.0
 44
0.0
 45
-2.0
 46
0.0
 79
     0
 98
        0
  0
HATCH
  5
41
330
1F
100
AcDbEntity
  8
chh-09_Pen_No__9_Pen_No__2
  6
Continuous
100
AcDbHatch
 10
0.0
 20
0.0
 30
0.0
210
0.0
220
0.0
230
1.0
  2
SOLID
 70
     1
 71
     0
 91
        1
 92
        2
 72
     0
 73
     1
 93
        3
 10
-57.7859575449205
 20
223.6826291587051
 10
-57.78595754492005
 20
226.4826279563519
 10
-66.18595393786048
 20
225.0826285575303
 97
        0
 75
     0
 76
     1
 98
        0
  0
HATCH
  5
43
330
1F
100
AcDbEntity
  8
chh-09_Pen_No__9_Pen_No__2
  6
Continuous
100
AcDbHatch
 10
0.0
 20
0.0
 30
0.0
210
0.0
220
0.0
230
1.0
  2
SOLID
 70
     1
 71
     0
 91
        1
 92
        2
 72
     0
 73
     1
 93
        3
 10
-79.75968998262346
 20
198.2382033647501
 10
-79.759689982623
 20
201.0382021623969
 10
-88.15968637556342
 20
199.6382027635744
 97
        0
 75
     0
 76
     1
 98
        0
  0
HATCH
  5
44
330
1F
100
AcDbEntity
  8
chh-09_Pen_No__9_Pen_No__2
  6
Continuous
100
AcDbHatch
 10
0.0
 20
0.0
 30
0.0
210
0.0
220
0.0
230
1.0
  2
SOLID
 70
     1
 71
     0
 91
        1
 92
        2
 72
     0
 73
     1
 93
        3
 10
-157.8439439631761
 20
10.50317722657934
 10
-160.6439427608233
 20
10.50317722658023
 10
-159.2439433620013
 20
2.103180833640694
 97
        0
 75
     0
 76
     1
 98
        0
  0
HATCH
  5
45
330
1F
100
AcDbEntity
  8
chh-09_Pen_No__9_Pen_No__2
  6
Continuous
100
AcDbHatch
 10
0.0
 20
0.0
 30
0.0
210
0.0
220
0.0
230
1.0
  2
SOLID
 70
     1
 71
     0
 91
        1
 92
        2
 72
     0
 73
     1
 93
        3
 10
-87.32113621570409
 20
172.9699828230207
 10
-87.32113621570365
 20
175.7699816206675
 10
-95.72113260864407
 20
174.3699822218458
 97
        0
 75
     0
 76
     1
 98
        0
  0
HATCH
  5
46
330
1F
100
AcDbEntity
  8
chh-09_Pen_No__9_Pen_No__2
  6
Continuous
100
AcDbHatch
 10
0.0
 20
0.0
 30
0.0
210
0.0
220
0.0
230
1.0
  2
SOLID
 70
     1
 71
     0
 91
        1
 92
        2
 72
     0
 73
     1
 93
        3
 10
-182.3996609312409
 20
148.7124968758835
 10
-182.3996609312404
 20
151.5124956735303
 10
-190.7996573241804
 20
150.1124962747087
 97
        0
 75
     0
 76
     1
 98
        0
  0
HATCH
  5
47
330
1F
100
AcDbEntity
  8
chh-09_Pen_No__9_Pen_No__2
  6
Continuous
100
AcDbHatch
 10
0.0
 20
0.0
 30
0.0
210
0.0
220
0.0
230
1.0
  2
SOLID
 70
     1
 71
     0
 91
        1
 92
        2
 72
     0
 73
     1
 93
        3
 10
-84.45696961557509
 20
-9.743682902965345
 10
-86.43686775270592
 20
-7.763784765834059
 10
-91.38661309553237
 20
-14.69342824578912
 97
        0
 75
     0
 76
     1
 98
        0
  0
HATCH
  5
48
330
1F
100
AcDbEntity
  8
chh-09_Pen_No__9_Pen_No__3
  6
Continuous
100
AcDbHatch
 10
0.0
 20
0.0
 30
0.0
210
0.0
220
0.0
230
1.0
  2
SOLID
 70
     1
 71
     0
 91
        1
 92
        2
 72
     0
 73
     1
 93
        3
 10
-93.46455687015471
 20
-148.3814121996427
 10
-93.46455687015425
 20
-145.5814134019959
 10
-101.8645532630947
 20
-146.9814128008176
 97
        0
 75
     0
 76
     1
 98
        0
  0
HATCH
  5
4A
330
1F
100
AcDbEntity
  8
chh-09_Pen_No__9_Pen_No__2
  6
Continuous
100
AcDbHatch
 10
0.0
 20
0.0
 30
0.0
210
0.0
220
0.0
230
1.0
  2
SOLID
 70
     1
 71
     0
 91
        1
 92
        2
 72
     0
 73
     1
 93
        3
 10
-72.62135547509658
 20
-59.04514242419157
 10
-69.82135667744932
 20
-59.04514242419157
 10
-71.22135607627095
 20
-50.64514603125114
 97
        0
 75
     0
 76
     1
 98
        0
  0
LINE
  5
4B
330
1F
100
AcDbEntity
  8
chh-08_Pen_No__8_Pen_No__250
  6
Continuous
100
AcDbLine
 10
-187.5134648178308
 20
5.057157076857388
 30
0.0
 11
-187.5134648178308
 21
244.1092329096037
 31
0.0
  0
LINE
  5
4C
330
1F
100
AcDbEntity
  8
chh-08_Pen_No__8_Pen_No__1
  6
Continuous
100
AcDbLine
 10
-97.51346481783135
 20
50.05715707685732
 30
0.0
 11
-97.51346481783135
 21
244.1092329096037
 31
0.0
  0
LINE
  5
4E
330
1F
100
AcDbEntity
  8
chh-08_Pen_No__8_Pen_No__81
  6
Continuous
100
AcDbLine
 10
-97.51346481783135
 20
5.057157076857388
 30
0.0
 11
-187.5134648178308
 21
50.05715707685732
 31
0.0
  0
LINE
  5
50
330
1F
100
AcDbEntity
  8
chh-08_Pen_No__8_Pen_No__81
  6
Continuous
100
AcDbLine
 10
-187.5134648178308
 20
5.057157076857388
 30
0.0
 11
-97.51346481783135
 21
50.05715707685732
 31
0.0
  0
LINE
  5
51
330
1F
100
AcDbEntity
  8
chh-08_Pen_No__8_Pen_No__1
  6
Continuous
100
AcDbLine
 10
-93.04963215620471
 20
-23.33207969858786
 30
0.0
 11
-93.04963215620471
 21
244.1233999291816
 31
0.0
  0
LINE
  5
52
330
1F
100
AcDbEntity
  8
chh-08_Pen_No__8_Pen_No__250
  6
Continuous
100
AcDbLine
 10
-77.51346481783133
 20
-23.33207969858786
 30
0.0
 11
-93.04963215620471
 21
-23.33207969858786
 31
0.0
  0
LINE
  5
53
330
1F
100
AcDbEntity
  8
chh-06_Pen_No__7_Pen_No__7
  6
Continuous
100
AcDbLine
 10
-101.2924385263745
 20
1.069407751996154
 30
0.0
 11
-347.962192742129
 21
1.069407751996154
 31
0.0
  0
LINE
  5
55
330
1F
100
AcDbEntity
  8
chh-06_Pen_No__7_Pen_No__7
  6
Continuous
100
AcDbLine
 10
43.43747628020694
 20
-173.9305922480037
 30
0.0
 11
-101.2924385263745
 21
-173.9305922480037
 31
0.0
  0
LINE
  5
56
330
1F
100
AcDbEntity
  8
chh-06_Pen_No__7_Pen_No__7
  6
Continuous
100
AcDbLine
 10
-101.2924385263745
 20
1.069407751996154
 30
0.0
 11
-101.2924385263745
 21
-244.5571812277334
 31
0.0
  0
LINE
  5
57
330
1F
100
AcDbEntity
  8
chh-07_Pen_No__7_Pen_No__7
  6
Continuous
100
AcDbLine
 10
-199.5134648178307
 20
5.057157076857388
 30
0.0
 11
-189.513464817831
 21
5.057157076857388
 31
0.0
  0
LWPOLYLINE
  5
5A
330
1F
100
AcDbEntity
  8
chh-08_Pen_No__8_Pen_No__1
  6
DASHEDX2
100
AcDbPolyline
 90
        3
 70
   128
 43
0.0
 10
-95.51346481783114
 20
244.1233999291816
 10
-95.51346481783114
 20
-39.49067235608683
 10
-92.84280068178747
 20
-44.16777984833664
  0
LWPOLYLINE
  5
5B
330
1F
100
AcDbEntity
  8
chh-08_Pen_No__8_Pen_No__81
  6
Continuous
100
AcDbPolyline
 90
        6
 70
   128
 43
0.0
 10
-36.24226328760277
 20
244.1233999291816
 10
-114.4754368950343
 20
244.1233999291816
 10
-114.4754368950343
 20
253.93705333362
 10
-121.017872497993
 20
234.3097465247432
 10
-121.017872497993
 20
244.1233999291816
 10
-204.999681153404
 20
244.1233999291816
  0
LWPOLYLINE
  5
5D
330
1F
100
AcDbEntity
  8
chh-08_Pen_No__8_Pen_No__81
  6
CENTER
100
AcDbPolyline
 90
        3
 70
   128
 43
0.0
 10
-203.5300300009314
 20
3.069407751996822
 10
-99.51346481783114
 20
3.069407751996822
 10
-99.51346481783114
 20
-39.61660634413167
  0
LWPOLYLINE
  5
5E
330
1F
100
AcDbEntity
  8
chh-06_Pen_No__7_Pen_No__7
  6
Continuous
100
AcDbPolyline
 90
        4
 70
   128
 43
0.0
 10
-77.51346481783133
 20
244.1233999291816
 10
-77.51346481783133
 20
-48.93059224800367
 10
-65.51346481783132
 20
-48.93059224800367
 10
-65.51346481783132
 20
244.1233999291816
  0
LWPOLYLINE
  5
5F
330
1F
100
AcDbEntity
  8
chh-07_Pen_No__7_Pen_No__7
  6
Continuous
100
AcDbPolyline
 90
        2
 70
   128
 43
0.0
 10
-189.513464817831
 20
244.1233999291816
 10
-189.513464817831
 20
5.057157076857388
  0
LWPOLYLINE
  5
60
330
1F
100
AcDbEntity
  8
chh-07_Pen_No__7_Pen_No__7
  6
Continuous
100
AcDbPolyline
 90
        2
 70
   128
 43
0.0
 10
-199.5134648178307
 20
244.1233999291816
 10
-199.5134648178307
 20
5.057157076857388
  0
LWPOLYLINE
  5
61
330
1F
100
AcDbEntity
  8
chh-05_Pen_No__7_Pen_No__7
  6
Continuous
100
AcDbPolyline
 90
        4
 70
   129
 43
0.0
 10
-97.51346481783135
 20
5.057157076857388
 10
-97.51346481783135
 20
50.05715707685732
 10
-187.5134648178308
 20
50.05715707685732
 10
-187.5134648178308
 20
5.057157076857388
  0
LWPOLYLINE
  5
64
330
1F
100
AcDbEntity
  8
chh-txt_Pen_No__7_Pen_No__7
  6
Hidden
100
AcDbPolyline
 90
        9
 70
   128
 43
0.0
 10
-65.51346481783132
 20
23.57837148439068
 10
-66.85649175472169
 20
23.57837148439068
 10
-67.27396612871168
 20
24.57837148439101
 10
-114.4537628128213
 20
24.57837148439901
 10
-118.9661934223237
 20
26.06940775199651
 10
-114.4537628128209
 20
27.56044401966506
 10
-67.27396612871122
 20
27.56044401965707
 10
-66.85649175471237
 20
28.56044401965652
 10
-65.51346481782156
 20
28.56044401965652
  0
LWPOLYLINE
  5
66
330
1F
100
AcDbEntity
  8
chh-09_Pen_No__9_Pen_No__2
  6
Continuous
100
AcDbPolyline
 90
        2
 70
   128
 43
0.0
 10
49.92313605605209
 20
225.0826285575285
 10
-57.7859575449205
 20
225.0826285575285
  0
LWPOLYLINE
  5
67
330
1F
100
AcDbEntity
  8
chh-09_Pen_No__9_Pen_No__2
  6
Continuous
100
AcDbPolyline
 90
        2
 70
   128
 43
0.0
 10
49.92313605605209
 20
199.6382027635735
 10
-79.75968998262346
 20
199.6382027635735
  0
LWPOLYLINE
  5
68
330
1F
100
AcDbEntity
  8
chh-07_Pen_No__7_Pen_No__7
  6
Continuous
100
AcDbPolyline
 90
        6
 70
   128
 43
0.0
 10
-93.90483248972475
 20
35.38339365586851
 10
-93.90483248972475
 20
-37.61660634413189
 42
0.414213562373095
 10
-91.90483248972409
 20
-39.61660634413167
 10
-80.37789806540535
 20
-39.61660634413167
 42
0.414213562373095
 10
-78.37789806540557
 20
-37.61660634413189
 10
-78.37789806540557
 20
-24.6166063441311
  0
LWPOLYLINE
  5
69
330
1F
100
AcDbEntity
  8
chh-09_Pen_No__9_Pen_No__2
  6
Continuous
100
AcDbPolyline
 90
        3
 70
   128
 43
0.0
 10
49.92313605605209
 20
113.827628738455
 10
-158.7649712440318
 20
113.827628738455
 10
-159.2439433619995
 20
10.50317722658023
  0
LWPOLYLINE
  5
6A
330
1F
100
AcDbEntity
  8
chh-09_Pen_No__9_Pen_No__2
  6
Continuous
100
AcDbPolyline
 90
        2
 70
   128
 43
0.0
 10
49.92313605605209
 20
174.3699822218441
 10
-87.32113621570409
 20
174.3699822218441
  0
LWPOLYLINE
  5
6B
330
1F
100
AcDbEntity
  8
chh-09_Pen_No__9_Pen_No__2
  6
Continuous
100
AcDbPolyline
 90
        2
 70
   128
 43
0.0
 10
49.92313605605209
 20
150.1124962747069
 10
-182.3996609312409
 20
150.1124962747069
  0
LWPOLYLINE
  5
6C
330
1F
100
AcDbEntity
  8
chh-09_Pen_No__9_Pen_No__2
  6
Continuous
100
AcDbPolyline
 90
        3
 70
   128
 43
0.0
 10
50.44172022249266
 20
85.08455590580088
 10
8.391371056070074
 20
85.08455590580088
 10
-85.44691868413985
 20
-8.753733834399702
  0
LWPOLYLINE
  5
6D
330
1F
100
AcDbEntity
  8
chh-09_Pen_No__9_Pen_No__2
  6
Continuous
100
AcDbPolyline
 90
        2
 70
   128
 43
0.0
 10
49.92313605605209
 20
-146.9814128008193
 10
-93.46455687015471
 20
-146.9814128008193
  0
LWPOLYLINE
  5
6E
330
1F
100
AcDbEntity
  8
chh-09_Pen_No__9_Pen_No__2
  6
Continuous
100
AcDbPolyline
 90
        3
 70
   128
 43
0.0
 10
49.92313605605209
 20
-98.53081701662059
 10
-71.22135607627273
 20
-98.53081701662059
 10
-71.22135607627273
 20
-59.04514242419157
  0
DIMENSION
  5
9F
330
1F
100
AcDbEntity
  8
chh-txt
  6
Continuous
100
AcDbDimension
  2
*D1
 10
170.0294404875513
 20
-48.93059224800368
 30
0.0
 11
178.8317126779208
 21
-8.633185974201595
 31
0.0
 70
    32
  1
\A1;75mm max from fasteners
 71
     5
 42
-1.0
  3
GENERATED_STYLE__1
100
AcDbAlignedDimension
 13
110.383539232554
 23
-48.93059224800367
 33
0.0
 14
110.383539232554
 24
26.06940775199651
 34
0.0
 50
90.0
100
AcDbRotatedDimension
  0
DIMENSION
  5
B2
330
1F
100
AcDbEntity
  8
chh-txt
  6
Continuous
100
AcDbDimension
  2
*D3
 10
91.42652762459907
 20
-48.93059224800367
 30
0.0
 11
87.92652762459907
 21
-24.21764213814048
 31
0.0
 70
    32
  1
\A1;50mm min
 71
     5
 42
-1.0
  3
GENERATED_STYLE__2
100
AcDbAlignedDimension
 13
31.97867469324817
 23
-48.93059224800367
 33
0.0
 14
31.97867469324817
 24
1.069407751996154
 34
0.0
 50
90.0
100
AcDbRotatedDimension
  0
DIMENSION
  5
BF
330
1F
100
AcDbEntity
  8
chh-txt
  6
Continuous
100
AcDbDimension
  2
*D4
 10
7.771750978305459
 20
-48.93059224800367
 30
0.0
 11
4.271750978305457
 21
-65.6728827101179
 31
0.0
 70
    32
  1
\A1;10mm min
 71
     5
 42
-1.0
  3
GENERATED_STYLE__2
100
AcDbAlignedDimension
 13
-47.72744007993818
 23
-48.93059224800367
 33
0.0
 14
-47.72744007993818
 24
-38.93059224800388
 34
0.0
 50
90.0
100
AcDbRotatedDimension
  0
MTEXT
  5
C0
330
1F
100
AcDbEntity
  8
chh-txt_Pen_No__7_Pen_No__7
  6
Continuous
100
AcDbMText
 10
53.79655961381607
 20
221.8520020353828
 30
0.0
 40
5.0
 41
0.0
 71
     7
 72
     1
  1
{Shadowclad}
  7
GENERATED_STYLE_1
 73
     1
 44
1.0
  0
MTEXT
  5
C1
330
1F
100
AcDbEntity
  8
chh-txt_Pen_No__7_Pen_No__7
  6
Continuous
100
AcDbMText
 10
53.79655961381607
 20
194.982526420883
 30
0.0
 40
5.0
 41
0.0
 71
     7
 72
     1
  1
{Cavity battens}
  7
GENERATED_STYLE_1
 73
     1
 44
1.0
  0
MTEXT
  5
C2
330
1F
100
AcDbEntity
  8
chh-txt_Pen_No__7_Pen_No__7
  6
Continuous
100
AcDbMText
 10
53.79655961381607
 20
-147.5304650149142
 30
0.0
 40
5.0
 41
0.0
 71
     7
 72
     1
  1
{Concrete slab}
  7
GENERATED_STYLE_1
 73
     1
 44
1.0
  0
MTEXT
  5
C3
330
1F
100
AcDbEntity
  8
chh-txt_Pen_No__7_Pen_No__7
  6
Continuous
100
AcDbMText
 10
53.79655961381607
 20
-165.4555148354596
 30
0.0
 40
5.0
 41
0.0
 71
     7
 72
     1
  1
{Minimum ground clearance to base of Shadowclad:}
  7
GENERATED_STYLE_1
 73
     1
 44
1.0
  0
MTEXT
  5
C4
330
1F
100
AcDbEntity
  8
chh-txt_Pen_No__7_Pen_No__7
  6
Continuous
100
AcDbMText
 10
-363.0592895894239
 20
-284.1710913959766
 30
0.0
 40
5.0
 41
0.0
 71
     7
 72
     1
  1
{Vertical section}
  7
GENERATED_STYLE_1
 73
     1
 44
1.0
  0
MTEXT
  5
C5
330
1F
100
AcDbEntity
  8
chh-txt_Pen_No__7_Pen_No__7
  6
Continuous
100
AcDbMText
 10
53.79655961381607
 20
110.9276879255169
 30
0.0
 40
5.0
 41
0.0
 71
     7
 72
     1
  1
{Damp proof course}
  7
GENERATED_STYLE_1
 73
     1
 44
1.0
  0
MTEXT
  5
C6
330
1F
100
AcDbEntity
  8
chh-txt_Pen_No__7_Pen_No__7
  6
Continuous
100
AcDbMText
 10
53.79655961381607
 20
80.10714820106524
 30
0.0
 40
5.0
 41
0.0
 71
     7
 72
     1
  1
{75mm min upstand cavity base closure vent }
  7
GENERATED_STYLE_1
 73
     1
 44
1.0
  0
MTEXT
  5
C7
330
1F
100
AcDbEntity
  8
chh-txt_Pen_No__7_Pen_No__7
  6
Continuous
100
AcDbMText
 10
53.79655961381607
 20
70.69534820106524
 30
0.0
 40
5.0
 41
0.0
 71
     7
 72
     1
  1
{strip. Position to give 15mm drip edge to cladding}
  7
GENERATED_STYLE_1
 73
     1
 44
1.0
  0
MTEXT
  5
C8
330
1F
100
AcDbEntity
  8
Defpoints_Pen_No__1_Pen_No__115
  6
Continuous
100
AcDbMText
 10
-365.6425316712397
 20
-357.8359580229043
 30
0.0
 40
10.0
 41
0.0
 71
     7
 72
     1
  1
{SC042 Shadowclad Overhangs and Ground Clearance (Cavity)}
  7
GENERATED_STYLE_1
 73
     1
 44
1.0
  0
MTEXT
  5
CA
330
1F
100
AcDbEntity
  8
chh-txt_Pen_No__7_Pen_No__7
  6
Continuous
100
AcDbMText
 10
53.79655961381607
 20
169.7143058791536
 30
0.0
 40
5.0
 41
0.0
 71
     7
 72
     1
  1
{Building underlay}
  7
GENERATED_STYLE_1
 73
     1
 44
1.0
  0
MTEXT
  5
CB
330
1F
100
AcDbEntity
  8
chh-txt_Pen_No__7_Pen_No__7
  6
Continuous
100
AcDbMText
 10
53.79655961381607
 20
145.4568199320164
 30
0.0
 40
5.0
 41
0.0
 71
     7
 72
     1
  1
{Internal wall lining }
  7
GENERATED_STYLE_1
 73
     1
 44
1.0
  0
MTEXT
  5
CC
330
1F
100
AcDbEntity
  8
chh-txt_Pen_No__7_Pen_No__7
  6
Continuous
100
AcDbMText
 10
53.79655961381607
 20
-101.5349685691426
 30
0.0
 40
5.0
 41
0.0
 71
     7
 72
     1
  1
{Treat all Shadowclad cut edges with }
  7
GENERATED_STYLE_1
 73
     1
 44
1.0
  0
MTEXT
  5
CD
330
1F
100
AcDbEntity
  8
chh-txt_Pen_No__7_Pen_No__7
  6
Continuous
100
AcDbMText
 10
53.79655961381607
 20
-109.5508310413734
 30
0.0
 40
5.0
 41
0.0
 71
     7
 72
     1
  1
{Holdfast Metalex Clear }
  7
GENERATED_STYLE_1
 73
     1
 44
1.0
  0
MTEXT
  5
CE
330
1F
100
AcDbEntity
  8
chh-txt_Pen_No__7_Pen_No__7
  6
Continuous
100
AcDbMText
 10
68.7965596138162
 20
-174.8673148354596
 30
0.0
 40
5.0
 41
0.0
 71
     7
 72
     1
  1
{100mm to deck/paved ground}
  7
GENERATED_STYLE_1
 73
     1
 44
1.0
  0
MTEXT
  5
CF
330
1F
100
AcDbEntity
  8
chh-txt_Pen_No__7_Pen_No__7
  6
Continuous
100
AcDbMText
 10
68.7965596138162
 20
-184.2791148354596
 30
0.0
 40
5.0
 41
0.0
 71
     7
 72
     1
  1
{175mm to unprotected ground}
  7
GENERATED_STYLE_1
 73
     1
 44
1.0
  0
ENDSEC
  0
SECTION
  2
OBJECTS
  0
DICTIONARY
  5
C
330
0
100
AcDbDictionary
281
     1
  3
ACAD_GROUP
350
D
  3
ACAD_LAYOUT
350
1A
  3
ACAD_MLEADERSTYLE
350
D8
  3
ACAD_MLINESTYLE
350
17
  3
ACAD_PLOTSETTINGS
350
19
  3
ACAD_PLOTSTYLENAME
350
E
  3
ACAD_SCALELIST
350
7D
  3
ACAD_TABLESTYLE
350
D7
  3
ACAD_VISUALSTYLE
350
2A
  3
AcDbVariableDictionary
350
D5
  3
WATERMARKS
350
D3
  0
DICTIONARY
  5
D
102
{ACAD_REACTORS
330
C
102
}
330
C
100
AcDbDictionary
281
     1
  0
DICTIONARY
  5
1A
102
{ACAD_REACTORS
330
C
102
}
330
C
100
AcDbDictionary
281
     1
  3
Layout1
350
1E
  3
Layout2
350
26
  3
Model
350
22
  0
DICTIONARY
  5
D8
102
{ACAD_REACTORS
330
C
102
}
330
C
100
AcDbDictionary
281
     1
  0
DICTIONARY
  5
17
102
{ACAD_REACTORS
330
C
102
}
330
C
100
AcDbDictionary
281
     1
  3
Standard
350
18
  0
DICTIONARY
  5
19
102
{ACAD_REACTORS
330
C
102
}
330
C
100
AcDbDictionary
281
     1
  0
ACDBDICTIONARYWDFLT
  5
E
102
{ACAD_REACTORS
330
C
102
}
330
C
100
AcDbDictionary
281
     1
  3
Normal
350
F
100
AcDbDictionaryWithDefault
340
F
  0
DICTIONARY
  5
7D
102
{ACAD_REACTORS
330
C
102
}
330
C
100
AcDbDictionary
281
     1
  3
A0
350
7E
  3
A1
350
7F
  3
A2
350
80
  3
A3
350
81
  3
A4
350
82
  3
A5
350
83
  3
A6
350
84
  3
A7
350
85
  3
A8
350
86
  3
A9
350
87
  3
B0
350
88
  3
B1
350
89
  3
B2
350
8A
  3
B3
350
8B
  3
B4
350
8C
  3
B5
350
8D
  3
B6
350
8E
  3
B7
350
8F
  3
B8
350
90
  3
B9
350
91
  3
C0
350
92
  3
C1
350
93
  3
C2
350
94
  3
C3
350
95
  3
C4
350
96
  3
C5
350
97
  3
C6
350
98
  3
C7
350
99
  3
C8
350
9A
  3
C9
350
9B
  3
D0
350
9C
  3
D1
350
9D
  3
D2
350
9E
  0
DICTIONARY
  5
D7
102
{ACAD_REACTORS
330
C
102
}
330
C
100
AcDbDictionary
281
     1
  0
DICTIONARY
  5
2A
102
{ACAD_REACTORS
330
C
102
}
330
C
100
AcDbDictionary
281
     1
  3
2dWireframe
350
2F
  3
3D Hidden
350
31
  3
3dWireframe
350
30
  3
Basic
350
32
  3
Brighten
350
36
  3
ColorChange
350
3A
  3
Conceptual
350
34
  3
Dim
350
35
  3
Facepattern
350
39
  3
Flat
350
2B
  3
FlatWithEdges
350
2C
  3
Gouraud
350
2D
  3
GouraudWithEdges
350
2E
  3
Linepattern
350
38
  3
Realistic
350
33
  3
Thicken
350
37
  0
DICTIONARY
  5
D5
102
{ACAD_REACTORS
330
C
102
}
330
C
100
AcDbDictionary
281
     1
  3
CANNOSCALE
350
D6
  0
DICTIONARY
  5
D3
102
{ACAD_REACTORS
330
C
102
}
330
C
100
AcDbDictionary
281
     1
  3
AC_WATERMARK
350
D4
  0
LAYOUT
  5
1E
102
{ACAD_REACTORS
330
1A
102
}
330
1A
100
AcDbPlotSettings
  1

  2
none_device
  4

  6

 40
0.0
 41
0.0
 42
0.0
 43
0.0
 44
0.0
 45
0.0
 46
0.0
 47
0.0
 48
0.0
 49
0.0
140
0.0
141
0.0
142
1.0
143
1.0
 70
   688
 72
     0
 73
     0
 74
     5
  7

 75
    16
 76
     0
 77
     2
 78
   300
147
1.0
148
0.0
149
0.0
100
AcDbLayout
  1
Layout1
 70
     1
 71
     1
 10
0.0
 20
0.0
 11
12.0
 21
9.0
 12
0.0
 22
0.0
 32
0.0
 14
1.000000000000000E+20
 24
1.000000000000000E+20
 34
1.000000000000000E+20
 15
-1.000000000000000E+20
 25
-1.000000000000000E+20
 35
-1.000000000000000E+20
146
0.0
 13
0.0
 23
0.0
 33
0.0
 16
1.0
 26
0.0
 36
0.0
 17
0.0
 27
1.0
 37
0.0
 76
     0
330
1B
  0
LAYOUT
  5
26
102
{ACAD_REACTORS
330
1A
102
}
330
1A
100
AcDbPlotSettings
  1

  2
none_device
  4

  6

 40
0.0
 41
0.0
 42
0.0
 43
0.0
 44
0.0
 45
0.0
 46
0.0
 47
0.0
 48
0.0
 49
0.0
140
0.0
141
0.0
142
1.0
143
1.0
 70
   688
 72
     0
 73
     0
 74
     5
  7

 75
    16
 76
     0
 77
     2
 78
   300
147
1.0
148
0.0
149
0.0
100
AcDbLayout
  1
Layout2
 70
     1
 71
     2
 10
0.0
 20
0.0
 11
0.0
 21
0.0
 12
0.0
 22
0.0
 32
0.0
 14
0.0
 24
0.0
 34
0.0
 15
0.0
 25
0.0
 35
0.0
146
0.0
 13
0.0
 23
0.0
 33
0.0
 16
1.0
 26
0.0
 36
0.0
 17
0.0
 27
1.0
 37
0.0
 76
     0
330
23
  0
LAYOUT
  5
22
102
{ACAD_REACTORS
330
1A
102
}
330
1A
100
AcDbPlotSettings
  1

  2
none_device
  4

  6

 40
0.0
 41
0.0
 42
0.0
 43
0.0
 44
0.0
 45
0.0
 46
0.0
 47
0.0
 48
0.0
 49
0.0
140
0.0
141
0.0
142
1.0
143
1.0
 70
  1712
 72
     0
 73
     0
 74
     0
  7

 75
     0
 76
     0
 77
     2
 78
   300
147
1.0
148
0.0
149
0.0
100
AcDbLayout
  1
Model
 70
     1
 71
     0
 10
0.0
 20
0.0
 11
12.0
 21
9.0
 12
0.0
 22
0.0
 32
0.0
 14
1.000000000000000E+20
 24
1.000000000000000E+20
 34
1.000000000000000E+20
 15
-1.000000000000000E+20
 25
-1.000000000000000E+20
 35
-1.000000000000000E+20
146
0.0
 13
0.0
 23
0.0
 33
0.0
 16
1.0
 26
0.0
 36
0.0
 17
0.0
 27
1.0
 37
0.0
 76
     0
330
1F
331
29
  0
MLINESTYLE
  5
18
102
{ACAD_REACTORS
330
17
102
}
330
17
100
AcDbMlineStyle
  2
Standard
 70
     0
  3

 62
   256
 51
90.0
 52
90.0
 71
     2
 49
0.5
 62
   256
  6
BYLAYER
 49
-0.5
 62
   256
  6
BYLAYER
  0
ACDBPLACEHOLDER
  5
F
102
{ACAD_REACTORS
330
E
102
}
330
E
  0
SCALE
  5
7E
102
{ACAD_REACTORS
330
7D
102
}
330
7D
100
AcDbScale
 70
     0
300
1:1
140
1.0
141
1.0
290
     1
  0
SCALE
  5
7F
102
{ACAD_REACTORS
330
7D
102
}
330
7D
100
AcDbScale
 70
     0
300
1:2
140
1.0
141
2.0
290
     0
  0
SCALE
  5
80
102
{ACAD_REACTORS
330
7D
102
}
330
7D
100
AcDbScale
 70
     0
300
1:4
140
1.0
141
4.0
290
     0
  0
SCALE
  5
81
102
{ACAD_REACTORS
330
7D
102
}
330
7D
100
AcDbScale
 70
     0
300
1:5
140
1.0
141
5.0
290
     0
  0
SCALE
  5
82
102
{ACAD_REACTORS
330
7D
102
}
330
7D
100
AcDbScale
 70
     0
300
1:8
140
1.0
141
8.0
290
     0
  0
SCALE
  5
83
102
{ACAD_REACTORS
330
7D
102
}
330
7D
100
AcDbScale
 70
     0
300
1:10
140
1.0
141
10.0
290
     0
  0
SCALE
  5
84
102
{ACAD_REACTORS
330
7D
102
}
330
7D
100
AcDbScale
 70
     0
300
1:16
140
1.0
141
16.0
290
     0
  0
SCALE
  5
85
102
{ACAD_REACTORS
330
7D
102
}
330
7D
100
AcDbScale
 70
     0
300
1:20
140
1.0
141
20.0
290
     0
  0
SCALE
  5
86
102
{ACAD_REACTORS
330
7D
102
}
330
7D
100
AcDbScale
 70
     0
300
1:30
140
1.0
141
30.0
290
     0
  0
SCALE
  5
87
102
{ACAD_REACTORS
330
7D
102
}
330
7D
100
AcDbScale
 70
     0
300
1:40
140
1.0
141
40.0
290
     0
  0
SCALE
  5
88
102
{ACAD_REACTORS
330
7D
102
}
330
7D
100
AcDbScale
 70
     0
300
1:50
140
1.0
141
50.0
290
     0
  0
SCALE
  5
89
102
{ACAD_REACTORS
330
7D
102
}
330
7D
100
AcDbScale
 70
     0
300
1:100
140
1.0
141
100.0
290
     0
  0
SCALE
  5
8A
102
{ACAD_REACTORS
330
7D
102
}
330
7D
100
AcDbScale
 70
     0
300
2:1
140
2.0
141
1.0
290
     0
  0
SCALE
  5
8B
102
{ACAD_REACTORS
330
7D
102
}
330
7D
100
AcDbScale
 70
     0
300
4:1
140
4.0
141
1.0
290
     0
  0
SCALE
  5
8C
102
{ACAD_REACTORS
330
7D
102
}
330
7D
100
AcDbScale
 70
     0
300
8:1
140
8.0
141
1.0
290
     0
  0
SCALE
  5
8D
102
{ACAD_REACTORS
330
7D
102
}
330
7D
100
AcDbScale
 70
     0
300
10:1
140
10.0
141
1.0
290
     0
  0
SCALE
  5
8E
102
{ACAD_REACTORS
330
7D
102
}
330
7D
100
AcDbScale
 70
     0
300
100:1
140
100.0
141
1.0
290
     0
  0
SCALE
  5
8F
102
{ACAD_REACTORS
330
7D
102
}
330
7D
100
AcDbScale
 70
     0
300
1/128" = 1'-0"
140
0.0078125
141
12.0
290
     0
  0
SCALE
  5
90
102
{ACAD_REACTORS
330
7D
102
}
330
7D
100
AcDbScale
 70
     0
300
1/64" = 1'-0"
140
0.015625
141
12.0
290
     0
  0
SCALE
  5
91
102
{ACAD_REACTORS
330
7D
102
}
330
7D
100
AcDbScale
 70
     0
300
1/32" = 1'-0"
140
0.03125
141
12.0
290
     0
  0
SCALE
  5
92
102
{ACAD_REACTORS
330
7D
102
}
330
7D
100
AcDbScale
 70
     0
300
1/16" = 1'-0"
140
0.0625
141
12.0
290
     0
  0
SCALE
  5
93
102
{ACAD_REACTORS
330
7D
102
}
330
7D
100
AcDbScale
 70
     0
300
3/32" = 1'-0"
140
0.09375
141
12.0
290
     0
  0
SCALE
  5
94
102
{ACAD_REACTORS
330
7D
102
}
330
7D
100
AcDbScale
 70
     0
300
1/8" = 1'-0"
140
0.125
141
12.0
290
     0
  0
SCALE
  5
95
102
{ACAD_REACTORS
330
7D
102
}
330
7D
100
AcDbScale
 70
     0
300
3/16" = 1'-0"
140
0.1875
141
12.0
290
     0
  0
SCALE
  5
96
102
{ACAD_REACTORS
330
7D
102
}
330
7D
100
AcDbScale
 70
     0
300
1/4" = 1'-0"
140
0.25
141
12.0
290
     0
  0
SCALE
  5
97
102
{ACAD_REACTORS
330
7D
102
}
330
7D
100
AcDbScale
 70
     0
300
3/8" = 1'-0"
140
0.375
141
12.0
290
     0
  0
SCALE
  5
98
102
{ACAD_REACTORS
330
7D
102
}
330
7D
100
AcDbScale
 70
     0
300
1/2" = 1'-0"
140
0.5
141
12.0
290
     0
  0
SCALE
  5
99
102
{ACAD_REACTORS
330
7D
102
}
330
7D
100
AcDbScale
 70
     0
300
3/4" = 1'-0"
140
0.75
141
12.0
290
     0
  0
SCALE
  5
9A
102
{ACAD_REACTORS
330
7D
102
}
330
7D
100
AcDbScale
 70
     0
300
1" = 1'-0"
140
1.0
141
12.0
290
     0
  0
SCALE
  5
9B
102
{ACAD_REACTORS
330
7D
102
}
330
7D
100
AcDbScale
 70
     0
300
1-1/2" = 1'-0"
140
1.5
141
12.0
290
     0
  0
SCALE
  5
9C
102
{ACAD_REACTORS
330
7D
102
}
330
7D
100
AcDbScale
 70
     0
300
3" = 1'-0"
140
3.0
141
12.0
290
     0
  0
SCALE
  5
9D
102
{ACAD_REACTORS
330
7D
102
}
330
7D
100
AcDbScale
 70
     0
300
6" = 1'-0"
140
6.0
141
12.0
290
     0
  0
SCALE
  5
9E
102
{ACAD_REACTORS
330
7D
102
}
330
7D
100
AcDbScale
 70
     0
300
1'-0" = 1'-0"
140
12.0
141
12.0
290
     0
  0
VISUALSTYLE
  5
2F
102
{ACAD_REACTORS
330
2A
102
}
330
2A
100
AcDbVisualStyle
  2
2dWireframe
 70
     4
 71
     0
 72
     2
 73
     0
 90
        0
 40
-0.6
 41
-30.0
 62
     5
 63
     7
421
 16777215
 74
     1
 91
        4
 64
     7
 65
   257
 75
     1
175
     1
 42
1.0
 92
        0
 66
   257
 43
1.0
 76
     1
 77
     6
 78
     2
 67
     7
 79
     5
170
     0
171
     0
290
     0
174
     0
 93
        1
 44
0.0
173
     0
291
     0
 45
0.0
1001
ACAD
1000
AcDbSavedByObjectVersion
1070
     0
  0
VISUALSTYLE
  5
31
102
{ACAD_REACTORS
330
2A
102
}
330
2A
100
AcDbVisualStyle
  2
3D Hidden
 70
     6
 71
     1
 72
     2
 73
     2
 90
        0
 40
-0.6
 41
-30.0
 62
     5
 63
     7
421
 16777215
 74
     2
 91
        2
 64
     7
 65
   257
 75
     2
175
     1
 42
40.0
 92
        0
 66
   257
 43
1.0
 76
     1
 77
     6
 78
     2
 67
     7
 79
     3
170
     0
171
     0
290
     0
174
     0
 93
        1
 44
0.0
173
     0
291
     0
 45
0.0
1001
ACAD
1000
AcDbSavedByObjectVersion
1070
     0
  0
VISUALSTYLE
  5
30
102
{ACAD_REACTORS
330
2A
102
}
330
2A
100
AcDbVisualStyle
  2
3dWireframe
 70
     5
 71
     0
 72
     2
 73
     0
 90
        0
 40
-0.6
 41
-30.0
 62
     5
 63
     7
421
 16777215
 74
     1
 91
        4
 64
     7
 65
   257
 75
     1
175
     1
 42
1.0
 92
        0
 66
   257
 43
1.0
 76
     1
 77
     6
 78
     2
 67
     7
 79
     5
170
     0
171
     0
290
     0
174
     0
 93
        1
 44
0.0
173
     0
291
     0
 45
0.0
1001
ACAD
1000
AcDbSavedByObjectVersion
1070
     0
  0
VISUALSTYLE
  5
32
102
{ACAD_REACTORS
330
2A
102
}
330
2A
100
AcDbVisualStyle
  2
Basic
 70
     7
 71
     1
 72
     0
 73
     1
 90
        0
 40
-0.6
 41
-30.0
 62
     5
 63
     7
421
 16777215
 74
     0
 91
        4
 64
     7
 65
   257
 75
     1
175
     1
 42
1.0
 92
        8
 66
     7
 43
1.0
 76
     1
 77
     6
 78
     2
 67
     7
 79
     5
170
     0
171
     0
290
     0
174
     0
 93
        1
 44
0.0
173
     0
291
     1
 45
0.0
1001
ACAD
1000
AcDbSavedByObjectVersion
1070
     0
  0
VISUALSTYLE
  5
36
102
{ACAD_REACTORS
330
2A
102
}
330
2A
100
AcDbVisualStyle
  2
Brighten
 70
    12
 71
     2
 72
     2
 73
     0
 90
        0
 40
-0.6
 41
-30.0
 62
     5
 63
     7
421
 16777215
 74
     1
 91
        4
 64
     7
 65
   257
 75
     1
175
     1
 42
1.0
 92
        8
 66
     7
 43
1.0
 76
     1
 77
     6
 78
     2
 67
     7
 79
     5
170
     0
171
     0
290
     0
174
     0
 93
        1
 44
50.0
173
     0
291
     1
 45
0.0
1001
ACAD
1000
AcDbSavedByObjectVersion
1070
     0
  0
VISUALSTYLE
  5
3A
102
{ACAD_REACTORS
330
2A
102
}
330
2A
100
AcDbVisualStyle
  2
ColorChange
 70
    16
 71
     2
 72
     2
 73
     3
 90
        0
 40
-0.6
 41
-30.0
 62
     5
 63
     8
421
  8421504
 74
     1
 91
        4
 64
     7
 65
   257
 75
     1
175
     1
 42
1.0
 92
        8
 66
     8
424
  8421504
 43
1.0
 76
     1
 77
     6
 78
     2
 67
     7
 79
     5
170
     0
171
     0
290
     0
174
     0
 93
        1
 44
0.0
173
     0
291
     1
 45
0.0
1001
ACAD
1000
AcDbSavedByObjectVersion
1070
     0
  0
VISUALSTYLE
  5
34
102
{ACAD_REACTORS
330
2A
102
}
330
2A
100
AcDbVisualStyle
  2
Conceptual
 70
     9
 71
     3
 72
     2
 73
     0
 90
        0
 40
-0.6
 41
-30.0
 62
     5
 63
     7
421
 16777215
 74
     2
 91
        2
 64
     7
 65
   257
 75
     1
175
     1
 42
40.0
 92
        8
 66
     7
 43
1.0
 76
     1
 77
     6
 78
     2
 67
     7
 79
     3
170
     0
171
     0
290
     0
174
     0
 93
        1
 44
0.0
173
     0
291
     0
 45
0.0
1001
ACAD
1000
AcDbSavedByObjectVersion
1070
     0
  0
VISUALSTYLE
  5
35
102
{ACAD_REACTORS
330
2A
102
}
330
2A
100
AcDbVisualStyle
  2
Dim
 70
    11
 71
     2
 72
     2
 73
     0
 90
        0
 40
-0.6
 41
-30.0
 62
     5
 63
     7
421
 16777215
 74
     1
 91
        4
 64
     7
 65
   257
 75
     1
175
     1
 42
1.0
 92
        8
 66
     7
 43
1.0
 76
     1
 77
     6
 78
     2
 67
     7
 79
     5
170
     0
171
     0
290
     0
174
     0
 93
        1
 44
-50.0
173
     0
291
     1
 45
0.0
1001
ACAD
1000
AcDbSavedByObjectVersion
1070
     0
  0
VISUALSTYLE
  5
39
102
{ACAD_REACTORS
330
2A
102
}
330
2A
100
AcDbVisualStyle
  2
Facepattern
 70
    15
 71
     2
 72
     2
 73
     0
 90
        0
 40
-0.6
 41
-30.0
 62
     5
 63
     7
421
 16777215
 74
     1
 91
        4
 64
     7
 65
   257
 75
     1
175
     1
 42
1.0
 92
        8
 66
     7
 43
1.0
 76
     1
 77
     6
 78
     2
 67
     7
 79
     5
170
     0
171
     0
290
     0
174
     0
 93
        1
 44
0.0
173
     0
291
     1
 45
0.0
1001
ACAD
1000
AcDbSavedByObjectVersion
1070
     0
  0
VISUALSTYLE
  5
2B
102
{ACAD_REACTORS
330
2A
102
}
330
2A
100
AcDbVisualStyle
  2
Flat
 70
     0
 71
     2
 72
     1
 73
     1
 90
        2
 40
-0.6
 41
30.0
 62
     5
 63
     7
421
 16777215
 74
     0
 91
        4
 64
     7
 65
   257
 75
     1
175
     1
 42
1.0
 92
        8
 66
     7
 43
1.0
 76
     1
 77
     6
 78
     2
 67
     7
 79
     5
170
     0
171
     0
290
     0
174
     0
 93
       13
 44
0.0
173
     0
291
     1
 45
0.0
1001
ACAD
1000
AcDbSavedByObjectVersion
1070
     0
  0
VISUALSTYLE
  5
2C
102
{ACAD_REACTORS
330
2A
102
}
330
2A
100
AcDbVisualStyle
  2
FlatWithEdges
 70
     1
 71
     2
 72
     1
 73
     1
 90
        2
 40
-0.6
 41
30.0
 62
     5
 63
     7
421
 16777215
 74
     1
 91
        4
 64
     7
 65
   257
 75
     1
175
     1
 42
1.0
 92
        0
 66
   257
 43
1.0
 76
     1
 77
     6
 78
     2
 67
     7
 79
     5
170
     0
171
     0
290
     0
174
     0
 93
       13
 44
0.0
173
     0
291
     1
 45
0.0
1001
ACAD
1000
AcDbSavedByObjectVersion
1070
     0
  0
VISUALSTYLE
  5
2D
102
{ACAD_REACTORS
330
2A
102
}
330
2A
100
AcDbVisualStyle
  2
Gouraud
 70
     2
 71
     2
 72
     2
 73
     1
 90
        2
 40
-0.6
 41
30.0
 62
     5
 63
     7
421
 16777215
 74
     0
 91
        4
 64
     7
 65
   257
 75
     1
175
     1
 42
1.0
 92
        0
 66
     7
 43
1.0
 76
     1
 77
     6
 78
     2
 67
     7
 79
     5
170
     0
171
     0
290
     0
174
     0
 93
       13
 44
0.0
173
     0
291
     1
 45
0.0
1001
ACAD
1000
AcDbSavedByObjectVersion
1070
     0
  0
VISUALSTYLE
  5
2E
102
{ACAD_REACTORS
330
2A
102
}
330
2A
100
AcDbVisualStyle
  2
GouraudWithEdges
 70
     3
 71
     2
 72
     2
 73
     1
 90
        2
 40
-0.6
 41
30.0
 62
     5
 63
     7
421
 16777215
 74
     1
 91
        4
 64
     7
 65
   257
 75
     1
175
     1
 42
1.0
 92
        0
 66
   257
 43
1.0
 76
     1
 77
     6
 78
     2
 67
     7
 79
     5
170
     0
171
     0
290
     0
174
     0
 93
       13
 44
0.0
173
     0
291
     1
 45
0.0
1001
ACAD
1000
AcDbSavedByObjectVersion
1070
     0
  0
VISUALSTYLE
  5
38
102
{ACAD_REACTORS
330
2A
102
}
330
2A
100
AcDbVisualStyle
  2
Linepattern
 70
    14
 71
     2
 72
     2
 73
     0
 90
        0
 40
-0.6
 41
-30.0
 62
     5
 63
     7
421
 16777215
 74
     1
 91
        4
 64
     7
 65
   257
 75
     7
175
     7
 42
1.0
 92
        8
 66
     7
 43
1.0
 76
     1
 77
     6
 78
     2
 67
     7
 79
     5
170
     0
171
     0
290
     0
174
     0
 93
        1
 44
0.0
173
     0
291
     1
 45
0.0
1001
ACAD
1000
AcDbSavedByObjectVersion
1070
     0
  0
VISUALSTYLE
  5
33
102
{ACAD_REACTORS
330
2A
102
}
330
2A
100
AcDbVisualStyle
  2
Realistic
 70
     8
 71
     2
 72
     2
 73
     0
 90
        0
 40
-0.6
 41
-30.0
 62
     5
 63
     7
421
 16777215
 74
     1
 91
        0
 64
     7
 65
   257
 75
     1
175
     1
 42
1.0
 92
        8
 66
     8
424
  7895160
 43
1.0
 76
     1
 77
     6
 78
     2
 67
     7
 79
     5
170
     0
171
     0
290
     0
174
     0
 93
       13
 44
0.0
173
     0
291
     0
 45
0.0
1001
ACAD
1000
AcDbSavedByObjectVersion
1070
     0
  0
VISUALSTYLE
  5
37
102
{ACAD_REACTORS
330
2A
102
}
330
2A
100
AcDbVisualStyle
  2
Thicken
 70
    13
 71
     2
 72
     2
 73
     0
 90
        0
 40
-0.6
 41
-30.0
 62
     5
 63
     7
421
 16777215
 74
     1
 91
        4
 64
     7
 65
   257
 75
     1
175
     1
 42
1.0
 92
       12
 66
     7
 43
1.0
 76
     1
 77
     6
 78
     2
 67
     7
 79
     5
170
     0
171
     0
290
     0
174
     0
 93
        1
 44
0.0
173
     0
291
     1
 45
0.0
1001
ACAD
1000
AcDbSavedByObjectVersion
1070
     0
  0
DICTIONARYVAR
  5
D6
102
{ACAD_REACTORS
330
D5
102
}
330
D5
100
DictionaryVariables
280
     0
  1
1:1
  0
XRECORD
  5
D4
102
{ACAD_REACTORS
330
D3
102
}
330
D3
100
AcDbXrecord
280
     1
1000
This DWG file was created in ArchiCAD(TM)®
  0
ENDSEC
  0
EOF
